osu file format v14

[General]
AudioFilename: audio.mp3
AudioLeadIn: 0
PreviewTime: 83506
Countdown: 0
SampleSet: Soft
StackLeniency: 0.5
Mode: 0
LetterboxInBreaks: 0
WidescreenStoryboard: 1

[Editor]
Bookmarks: 10276,20122,22583,42276,44737,54583,64430,74276,84122,103814,113660
DistanceSpacing: 1.1
BeatDivisor: 4
GridSize: 8
TimelineZoom: 3.4

[Metadata]
Title:Altros
TitleUnicode:Altros
Artist:ARForest
ArtistUnicode:ARForest
Creator:Down
Version:Dailycare's Hard
Source:
Tags:omc ofc contest helloscv dailycare milr_ [_white_music_] len fast cellina reana taeyang
BeatmapID:1407234
BeatmapSetID:658433

[Difficulty]
HPDrainRate:5
CircleSize:3.5
OverallDifficulty:6.4
ApproachRate:7.9
SliderMultiplier:1.48
SliderTickRate:1

[Events]
//Background and Video events
0,0,"bg.jpg",0,0
//Break Periods
2,20737,21538
2,42501,43999
2,45506,46461
2,47968,48922
2,50430,51384
2,52891,53845
2,64655,73538
//Storyboard Layer 0 (Background)
//Storyboard Layer 1 (Fail)
//Storyboard Layer 2 (Pass)
//Storyboard Layer 3 (Foreground)
//Storyboard Sound Samples

[TimingPoints]
456,307.692307692308,4,2,39,40,1,0
10302,-100,4,2,39,40,0,0
22302,-100,4,2,39,65,0,0
22609,-100,4,2,39,65,0,1
22686,-100,4,2,39,65,0,0
32456,-100,4,2,39,65,0,1
32532,-100,4,2,39,65,0,0
44763,-121.212121212121,4,2,39,30,0,0
54609,-100,4,2,39,50,0,0
74302,-166.666666666667,4,2,0,30,0,0
83532,-121.212121212121,4,2,39,60,0,0
84148,-100,4,2,39,80,0,1
84225,-100,4,2,39,80,0,0
93994,-100,4,2,39,80,0,1
94071,-100,4,2,39,80,0,0

[Colours]
Combo1 : 63,183,222
Combo2 : 123,123,123
Combo3 : 225,225,225
Combo4 : 232,197,89
Combo5 : 158,92,75
Combo6 : 234,62,66
SliderTrackOverride : 40,40,40

[HitObjects]
115,27,10302,5,2,0:0:0:0:
135,167,10763,1,2,0:0:0:0:
198,37,11225,1,2,0:0:0:0:
73,102,11686,1,0,0:0:0:0:
210,123,12148,5,10,0:0:0:0:
279,75,12456,1,2,0:0:0:0:
285,159,12763,5,2,0:0:0:0:
265,299,13224,1,2,0:0:0:0:
202,169,13686,1,2,0:0:0:0:
327,234,14147,1,0,0:0:0:0:
190,255,14609,5,10,0:0:0:0:
123,206,14917,1,2,0:0:0:0:
117,288,15225,5,2,0:0:0:0:
258,245,15686,1,2,0:0:0:0:
123,206,16148,1,2,0:0:0:0:
204,315,16609,1,0,0:0:0:0:
203,175,17071,5,10,0:0:0:0:
137,124,17379,1,2,0:0:0:0:
212,90,17686,5,2,0:0:0:0:
277,219,18148,1,2,0:0:0:0:
296,76,18609,1,0,0:0:0:0:
203,175,19071,1,2,0:0:0:0:
339,153,19532,5,10,0:0:0:0:
414,121,19840,1,2,0:0:0:0:
463,185,20148,5,4,0:1:0:0:
463,185,22302,6,0,L|470:146,3,37,2|2|2|2,0:0|0:0|0:0|0:0,0:0:0:0:
487,127,22609,6,0,P|412:139|321:158,1,148,6|8,0:0|0:0,0:0:0:0:
260,128,23071,1,0,0:0:0:0:
278,215,23225,2,0,P|294:252|310:298,1,74,2|8,0:0|0:0,0:0:0:0:
365,346,23532,1,0,0:0:0:0:
390,258,23686,1,2,0:0:0:0:
305,283,23840,6,0,P|250:298|154:232,1,148,0|8,0:0|0:0,0:0:0:0:
93,224,24302,1,0,0:0:0:0:
16,258,24456,2,0,P|23:311|30:375,2,111,0|0|0,0:0|0:0|0:0,0:0:0:0:
28,170,25071,6,0,P|8:124|83:42,1,148,2|8,0:0|0:0,0:0:0:0:
133,11,25532,1,2,0:0:0:0:
188,76,25686,2,0,P|232:68|285:56,1,74,0|8,0:0|0:0,0:0:0:0:
336,20,25994,1,0,0:0:0:0:
394,80,26148,1,2,0:0:0:0:
319,123,26302,5,2,0:0:0:0:
398,170,26456,1,2,0:0:0:0:
398,170,26532,1,0,0:0:0:0:
398,170,26609,2,0,P|408:221|412:267,1,74,8|2,0:0|0:0,0:0:0:0:
347,300,26917,2,0,P|305:273|242:286,2,111,8|2|8,0:0|0:0|0:0,0:0:0:0:
427,329,27532,6,0,P|445:284|500:176,1,148,6|8,0:0|0:0,0:0:0:0:
465,111,27994,1,0,0:0:0:0:
389,149,28148,2,0,P|349:157|295:164,1,74,0|8,0:0|0:0,0:0:0:0:
237,199,28456,1,0,0:0:0:0:
198,121,28609,1,2,0:0:0:0:
117,147,28763,6,0,P|39:132|-16:181,1,148,0|8,0:0|0:0,0:0:0:0:
64,216,29225,2,0,P|60:258|54:297,1,74,2|0,0:0|0:0,0:0:0:0:
146,306,29532,1,0,0:0:0:0:
146,306,29609,1,0,0:0:0:0:
146,306,29686,2,0,P|150:264|156:225,1,74,8|2,0:0|0:0,0:0:0:0:
117,147,29994,6,0,P|107:76|90:-14,1,148,4|8,0:0|0:0,0:0:0:0:
180,30,30456,1,2,0:0:0:0:
262,5,30609,2,0,L|348:17,1,74,2|2,0:0|0:0,0:0:0:0:
349,9,30840,1,0,0:0:0:0:
365,4,30917,2,0,B|376:31|376:31|355:96,1,74,2|2,0:0|0:0,0:0:0:0:
274,162,31225,6,0,B|263:135|263:135|284:70,1,74,12|2,0:0|0:0,0:0:0:0:
451,63,31532,2,0,P|492:65|528:76,1,74,8|2,0:0|0:0,0:0:0:0:
416,152,31840,2,0,P|451:173|477:199,1,74,8|2,0:0|0:0,0:0:0:0:
350,219,32148,2,0,P|371:254|380:281,3,37,2|2|2|2,0:0|0:0|0:0|0:0,0:0:0:0:
379,275,32456,6,0,P|316:268|251:328,1,148,6|8,0:0|0:0,0:0:0:0:
186,370,32917,2,0,P|180:329|164:272,1,74,0|2,0:0|0:0,0:0:0:0:
224,227,33225,1,8,0:0:0:0:
139,213,33379,2,0,P|106:221|63:231,1,74,0|2,0:0|0:0,0:0:0:0:
1,177,33686,5,0,0:0:0:0:
23,95,33840,2,0,P|103:84|161:128,1,148,2|2,0:0|0:0,0:0:0:0:
242,111,34302,2,0,P|257:75|250:26,1,74,0|0,0:0|0:0,0:0:0:0:
207,189,34609,2,0,P|205:225|220:259,1,74,8|0,0:0|0:0,0:0:0:0:
291,305,34917,6,0,P|339:291|449:266,1,148,2|8,0:0|0:0,0:0:0:0:
509,230,35379,2,0,P|519:172|529:122,1,74,0|0,0:0|0:0,0:0:0:0:
463,95,35686,1,8,0:0:0:0:
392,144,35840,2,0,P|360:154|317:165,1,74,0|2,0:0|0:0,0:0:0:0:
259,222,36148,5,0,0:0:0:0:
241,143,36302,1,2,0:0:0:0:
241,143,36379,1,2,0:0:0:0:
241,143,36456,2,0,L|217:55,1,74,8|2,0:0|0:0,0:0:0:0:
284,13,36763,2,0,P|326:40|405:31,2,111,8|2|8,0:0|0:0|0:0,0:0:0:0:
198,0,37379,6,0,P|153:33|174:131,1,148,6|8,0:0|0:0,0:0:0:0:
241,143,37840,2,0,L|330:120,1,74,0|2,0:0|0:0,0:0:0:0:
395,149,38148,1,8,0:0:0:0:
332,207,38302,2,0,P|324:246|315:301,1,74,0|2,0:0|0:0,0:0:0:0:
283,357,38609,5,0,0:0:0:0:
235,281,38763,2,0,P|162:264|92:304,1,148,2|2,0:0|0:0,0:0:0:0:
16,270,39225,2,0,P|5:325|-5:365,1,74,0|2,0:0|0:0,0:0:0:0:
82,210,39532,2,0,P|93:155|103:115,1,74,8|2,0:0|0:0,0:0:0:0:
84,52,39840,6,0,P|145:104|218:91,1,148,4|8,0:0|0:0,0:0:0:0:
271,39,40302,1,2,0:0:0:0:
288,121,40456,2,0,P|281:173|278:220,1,74,0|2,0:0|0:0,0:0:0:0:
328,276,40763,1,2,0:0:0:0:
328,276,40840,1,2,0:0:0:0:
328,276,40917,1,2,0:0:0:0:
244,295,41071,6,0,P|208:304|173:317,1,74,12|2,0:0|0:0,0:0:0:0:
387,336,41379,2,0,P|410:293|402:242,1,74,8|2,0:0|0:0,0:0:0:0:
497,222,41686,2,0,P|464:185|413:175,1,74,8|0,0:0|0:0,0:0:0:0:
433,84,41994,2,0,P|387:102|375:115,4,37,2|2|2|2|4,0:0|0:0|0:0|0:0|0:1,0:0:0:0:
433,84,44763,6,0,B|364:72|364:72|338:94|338:94|244:80,1,183.150001746655,2|2,0:0|0:0,0:0:0:0:
251,78,47225,6,0,B|218:130|250:189|250:189|225:166|183:174,1,183.150001746655,2|2,0:0|0:0,0:0:0:0:
179,176,49686,6,0,B|150:204|150:204|174:62,1,183.150001746655,2|2,0:0|0:0,0:0:0:0:
181,58,52148,6,0,B|67:54|132:122|-7:118,1,183.150001746655,2|2,0:0|0:0,0:0:0:0:
8,111,54609,6,0,P|49:150|38:247,1,148,2|8,0:0|0:0,0:0:0:0:
24,315,55071,2,0,P|62:298|165:255,1,148,2|2,0:0|0:0,0:0:0:0:
234,298,55532,1,0,0:0:0:0:
228,210,55686,6,0,P|240:164|284:50,1,148,8|2,0:0|0:0,0:0:0:0:
219,9,56148,2,0,P|176:18|123:27,1,74,0|8,0:0|0:0,0:0:0:0:
77,72,56456,1,2,0:0:0:0:
151,110,56609,1,2,0:0:0:0:
104,177,56763,2,0,P|96:221|82:280,1,74,8|0,0:0|0:0,0:0:0:0:
129,325,57071,6,0,P|182:339|264:264,1,148,2|8,0:0|0:0,0:0:0:0:
322,235,57532,2,0,P|316:198|297:85,1,148,2|2,0:0|0:0,0:0:0:0:
332,13,57994,1,0,0:0:0:0:
382,82,58148,6,0,P|424:121|528:110,1,148,8|2,0:0|0:0,0:0:0:0:
512,141,58532,1,0,0:0:0:0:
511,162,58609,2,0,P|499:197|486:231,1,74,8|2,0:0|0:0,0:0:0:0:
459,314,58917,1,8,0:0:0:0:
401,249,59071,1,2,0:0:0:0:
321,223,59225,1,2,0:0:0:0:
244,259,59379,1,8,0:0:0:0:
178,204,59532,6,0,P|159:166|202:71,1,148,2|8,0:0|0:0,0:0:0:0:
258,14,59994,2,0,P|325:31|413:53,1,148,2|2,0:0|0:0,0:0:0:0:
479,92,60456,1,0,0:0:0:0:
404,137,60609,6,0,P|383:184|350:290,1,148,8|2,0:0|0:0,0:0:0:0:
283,329,61071,2,0,P|272:288|255:238,1,74,2|8,0:0|0:0,0:0:0:0:
184,223,61379,1,2,0:0:0:0:
217,141,61532,1,0,0:0:0:0:
137,107,61686,2,0,P|99:120|57:135,1,74,8|2,0:0|0:0,0:0:0:0:
0,186,61994,6,0,P|-14:231|44:319,1,148,2|2,0:0|0:0,0:0:0:0:
96,378,62456,2,0,B|183:347|159:401|245:365,1,148,2|2,0:0|0:0,0:0:0:0:
293,297,62917,1,2,0:0:0:0:
375,329,63071,1,8,0:0:0:0:
360,241,63225,5,2,0:0:0:0:
360,241,63302,1,2,0:0:0:0:
360,241,63379,2,0,P|371:196|372:150,1,74,8|2,0:0|0:0,0:0:0:0:
431,98,63686,2,0,P|467:89|504:88,1,74,2|8,0:0|0:0,0:0:0:0:
347,84,63994,1,2,0:0:0:0:
331,78,64071,1,2,0:0:0:0:
315,68,64148,2,0,L|285:48,4,37,8|8|8|8|0,0:0|0:0|0:0|0:0|0:0,0:0:0:0:
291,152,74302,6,0,P|232:143|171:186,2,133.199995935059,2|2|0,0:0|0:0|0:0,0:0:0:0:
352,215,75532,1,0,0:0:0:0:
376,133,75840,2,0,P|382:81|390:33,2,88.7999972900391,2|0|2,0:0|0:0|0:0,0:0:0:0:
291,152,76763,6,0,P|316:206|284:286,2,133.199995935059,2|2|2,0:0|0:0|0:0,0:0:0:0:
207,128,77994,1,0,0:0:0:0:
139,182,78302,2,0,L|39:193,2,88.7999972900391,0|0|2,0:0|0:0|0:0,0:0:0:0:
220,214,79225,6,0,L|368:232,2,133.199995935059,0|2|0,0:0|0:0|0:0,0:0:0:0:
150,271,80456,1,0,0:0:0:0:
139,182,80763,2,0,P|131:129|124:77,2,88.7999972900391,0|0|2,0:0|0:0|0:0,0:0:0:0:
232,300,81686,6,0,P|271:327|367:307,2,133.199995935059,0|0|0,0:0|0:0|0:0,0:0:0:0:
79,326,82917,1,0,0:0:0:0:
139,182,83225,1,0,0:0:0:0:
150,271,83532,6,0,L|108:260,7,30.5250002911091,0|0|0|0|0|0|0|0,0:0|0:0|0:0|0:0|0:0|0:0|0:0|0:0,0:0:0:0:
91,273,84148,6,0,P|82:234|80:177,1,74,6|2,0:0|0:0,0:0:0:0:
103,116,84456,1,8,0:0:0:0:
180,161,84609,2,0,P|231:168|329:95,1,148,2|8,0:0|0:0,0:0:0:0:
347,43,85071,6,0,P|391:26|426:24,1,74,0|2,0:0|0:0,0:0:0:0:
438,27,85302,1,0,0:0:0:0:
457,36,85379,2,0,P|488:54|520:99,1,74,0|2,0:0|0:0,0:0:0:0:
512,171,85686,1,8,0:0:0:0:
435,213,85840,1,2,0:0:0:0:
353,176,85994,6,0,P|320:176|262:190,1,74,2|8,0:0|0:0,0:0:0:0:
206,230,86302,2,0,P|195:180|187:139,1,74,0|2,0:0|0:0,0:0:0:0:
231,79,86609,5,0,0:0:0:0:
170,16,86763,2,0,P|106:7|47:80,1,148,2|2,0:0|0:0,0:0:0:0:
0,133,87225,2,0,P|11:174|18:207,1,74,2|8,0:0|0:0,0:0:0:0:
47,286,87532,1,2,0:0:0:0:
102,218,87686,1,2,0:0:0:0:
183,246,87840,1,0,0:0:0:0:
166,160,87994,5,2,0:0:0:0:
166,160,88071,1,0,0:0:0:0:
166,160,88148,2,0,P|171:108|176:66,1,74,8|0,0:0|0:0,0:0:0:0:
248,42,88456,2,0,P|303:87|389:71,1,148,8|8,0:0|0:0,0:0:0:0:
462,63,88917,1,2,0:0:0:0:
432,145,89071,6,0,P|412:196|380:302,1,148,0|8,0:0|0:0,0:0:0:0:
312,331,89532,2,0,B|230:309|249:363|157:346,1,148,2|8,0:0|0:0,0:0:0:0:
88,318,89994,1,0,0:0:0:0:
156,261,90148,1,2,0:0:0:0:
75,231,90302,6,0,P|35:168|70:79,1,148,0|8,0:0|0:0,0:0:0:0:
117,47,90763,1,2,0:0:0:0:
172,112,90917,1,2,0:0:0:0:
252,91,91071,2,0,L|265:11,2,74,8|0|2,0:0|0:0|0:0,0:0:0:0:
233,175,91532,6,0,P|283:136|373:148,1,148,0|8,0:0|0:0,0:0:0:0:
448,112,91994,1,2,0:0:0:0:
448,112,92071,1,0,0:0:0:0:
448,112,92148,2,0,P|456:148|462:194,1,74,2|8,0:0|0:0,0:0:0:0:
400,292,92456,2,0,P|391:255|386:210,1,74,2|8,0:0|0:0,0:0:0:0:
305,200,92763,5,0,0:0:0:0:
251,269,92917,1,2,0:0:0:0:
169,240,93071,2,0,P|128:243|68:257,1,74,8|2,0:0|0:0,0:0:0:0:
77,254,93302,1,0,0:0:0:0:
62,262,93379,5,2,0:0:0:0:
88,171,93532,1,2,0:0:0:0:
8,126,93686,2,0,P|-2:88|-2:25,1,74,8|2,0:0|0:0,0:0:0:0:
116,20,93994,6,0,P|126:58|126:121,1,74,6|2,0:0|0:0,0:0:0:0:
88,171,94302,1,8,0:0:0:0:
176,167,94456,2,0,P|242:174|322:235,1,148,2|8,0:0|0:0,0:0:0:0:
395,239,94917,6,0,P|433:217|460:169,1,74,0|2,0:0|0:0,0:0:0:0:
461,176,95148,1,0,0:0:0:0:
465,157,95225,2,0,P|470:113|457:63,1,74,0|2,0:0|0:0,0:0:0:0:
403,20,95532,1,8,0:0:0:0:
315,10,95686,1,2,0:0:0:0:
242,60,95840,6,0,L|148:78,1,74,2|8,0:0|0:0,0:0:0:0:
150,72,96071,1,0,0:0:0:0:
130,70,96148,2,0,L|143:118,3,37,0|0|2|0,0:0|0:0|0:0|0:0,0:0:0:0:
122,126,96456,6,0,P|117:170|110:212,1,74,0|2,0:0|0:0,0:0:0:0:
190,246,96763,2,0,P|195:202|202:160,1,74,8|2,0:0|0:0,0:0:0:0:
278,140,97071,2,0,L|364:156,1,74,2|8,0:0|0:0,0:0:0:0:
425,197,97379,1,2,0:0:0:0:
475,124,97532,1,2,0:0:0:0:
397,80,97686,6,0,L|411:0,1,74,12|8,0:0|0:0,0:0:0:0:
288,47,98148,5,12,0:0:0:0:
167,87,98456,5,12,0:0:0:0:
46,127,98763,5,8,0:0:0:0:
125,166,98917,2,0,L|175:185,3,37
184,190,99225,6,0,P|132:200|83:219,1,74,12|2,0:0|0:0,0:0:0:0:
42,258,99532,1,0,0:0:0:0:
119,290,99686,1,8,0:0:0:0:
101,375,99840,2,0,P|153:365|202:346,1,74,0|2,0:0|0:0,0:0:0:0:
244,308,100148,6,0,P|317:299|376:353,1,148,0|8,0:0|0:0,0:0:0:0:
451,378,100609,1,2,0:0:0:0:
506,312,100763,2,0,P|514:257|516:203,1,74,8|2,0:0|0:0,0:0:0:0:
435,207,101071,2,0,P|427:262|425:316,1,74,8|2,0:0|0:0,0:0:0:0:
371,343,101379,5,12,0:0:0:0:
344,261,101532,1,2,0:0:0:0:
264,292,101686,2,0,L|167:303,1,74,2|8,0:0|0:0,0:0:0:0:
111,259,101994,2,0,P|77:218|104:116,1,148,2|8,0:0|0:0,0:0:0:0:
169,87,102456,1,2,0:0:0:0:
237,144,102609,6,0,P|258:135|282:132,3,37,8|2|2|0,0:0|0:0|0:0|0:0,0:0:0:0:
292,122,102917,2,0,P|313:128|334:141,3,37,8|2|2|0,0:0|0:0|0:0|0:0,0:0:0:0:
348,140,103225,2,0,P|360:159|367:182,3,37,10|2|2|2,0:0|0:0|0:0|0:0,0:0:0:0:
379,189,103532,2,0,P|376:211|366:233,3,37,2|2|2|2,0:0|0:0|0:0|0:0,0:0:0:0:
371,248,103840,1,4,0:1:0:0:
