osu file format v14

[General]
AudioFilename: audio.mp3
AudioLeadIn: 0
PreviewTime: 83506
Countdown: 0
SampleSet: Soft
StackLeniency: 0.7
Mode: 0
LetterboxInBreaks: 0
WidescreenStoryboard: 0

[Editor]
Bookmarks: 12430,84122,84276,84430,84583,84891,85045,85199,85276,85353,85506,85660,85814,86122,86276,86430
DistanceSpacing: 0.3
BeatDivisor: 4
GridSize: 4
TimelineZoom: 3.699999

[Metadata]
Title:Altros
TitleUnicode:Altros
Artist:ARForest
ArtistUnicode:ARForest
Creator:Down
Version:Cellina's Extra
Source:
Tags:omc ofc contest helloscv dailycare milr_ [_white_music_] len fast cellina reana taeyang
BeatmapID:1401543
BeatmapSetID:658433

[Difficulty]
HPDrainRate:5
CircleSize:4
OverallDifficulty:8.5
ApproachRate:9.6
SliderMultiplier:2.1
SliderTickRate:2

[Events]
//Background and Video events
0,0,"bg.jpg",0,0
//Break Periods
2,42502,44254
2,45425,46716
2,47886,49177
2,50424,51639
2,52809,54100
2,64656,71331
//Storyboard Layer 0 (Background)
//Storyboard Layer 1 (Fail)
//Storyboard Layer 2 (Pass)
//Storyboard Layer 3 (Foreground)
//Storyboard Sound Samples

[TimingPoints]
456,307.692307692308,4,2,0,25,1,0
456,-142.857142857143,4,2,0,25,0,0
5379,-142.857142857143,4,2,51,25,0,0
5686,-142.857142857143,4,2,50,25,0,0
6148,-142.857142857143,4,2,51,25,0,0
6609,-142.857142857143,4,2,50,25,0,0
7225,-142.857142857143,4,2,51,25,0,0
8148,-142.857142857143,4,2,50,25,0,0
9225,-142.857142857143,4,2,51,25,0,0
9379,-142.857142857143,4,2,50,25,0,0
10302,-125,4,2,43,45,0,0
10763,-125,4,2,44,45,0,0
11225,-125,4,2,45,45,0,0
11686,-125,4,2,46,35,0,0
11763,-125,4,2,45,45,0,0
12456,-125,4,2,44,45,0,0
12763,-125,4,2,45,45,0,0
13225,-125,4,2,46,45,0,0
13686,-125,4,2,44,45,0,0
14148,-125,4,2,46,35,0,0
14225,-125,4,2,45,45,0,0
14917,-125,4,2,43,45,0,0
15686,-125,4,2,44,45,0,0
16148,-125,4,2,45,45,0,0
16609,-125,4,2,46,35,0,0
16686,-125,4,2,45,45,0,0
17379,-125,4,2,44,45,0,0
17686,-125,4,2,45,45,0,0
17994,-125,4,2,46,25,0,0
18148,-125,4,2,44,45,0,0
18609,-125,4,2,47,45,0,0
19225,-125,4,2,43,30,0,0
19532,-125,4,2,48,45,0,0
19840,-125,4,2,47,45,0,0
21379,-125,4,2,69,45,0,0
22609,-100,4,2,69,55,0,0
26917,-76.9230769230769,4,2,69,55,0,0
27225,-100,4,2,69,55,0,0
36763,-76.9230769230769,4,2,69,55,0,0
36994,-100,4,2,69,55,0,0
44763,-100,4,2,69,35,0,0
50225,-100,4,2,69,5,0,0
52148,-100,4,2,69,35,0,0
54609,-111.111111111111,4,2,69,35,0,0
55379,-133.333333333333,4,2,69,35,0,0
56532,-133.333333333333,4,2,69,5,0,0
56609,-133.333333333333,4,2,69,35,0,0
56686,-133.333333333333,4,2,69,5,0,0
56763,-100,4,2,69,35,0,0
57071,-111.111111111111,4,2,69,35,0,0
58148,-133.333333333333,4,2,69,35,0,0
59532,-111.111111111111,4,2,69,35,0,0
60609,-133.333333333333,4,2,69,35,0,0
61456,-133.333333333333,4,2,69,5,0,0
61532,-133.333333333333,4,2,69,35,0,0
61609,-133.333333333333,4,2,69,5,0,0
61686,-133.333333333333,4,2,69,35,0,0
74302,-133.333333333333,4,2,0,25,0,0
83532,-133.333333333333,4,2,0,30,0,0
83609,-133.333333333333,4,2,0,35,0,0
83686,-133.333333333333,4,2,0,40,0,0
83763,-133.333333333333,4,2,0,45,0,0
83840,-133.333333333333,4,2,0,50,0,0
83917,-133.333333333333,4,2,0,55,0,0
83994,-133.333333333333,4,2,0,60,0,0
84071,-133.333333333333,4,2,0,65,0,0
84148,-100,4,2,69,65,0,0
97686,-66.6666666666667,4,2,69,65,0,0
97763,-66.6666666666667,4,2,69,5,0,0
97840,-66.6666666666667,4,2,69,65,0,0
98225,-66.6666666666667,4,2,69,5,0,0
98302,-66.6666666666667,4,2,69,65,0,0
98532,-66.6666666666667,4,2,69,5,0,0
98763,-66.6666666666667,4,2,69,65,0,0
98917,-100,4,2,69,65,0,0

[Colours]
Combo1 : 128,255,255
Combo2 : 0,0,255
Combo3 : 0,128,192
Combo4 : 0,255,64
SliderTrackOverride : 40,40,40

[HitObjects]
82,130,456,6,0,P|81:168|76:222,1,73.4999977569581
236,172,763,2,0,P|237:134|242:80,1,73.4999977569581
159,63,1071,1,0,0:0:0:0:
319,107,1225,2,0,P|374:70|463:90,1,146.999995513916
450,81,1686,5,0,0:0:0:0:
487,171,1840,1,0,0:0:0:0:
442,250,1994,2,0,P|400:241|359:234,1,73.4999977569581
302,290,2302,1,0,0:0:0:0:
345,154,2456,2,0,P|318:92|367:18,1,146.999995513916
352,26,2917,5,0,0:0:0:0:
452,50,3071,1,0,0:0:0:0:
236,144,3225,5,0,0:0:0:0:
217,48,3379,1,0,0:0:0:0:
383,131,3532,5,0,0:0:0:0:
383,131,3686,2,0,L|376:211,1,73.4999977569581
466,176,3994,1,0,0:0:0:0:
316,263,4148,6,0,P|264:248|238:245,1,73.4999977569581
180,323,4456,2,0,P|128:338|102:341,1,73.4999977569581
58,200,4763,1,0,0:0:0:0:
154,229,4917,1,0,0:0:0:0:
20,361,5071,2,0,P|15:324|13:271,1,73.4999977569581
32,110,5379,6,0,B|124:104|85:140|210:127,1,146.999995513916,8|8,0:3|0:3,0:0:0:0:
58,200,5840,1,0,0:0:0:0:
147,39,5994,1,2,0:3:0:0:
266,132,6148,2,0,L|260:213,1,73.4999977569581,0|8,0:0|0:3,0:0:0:0:
253,288,6456,1,8,0:3:0:0:
408,207,6609,5,8,0:3:0:0:
367,132,6763,1,0,0:3:0:0:
416,62,6917,2,0,P|461:54|511:63,1,73.4999977569581,0|2,0:3|0:3,0:0:0:0:
483,238,7225,2,0,B|381:225|428:274|319:255,1,146.999995513916,8|0,0:3|0:0,0:0:0:0:
253,288,7686,1,0,0:0:0:0:
350,172,7840,6,0,P|355:136|346:101,1,73.4999977569581,8|0,0:3|0:0,0:0:0:0:
223,189,8148,2,0,L|228:273,1,73.4999977569581,8|0,0:3|0:0,0:0:0:0:
408,249,8456,5,2,0:3:0:0:
403,322,8609,2,0,L|407:248,1,73.4999977569581,0|0,0:3|0:3,0:0:0:0:
216,276,8917,2,0,L|211:202,1,73.4999977569581,2|0,0:3|0:0,0:0:0:0:
252,118,9225,5,8,0:3:0:0:
111,29,9379,1,8,0:3:0:0:
20,164,9532,1,8,0:3:0:0:
20,164,9609,1,0,0:0:0:0:
20,164,9686,5,10,0:3:0:0:
173,109,9840,1,0,0:3:0:0:
171,98,9917,1,0,0:0:0:0:
169,87,9994,1,10,0:3:0:0:
18,24,10148,2,0,L|-23:30,1,36.749998878479,10|8,0:3|0:3,0:0:0:0:
146,191,10302,6,0,B|251:205|196:147|321:165,1,168,2|0,0:0|0:0,0:0:0:0:
334,154,10686,1,0,0:0:0:0:
324,181,10763,1,2,0:0:0:0:
325,210,10840,1,0,0:0:0:0:
337,236,10917,5,8,0:0:0:0:
411,61,11071,1,0,0:0:0:0:
493,188,11225,2,0,L|402:194,1,84,2|0,0:0|0:0,0:0:0:0:
229,326,11532,6,0,P|311:329|413:337,1,168
476,368,11917,1,0,0:0:0:0:
479,362,11994,2,0,L|469:304,1,42
338,215,12148,6,0,L|336:245,6,21,10|0|0|0|0|0|0,0:0|0:0|0:0|0:0|0:0|0:0|0:0,0:0:0:0:
416,146,12456,1,2,0:0:0:0:
246,200,12609,2,0,L|182:190,1,42
320,69,12763,6,0,P|383:14|448:41,1,126,2|0,0:0|0:0,0:0:0:0:
435,25,13071,2,0,L|431:72,1,42
336,235,13225,2,0,L|332:193,1,42,2|0,0:0|0:0,0:0:0:0:
320,69,13379,5,8,0:0:0:0:
449,160,13532,1,0,0:0:0:0:
403,307,13686,2,0,P|345:315|284:332,1,84,2|0,0:0|0:0,0:0:0:0:
82,292,13994,6,0,P|184:280|197:243,1,126
218,277,14302,1,0,0:0:0:0:
206,250,14379,1,0,0:0:0:0:
206,220,14456,1,0,0:0:0:0:
213,191,14532,1,0,0:0:0:0:
233,169,14609,5,10,0:0:0:0:
336,235,14763,1,0,0:0:0:0:
252,79,14917,1,2,0:0:0:0:
121,199,15071,1,0,0:0:0:0:
320,134,15225,6,0,L|379:141,3,42,2|0|0|0,0:0|0:0|0:0|0:0,0:0:0:0:
436,113,15532,1,0,0:0:0:0:
437,124,15609,1,0,0:0:0:0:
439,136,15686,1,2,0:0:0:0:
441,148,15763,1,0,0:0:0:0:
443,160,15840,5,8,0:0:0:0:
340,47,15994,1,0,0:0:0:0:
223,147,16148,2,0,P|176:159|119:142,1,84,2|0,0:0|0:0,0:0:0:0:
36,292,16456,6,0,B|138:271|91:331|234:305,1,168
291,281,16840,1,0,0:0:0:0:
271,276,16917,2,0,L|280:328,1,42
319,187,17071,6,0,L|322:157,2,28,10|0|0,0:0|0:0|0:0,0:0:0:0:
378,323,17225,2,0,L|381:343,2,21
497,224,17379,1,2,0:0:0:0:
481,210,17456,1,0,0:0:0:0:
461,203,17532,1,0,0:0:0:0:
439,203,17609,1,0,0:0:0:0:
415,210,17686,6,0,P|416:134|427:32,1,168,2|2,0:0|0:0,0:0:0:0:
180,56,18148,1,2,0:0:0:0:
210,142,18302,2,0,P|207:225|199:309,1,168,8|0,0:0|0:0,0:0:0:0:
353,288,18763,1,0,0:0:0:0:
333,279,18840,1,0,0:0:0:0:
312,275,18917,1,0,0:0:0:0:
435,347,19071,5,2,0:0:0:0:
402,216,19225,1,0,0:0:0:0:
284,370,19379,1,2,0:0:0:0:
118,270,19532,6,0,P|73:272|30:277,1,84,10|0,0:0|0:0,0:0:0:0:
56,100,19840,2,0,P|97:98|139:93,1,84,2|0,0:0|0:0,0:0:0:0:
256,192,20148,5,4,0:1:0:0:
262,199,21379,6,0,L|253:133,1,42
375,243,21532,1,0,0:0:0:0:
362,262,21609,2,0,L|367:303,5,42
389,161,22148,6,0,L|450:164,1,42
268,286,22302,1,2,0:0:0:0:
222,280,22379,1,2,0:0:0:0:
176,275,22456,1,2,0:0:0:0:
130,270,22532,1,2,0:0:0:0:
83,265,22609,5,6,0:0:0:0:
256,157,22763,1,2,0:0:0:0:
83,51,22917,1,8,0:0:0:0:
217,250,23071,1,0,0:0:0:0:
217,250,23148,1,0,0:0:0:0:
217,250,23225,5,2,0:0:0:0:
197,61,23379,1,8,0:0:0:0:
362,262,23532,2,0,P|406:255|471:236,1,105,0|2,0:0|0:0,0:0:0:0:
364,118,23840,5,0,0:0:0:0:
167,173,23994,2,0,P|126:162|52:153,1,105,2|8,0:0|0:0,0:0:0:0:
280,41,24302,1,0,0:0:0:0:
280,41,24379,1,0,0:0:0:0:
280,41,24456,2,0,B|236:128|313:103|271:206,1,157.5
318,276,24763,2,0,P|343:270|380:268,1,52.5,8|0,0:0|0:0,0:0:0:0:
442,131,24917,2,0,P|417:137|380:139,1,52.5
408,346,25071,5,2,0:0:0:0:
257,200,25225,1,2,0:0:0:0:
448,226,25379,1,8,0:0:0:0:
281,120,25532,5,2,0:0:0:0:
281,120,25609,1,0,0:0:0:0:
281,120,25686,1,0,0:0:0:0:
163,286,25840,1,8,0:0:0:0:
345,182,25994,1,0,0:0:0:0:
429,350,26148,1,2,0:0:0:0:
257,200,26302,5,2,0:0:0:0:
471,118,26456,1,2,0:0:0:0:
471,118,26532,1,0,0:0:0:0:
471,118,26609,2,0,P|433:115|387:110,1,52.5,8|0,0:0|0:0,0:0:0:0:
315,272,26763,2,0,P|286:276|231:285,1,52.5,2|0,0:0|0:0,0:0:0:0:
70,210,26917,6,0,P|53:143|108:128,1,136.499993751526,8|0,0:0|0:0,0:0:0:0:
162,233,27148,1,2,0:0:0:0:
145,242,27225,2,0,L|148:310,1,52.5,2|0,0:0|0:0,0:0:0:0:
231,148,27379,1,8,0:0:0:0:
184,34,27532,5,6,0:0:0:0:
326,174,27686,1,2,0:0:0:0:
122,107,27840,1,8,0:0:0:0:
329,15,27994,1,0,0:0:0:0:
329,15,28071,1,0,0:0:0:0:
329,15,28148,5,0,0:0:0:0:
162,233,28302,1,8,0:0:0:0:
336,146,28456,2,0,P|388:155|462:163,1,105,0|2,0:0|0:0,0:0:0:0:
259,330,28763,5,0,0:0:0:0:
244,183,28917,1,2,0:0:0:0:
470,88,29071,5,8,0:0:0:0:
485,235,29225,1,2,0:0:0:0:
374,209,29379,5,0,0:0:0:0:
148,85,29532,1,2,0:0:0:0:
148,85,29609,1,0,0:0:0:0:
148,85,29686,2,0,P|152:119|154:157,1,52.5,8|0,0:0|0:0,0:0:0:0:
347,77,29840,2,0,P|349:51|354:21,1,52.5,2|0,0:0|0:0,0:0:0:0:
66,25,29994,5,0,0:0:0:0:
244,183,30148,1,2,0:0:0:0:
115,270,30302,5,8,0:0:0:0:
360,103,30456,1,2,0:0:0:0:
135,93,30609,5,2,0:0:0:0:
126,106,30686,1,2,0:0:0:0:
123,121,30763,1,2,0:0:0:0:
127,136,30840,1,0,0:0:0:0:
170,230,30917,2,0,P|137:223|93:224,1,52.5,2|2,0:0|0:0,0:0:0:0:
29,221,31071,1,2,0:0:0:0:
222,91,31225,5,12,0:0:0:0:
258,286,31379,1,2,0:0:0:0:
272,246,31456,1,0,0:0:0:0:
306,223,31532,1,8,0:0:0:0:
348,221,31609,1,0,0:0:0:0:
388,231,31686,1,2,0:0:0:0:
421,256,31763,1,0,0:0:0:0:
434,295,31840,5,8,0:0:0:0:
422,243,31917,1,0,0:0:0:0:
440,193,31994,1,2,0:0:0:0:
483,162,32071,1,0,0:0:0:0:
496,111,32148,1,2,0:0:0:0:
470,65,32225,1,2,0:0:0:0:
419,52,32302,1,2,0:0:0:0:
369,69,32379,1,2,0:0:0:0:
345,115,32456,5,6,0:0:0:0:
505,248,32609,1,2,0:0:0:0:
344,331,32763,1,8,0:0:0:0:
445,163,32917,1,0,0:0:0:0:
440,178,32994,1,0,0:0:0:0:
440,193,33071,5,2,0:0:0:0:
257,56,33225,1,8,0:0:0:0:
176,264,33379,2,0,B|158:216|158:216|180:142,1,105,0|2,0:0|0:0,0:0:0:0:
347,15,33686,6,0,B|362:66|362:66|344:114,1,105,0|2,0:0|0:0,0:0:0:0:
470,65,33994,1,8,0:0:0:0:
263,183,34148,1,2,0:0:0:0:
489,244,34302,2,0,B|381:232|445:273|322:265,1,157.5
272,321,34609,2,0,P|261:292|265:246,1,52.5,8|0,0:0|0:0,0:0:0:0:
150,169,34763,2,0,P|140:193|137:219,1,52.5
132,308,34917,5,2,0:0:0:0:
353,181,35071,1,2,0:0:0:0:
160,139,35225,1,8,0:0:0:0:
298,333,35379,5,0,0:0:0:0:
298,333,35456,1,0,0:0:0:0:
298,333,35533,1,0,0:0:0:0:
264,114,35686,1,8,0:0:0:0:
305,338,35840,1,0,0:0:0:0:
270,119,35994,1,2,0:0:0:0:
285,230,36148,5,0,0:0:0:0:
381,96,36302,1,2,0:0:0:0:
381,96,36379,1,2,0:0:0:0:
381,96,36456,2,0,L|379:160,1,52.5,8|0,0:0|0:0,0:0:0:0:
178,211,36609,2,0,L|179:263,1,52.5,2|0,0:0|0:0,0:0:0:0:
391,376,36763,6,0,B|427:339|427:339|402:250,1,136.499993751526,8|0,0:0|0:0,0:0:0:0:
278,312,36994,1,2,0:0:0:0:
272,334,37071,2,0,L|341:326,1,52.5,2|0,0:0|0:0,0:0:0:0:
508,306,37225,1,8,0:0:0:0:
297,118,37379,5,6,0:0:0:0:
470,78,37532,1,2,0:0:0:0:
331,217,37686,1,8,0:0:0:0:
220,56,37840,5,0,0:0:0:0:
220,56,37917,1,0,0:0:0:0:
220,56,37994,1,2,0:0:0:0:
399,144,38148,1,8,0:0:0:0:
225,195,38302,5,0,0:0:0:0:
385,50,38456,1,2,0:0:0:0:
297,118,38609,5,0,0:0:0:0:
121,189,38763,1,2,0:0:0:0:
292,288,38917,1,8,0:0:0:0:
56,254,39071,2,0,L|60:371,1,105,2|0,0:0|0:0,0:0:0:0:
20,90,39379,5,2,0:0:0:0:
20,90,39456,1,2,0:0:0:0:
20,90,39532,2,0,L|86:95,1,52.5,8|0,0:0|0:0,0:0:0:0:
202,287,39686,2,0,L|268:282,1,52.5,2|0,0:0|0:0,0:0:0:0:
425,79,39840,5,4,0:0:0:0:
213,201,39994,1,2,0:0:0:0:
435,287,40148,5,8,0:0:0:0:
238,107,40302,1,2,0:0:0:0:
406,162,40456,5,0,0:0:0:0:
415,175,40533,1,2,0:0:0:0:
418,190,40610,1,2,0:0:0:0:
414,205,40687,1,0,0:0:0:0:
371,299,40764,2,0,P|404:292|448:293,1,52.5,2|2,0:0|0:0,0:0:0:0:
512,290,40918,1,2,0:0:0:0:
316,191,41071,5,12,0:0:0:0:
197,346,41225,1,2,0:0:0:0:
151,359,41302,1,0,0:0:0:0:
105,347,41379,1,8,0:0:0:0:
86,303,41456,1,0,0:0:0:0:
98,258,41532,1,2,0:0:0:0:
137,232,41609,1,0,0:0:0:0:
184,232,41686,5,8,0:0:0:0:
227,262,41763,1,0,0:0:0:0:
231,319,41840,1,0,0:0:0:0:
271,359,41917,1,0,0:0:0:0:
328,365,41994,1,2,0:0:0:0:
377,334,42071,1,2,0:0:0:0:
390,277,42148,1,2,0:0:0:0:
370,222,42225,1,2,0:0:0:0:
316,200,42302,5,4,0:1:0:0:
225,191,44763,6,0,L|190:186,8,26.25,2|0|0|0|0|0|0|0|0,0:0|0:0|0:0|0:0|0:0|0:0|0:0|0:0|0:0,0:0:0:0:
307,202,45225,1,2,0:0:0:0:
307,202,47225,6,0,L|342:197,4,26.25,2|0|0|0|0,0:0|0:0|0:0|0:0|0:0,0:0:0:0:
242,273,47456,1,0,0:0:0:0:
233,279,47532,2,0,L|207:275,1,26.25
134,207,47686,1,2,0:0:0:0:
134,207,49686,6,0,L|130:181,8,26.25,2|0|0|0|0|0|0|0|0,0:0|0:0|0:0|0:0|0:0|0:0|0:0|0:0|0:0,0:0:0:0:
220,252,50148,2,0,L|213:305,1,52.5,2|0,0:0|0:0,0:0:0:0:
213,304,52148,6,0,L|210:323,16,13.125,2|0|0|0|0|0|0|0|0|0|0|0|0|0|0|0|0,0:0|0:0|0:0|0:0|0:0|0:0|0:0|0:0|0:0|0:0|0:0|0:0|0:0|0:0|0:0|0:0|0:0,0:0:0:0:
235,220,52609,1,0,0:0:0:0:
297,320,54609,6,0,B|350:346|350:346|306:186,1,188.999994232178,2|8,0:0|0:0,0:0:0:0:
216,371,55071,2,0,B|133:373|175:333|81:332,1,141.749995674133,2|0,0:0|0:0,0:0:0:0:
71,336,55379,5,2,0:0:0:0:
210,207,55686,2,0,P|199:254|216:293,1,78.7500030040742,8|0,0:0|0:0,0:0:0:0:
292,126,55994,1,2,0:0:0:0:
296,131,56302,1,8,0:0:0:0:
141,156,56456,6,0,L|79:150,1,39.3750015020371,2|0,0:0|0:0,0:0:0:0:
257,34,56609,2,0,L|195:40,1,39.3750015020371,2|0,0:0|0:0,0:0:0:0:
319,222,56763,2,0,B|210:208|210:208|237:209|285:189,1,157.5,8|0,0:0|0:0,0:0:0:0:
397,183,57071,6,0,B|433:170|449:121|449:121|511:136|490:222,1,188.999994232178,2|8,0:0|0:0,0:0:0:0:
407,369,57532,2,0,B|367:335|396:277|396:277|412:300|454:306,1,141.749995674133,2|0,0:0|0:0,0:0:0:0:
441,302,57840,5,2,0:0:0:0:
296,361,58148,2,0,L|198:352,1,78.7500030040742,8|0,0:0|0:0,0:0:0:0:
129,253,58456,1,2,0:0:0:0:
130,249,58532,1,2,0:0:0:0:
131,245,58609,1,8,0:0:0:0:
96,377,58763,1,2,0:0:0:0:
241,245,58917,5,8,0:0:0:0:
231,161,59071,1,2,0:0:0:0:
301,112,59225,1,2,0:0:0:0:
291,28,59379,1,8,0:0:0:0:
231,161,59532,6,0,B|103:175|168:114|36:129,1,188.999994232178,2|8,0:0|0:0,0:0:0:0:
213,336,59994,2,0,P|272:313|245:246,1,141.749995674133,2|0,0:0|0:0,0:0:0:0:
241,245,60302,5,2,0:0:0:0:
80,314,60609,2,0,P|64:354|81:388,1,78.7500030040742,8|0,0:0|0:0,0:0:0:0:
213,336,60917,1,2,0:0:0:0:
299,344,61071,1,2,0:0:0:0:
385,352,61225,1,8,0:0:0:0:
359,222,61379,6,0,P|350:247|362:285,1,39.3750015020371,2|0,0:0|0:0,0:0:0:0:
490,326,61532,2,0,P|499:301|487:263,1,39.3750015020371
469,186,61686,5,8,0:0:0:0:
385,352,61840,1,2,0:0:0:0:
246,231,61994,5,2,0:0:0:0:
426,273,62148,1,8,0:0:0:0:
299,130,62302,5,2,0:0:0:0:
301,141,62456,1,2,0:0:0:0:
182,314,62609,5,8,0:0:0:0:
350,259,62763,1,2,0:0:0:0:
352,248,62917,1,2,0:0:0:0:
146,220,63071,5,8,0:0:0:0:
287,354,63225,1,2,0:0:0:0:
287,350,63302,1,2,0:0:0:0:
287,346,63379,1,8,0:0:0:0:
375,173,63532,5,2,0:0:0:0:
171,325,63686,1,2,0:0:0:0:
274,132,63840,5,8,0:0:0:0:
373,334,63994,1,2,0:0:0:0:
420,337,64071,1,2,0:0:0:0:
457,308,64148,1,8,0:0:0:0:
460,260,64225,1,8,0:0:0:0:
434,220,64302,1,8,0:0:0:0:
386,215,64379,1,8,0:0:0:0:
352,248,64456,5,0,0:0:0:0:
256,192,71840,12,0,73532,0:0:0:0:
256,192,73686,6,0,L|236:196,6,19.6875007510186
335,174,73994,1,0,0:0:0:0:
335,174,74302,5,2,0:0:0:0:
374,242,74456,1,0,0:0:0:0:
329,306,74609,1,0,0:0:0:0:
393,351,74763,1,2,0:0:0:0:
399,354,75071,1,2,0:0:0:0:
486,222,75379,5,0,0:0:0:0:
491,226,75686,1,0,0:0:0:0:
416,199,75840,1,2,0:0:0:0:
357,251,75994,1,2,0:0:0:0:
360,257,76302,1,0,0:0:0:0:
285,284,76456,1,2,0:0:0:0:
226,232,76610,1,2,0:0:0:0:
361,129,76763,5,2,0:0:0:0:
406,193,76917,1,0,0:0:0:0:
360,257,77071,1,0,0:0:0:0:
363,335,77225,1,2,0:0:0:0:
368,339,77532,1,0,0:0:0:0:
435,298,77686,1,2,0:0:0:0:
510,321,77840,5,0,0:0:0:0:
263,375,78148,1,0,0:0:0:0:
256,296,78302,1,0,0:0:0:0:
250,217,78456,1,2,0:0:0:0:
255,213,78763,5,0,0:0:0:0:
261,292,78917,1,2,0:0:0:0:
268,371,79071,1,0,0:0:0:0:
124,326,79225,5,0,0:0:0:0:
99,250,79379,1,0,0:0:0:0:
174,228,79532,1,2,0:0:0:0:
199,152,79686,1,2,0:0:0:0:
203,155,79994,1,0,0:0:0:0:
80,109,80302,5,0,0:0:0:0:
330,196,80609,1,2,0:0:0:0:
99,250,80917,1,0,0:0:0:0:
104,253,81225,1,0,0:0:0:0:
179,229,81379,1,2,0:0:0:0:
250,259,81532,1,0,0:0:0:0:
325,377,81686,5,0,0:0:0:0:
325,298,81840,1,0,0:0:0:0:
382,243,81994,1,2,0:0:0:0:
460,232,82148,1,0,0:0:0:0:
465,235,82456,1,0,0:0:0:0:
387,247,82609,1,0,0:0:0:0:
320,204,82763,1,2,0:0:0:0:
399,58,82917,5,0,0:0:0:0:
415,165,83071,1,0,0:0:0:0:
135,205,83225,5,0,0:0:0:0:
119,312,83379,1,0,0:0:0:0:
311,348,83532,5,0,0:0:0:0:
312,327,83609,1,0,0:0:0:0:
314,307,83686,1,0,0:0:0:0:
316,287,83763,1,0,0:0:0:0:
243,227,83840,5,0,0:0:0:0:
242,206,83917,1,0,0:0:0:0:
240,186,83994,1,0,0:0:0:0:
238,166,84071,1,0,0:0:0:0:
334,89,84148,5,6,0:0:0:0:
124,207,84302,1,2,0:0:0:0:
329,281,84456,1,8,0:0:0:0:
202,88,84609,6,0,B|96:78|143:121|25:108,1,157.5,2|0,0:0|0:0,0:0:0:0:
34,117,84917,2,0,P|12:175|23:199,1,52.5,8|0,0:0|0:0,0:0:0:0:
151,249,85071,2,0,P|111:200|85:198,1,52.5
12,341,85225,1,2,0:0:0:0:
12,341,85302,1,0,0:0:0:0:
12,341,85379,5,0,0:0:0:0:
243,264,85532,1,2,0:0:0:0:
18,169,85686,5,8,0:0:0:0:
191,339,85840,1,2,0:0:0:0:
339,140,85994,5,2,0:0:0:0:
123,206,86148,1,8,0:0:0:0:
345,143,86302,5,0,0:0:0:0:
127,211,86456,1,2,0:0:0:0:
252,63,86609,5,0,0:0:0:0:
363,241,86763,2,0,P|421:246|477:246,1,105,2|8,0:0|0:0,0:0:0:0:
424,119,87071,1,2,0:0:0:0:
233,187,87225,5,2,0:0:0:0:
266,369,87379,1,8,0:0:0:0:
338,149,87532,1,2,0:0:0:0:
114,104,87686,1,2,0:0:0:0:
248,279,87840,5,0,0:0:0:0:
191,59,87994,1,2,0:0:0:0:
192,64,88071,1,0,0:0:0:0:
193,69,88148,1,8,0:0:0:0:
194,74,88225,1,0,0:0:0:0:
195,79,88302,1,0,0:0:0:0:
196,84,88379,1,0,0:0:0:0:
160,129,88456,5,8,0:0:0:0:
204,102,88532,1,0,0:0:0:0:
255,109,88609,1,2,0:0:0:0:
291,146,88686,1,2,0:0:0:0:
300,197,88763,1,8,0:0:0:0:
344,224,88840,1,0,0:0:0:0:
396,220,88917,1,2,0:0:0:0:
428,178,88994,1,0,0:0:0:0:
415,127,89071,5,0,0:0:0:0:
479,320,89225,2,0,L|359:313,1,105,2|8,0:0|0:0,0:0:0:0:
176,226,89532,6,0,B|232:209|232:209|269:231|269:231|362:222,1,157.5,2|0,0:0|0:0,0:0:0:0:
344,224,89840,1,8,0:0:0:0:
229,323,89994,5,0,0:0:0:0:
302,133,90148,1,2,0:0:0:0:
110,281,90302,6,0,P|50:293|-7:294,1,105,0|2,0:0|0:0,0:0:0:0:
6,294,90532,2,0,L|13:231,1,52.5,0|8,0:0|0:0,0:0:0:0:
152,120,90763,1,2,0:0:0:0:
245,143,90917,5,2,0:0:0:0:
64,91,91071,1,8,0:0:0:0:
180,217,91225,1,0,0:0:0:0:
163,26,91379,1,2,0:0:0:0:
72,201,91532,5,0,0:0:0:0:
28,218,91609,1,0,0:0:0:0:
8,261,91686,1,2,0:0:0:0:
18,307,91763,1,0,0:0:0:0:
49,343,91840,1,8,0:0:0:0:
75,337,91917,1,0,0:0:0:0:
100,343,91994,1,2,0:0:0:0:
122,359,92071,1,0,0:0:0:0:
147,367,92148,5,2,0:0:0:0:
183,372,92225,1,0,0:0:0:0:
223,359,92302,1,8,0:0:0:0:
246,318,92379,1,0,0:0:0:0:
237,271,92456,1,2,0:0:0:0:
198,236,92532,1,0,0:0:0:0:
185,181,92609,1,8,0:0:0:0:
213,124,92686,1,0,0:0:0:0:
282,100,92763,5,0,0:0:0:0:
452,247,92917,1,2,0:0:0:0:
452,247,92994,1,2,0:0:0:0:
452,247,93071,2,0,P|422:247|385:254,1,52.5,8|0,0:0|0:0,0:0:0:0:
353,152,93225,2,0,P|383:152|420:145,1,52.5,2|0,0:0|0:0,0:0:0:0:
489,130,93379,5,2,0:0:0:0:
266,350,93532,1,2,0:0:0:0:
307,326,93609,1,2,0:0:0:0:
324,282,93686,1,8,0:0:0:0:
317,234,93763,1,0,0:0:0:0:
285,199,93840,1,2,0:0:0:0:
123,146,93994,5,6,0:0:0:0:
307,326,94148,1,2,0:0:0:0:
204,172,94302,1,8,0:0:0:0:
81,348,94456,6,0,B|30:364|30:364|61:245,1,157.5,2|0,0:0|0:0,0:0:0:0:
69,267,94763,2,0,L|82:216,1,52.5,8|0,0:0|0:0,0:0:0:0:
200,78,94917,1,0,0:0:0:0:
34,38,95071,1,2,0:0:0:0:
34,38,95148,1,0,0:0:0:0:
34,38,95225,5,0,0:0:0:0:
219,176,95379,1,2,0:0:0:0:
2,216,95532,5,8,0:0:0:0:
232,78,95686,1,2,0:0:0:0:
345,318,95840,2,0,P|403:335|446:283,1,105,2|8,0:0|0:0,0:0:0:0:
472,238,96071,1,0,0:0:0:0:
472,238,96148,5,0,0:0:0:0:
473,211,96225,1,0,0:0:0:0:
474,184,96302,1,2,0:0:0:0:
475,157,96379,1,0,0:0:0:0:
502,84,96456,5,0,0:0:0:0:
473,127,96532,1,0,0:0:0:0:
421,135,96609,1,2,0:0:0:0:
374,111,96686,1,0,0:0:0:0:
335,75,96763,1,8,0:0:0:0:
282,74,96840,1,0,0:0:0:0:
244,111,96917,1,2,0:0:0:0:
245,163,96994,1,0,0:0:0:0:
284,197,97071,5,2,0:0:0:0:
330,203,97148,1,0,0:0:0:0:
366,206,97225,2,0,L|439:211,1,52.5,8|0,0:0|0:0,0:0:0:0:
456,307,97379,5,2,0:0:0:0:
415,313,97456,1,0,0:0:0:0:
369,318,97532,1,2,0:0:0:0:
317,324,97609,1,0,0:0:0:0:
260,330,97686,6,0,P|229:308|223:248,1,78.7500030040742,12|0,0:0|0:0,0:0:0:0:
361,98,97840,1,8,0:0:0:0:
364,109,98148,2,0,P|360:146|311:182,1,78.7500030040742,12|0,0:0|0:0,0:0:0:0:
112,137,98456,2,0,P|146:121|201:145,1,78.7500030040742,12|0,0:0|0:0,0:0:0:0:
256,192,98763,1,8,0:0:0:0:
97,367,98917,6,0,L|57:362,2,26.25
73,290,99071,2,0,L|33:285,2,26.25
49,213,99225,5,12,0:0:0:0:
217,270,99379,1,2,0:0:0:0:
166,43,99532,5,0,0:0:0:0:
139,215,99686,1,8,0:0:0:0:
384,104,99840,1,0,0:0:0:0:
411,276,99994,1,2,0:0:0:0:
263,156,100148,5,0,0:0:0:0:
456,204,100302,1,2,0:0:0:0:
456,204,100379,1,2,0:0:0:0:
456,204,100456,2,0,P|484:199|523:195,1,52.5,8|0,0:0|0:0,0:0:0:0:
468,109,100609,1,2,0:0:0:0:
291,315,100763,5,8,0:0:0:0:
301,60,100917,1,2,0:0:0:0:
296,320,101071,1,8,0:0:0:0:
306,63,101225,1,2,0:0:0:0:
182,263,101379,5,12,0:0:0:0:
149,297,101456,1,0,0:0:0:0:
103,308,101532,1,2,0:0:0:0:
58,291,101609,1,2,0:0:0:0:
35,249,101686,1,2,0:0:0:0:
44,202,101763,1,0,0:0:0:0:
82,175,101840,1,8,0:0:0:0:
129,177,101917,1,0,0:0:0:0:
163,209,101994,5,2,0:0:0:0:
208,236,102071,1,2,0:0:0:0:
260,233,102148,1,8,0:0:0:0:
301,200,102225,1,2,0:0:0:0:
309,148,102302,1,8,0:0:0:0:
280,104,102379,1,2,0:0:0:0:
279,51,102456,1,2,0:0:0:0:
320,20,102532,1,2,0:0:0:0:
372,20,102609,5,8,0:0:0:0:
372,20,102686,1,2,0:0:0:0:
372,20,102763,2,0,L|368:96,1,52.5,2|0,0:0|0:0,0:0:0:0:
126,124,102917,5,8,0:0:0:0:
126,124,102994,1,2,0:0:0:0:
126,124,103071,2,0,L|130:200,1,52.5,2|0,0:0|0:0,0:0:0:0:
308,327,103225,5,10,0:0:0:0:
370,362,103301,1,2,0:0:0:0:
441,348,103378,1,2,0:0:0:0:
487,292,103455,1,2,0:0:0:0:
486,220,103532,1,2,0:0:0:0:
439,166,103609,1,2,0:0:0:0:
368,154,103686,1,2,0:0:0:0:
306,191,103763,2,0,L|226:182,1,52.5
