osu file format v14

[General]
AudioFilename: audio.mp3
AudioLeadIn: 0
PreviewTime: 83506
Countdown: 0
SampleSet: Soft
StackLeniency: 0.7
Mode: 0
LetterboxInBreaks: 0
WidescreenStoryboard: 1

[Editor]
Bookmarks: 10276,20122,22583,42276,44737,54583,62276,64430,74276,84122,97506,103814,113660
DistanceSpacing: 1.3
BeatDivisor: 4
GridSize: 32
TimelineZoom: 2.3

[Metadata]
Title:Altros
TitleUnicode:Altros
Artist:ARForest
ArtistUnicode:ARForest
Creator:Down
Version:Insane
Source:
Tags:omc ofc contest helloscv dailycare milr_ [_white_music_] len fast cellina reana taeyang
BeatmapID:1399402
BeatmapSetID:658433

[Difficulty]
HPDrainRate:7
CircleSize:4
OverallDifficulty:7.7
ApproachRate:9
SliderMultiplier:1.6
SliderTickRate:2

[Events]
//Background and Video events
0,0,"bg.jpg",0,0
//Break Periods
2,64656,73702
//Storyboard Layer 0 (Background)
//Storyboard Layer 1 (Fail)
//Storyboard Layer 2 (Pass)
//Storyboard Layer 3 (Foreground)
//Storyboard Sound Samples

[TimingPoints]
456,307.692307692308,4,2,1,30,1,0
10302,-125,4,2,2,50,0,0
10379,-125,4,2,1,30,0,0
10917,-125,4,2,2,30,0,0
10994,-125,4,2,1,30,0,0
12763,-125,4,2,1,30,0,0
15840,-125,4,2,2,30,0,0
15917,-125,4,2,1,30,0,0
18917,-125,4,2,1,35,0,0
19225,-125,4,2,1,40,0,0
19532,-125,4,2,1,45,0,0
19840,-125,4,2,1,50,0,0
20148,-125,4,2,2,70,0,0
20456,-125,4,2,2,55,0,0
20763,-125,4,2,2,30,0,0
21071,-125,4,2,2,15,0,0
21379,-125,4,2,2,10,0,0
22302,-125,4,1,1,60,0,0
22609,-100,4,1,3,48,0,1
22917,-100,4,1,4,48,0,1
23071,-100,4,1,3,48,0,1
23225,-100,4,1,5,48,0,1
23379,-100,4,1,3,48,0,1
23532,-100,4,1,6,48,0,1
23609,-100,4,1,1,48,0,1
23840,-100,4,1,4,48,0,1
23994,-100,4,1,3,48,0,1
24148,-100,4,1,4,48,0,1
24302,-100,4,1,7,48,0,1
24379,-100,4,1,1,48,0,1
24456,-100,4,1,5,48,0,1
24532,-100,4,1,1,48,0,1
24686,-100,4,1,3,48,0,1
24763,-100,4,1,1,48,0,1
24917,-100,4,1,7,48,0,1
25071,-100,4,1,3,48,0,1
25379,-100,4,1,6,48,0,1
25532,-100,4,1,3,48,0,1
25686,-100,4,1,4,48,0,1
25840,-100,4,1,3,48,0,1
25994,-100,4,1,4,48,0,1
26148,-100,4,1,3,48,0,1
26302,-100,4,1,4,48,0,1
26456,-100,4,1,8,48,0,1
26532,-100,4,1,6,48,0,1
26609,-100,4,1,4,48,0,1
26686,-100,4,1,6,48,0,1
26763,-100,4,1,4,48,0,1
26840,-100,4,1,3,48,0,1
26917,-100,4,1,5,48,0,1
27071,-100,4,1,1,48,0,1
27148,-100,4,1,3,48,0,1
27225,-100,4,1,4,48,0,1
27379,-100,4,1,3,48,0,1
27840,-100,4,1,4,48,0,1
27994,-100,4,1,3,48,0,1
28148,-100,4,1,5,48,0,1
28302,-100,4,1,3,48,0,1
28456,-100,4,1,6,48,0,1
28609,-100,4,1,1,48,0,1
28763,-100,4,1,4,48,0,1
28917,-100,4,1,3,48,0,1
29071,-100,4,1,9,48,0,1
29225,-100,4,1,3,48,0,1
29379,-100,4,1,5,48,0,1
29532,-100,4,1,10,48,0,1
29609,-100,4,1,11,48,0,1
29686,-100,4,1,10,48,0,1
29840,-100,4,1,12,48,0,1
29917,-100,4,1,1,48,0,1
30456,-100,4,1,3,48,0,1
30609,-100,4,1,5,48,0,1
30686,-100,4,1,1,48,0,1
30917,-100,4,1,1,48,0,1
31071,-100,4,1,9,48,0,1
31225,-100,4,1,12,48,0,1
31379,-100,4,1,3,48,0,1
31456,-100,4,1,5,48,0,1
31532,-100,4,1,12,48,0,1
31609,-100,4,1,5,48,0,1
31686,-100,4,1,12,48,0,1
31763,-100,4,1,11,48,0,1
31840,-100,4,1,10,48,0,1
31917,-100,4,1,12,48,0,1
31994,-100,4,1,5,48,0,1
32071,-100,4,1,12,48,0,1
32148,-100,4,1,10,48,0,1
32225,-100,4,1,3,48,0,1
32302,-100,4,1,10,48,0,1
32379,-100,4,1,11,48,0,1
32456,-100,4,1,3,48,0,1
32763,-100,4,1,4,48,0,1
32917,-100,4,1,3,48,0,1
33071,-100,4,1,5,48,0,1
33225,-100,4,1,3,48,0,1
33379,-100,4,1,6,48,0,1
33532,-100,4,1,1,48,0,1
33686,-100,4,1,4,48,0,1
33840,-100,4,1,3,48,0,1
33994,-100,4,1,6,48,0,1
34148,-100,4,1,7,48,0,1
34302,-100,4,1,5,48,0,1
34532,-100,4,1,3,48,0,1
34763,-100,4,1,7,48,0,1
34917,-100,4,1,3,48,0,1
35225,-100,4,1,6,48,0,1
35379,-100,4,1,3,48,0,1
35532,-100,4,1,4,48,0,1
35686,-100,4,1,3,48,0,1
35840,-100,4,1,4,48,0,1
35994,-100,4,1,3,48,0,1
36148,-100,4,1,4,48,0,1
36302,-100,4,1,8,48,0,1
36379,-100,4,1,6,48,0,1
36456,-100,4,1,4,48,0,1
36532,-100,4,1,6,48,0,1
36609,-100,4,1,4,48,0,1
36686,-100,4,1,3,48,0,1
36763,-100,4,1,5,48,0,1
36994,-100,4,1,3,48,0,1
37071,-100,4,1,4,48,0,1
37225,-100,4,1,3,48,0,1
37686,-100,4,1,4,48,0,1
37840,-100,4,1,3,48,0,1
37994,-100,4,1,5,48,0,1
38148,-100,4,1,3,48,0,1
38302,-100,4,1,6,48,0,1
38609,-100,4,1,4,48,0,1
38763,-100,4,1,3,48,0,1
38917,-100,4,1,9,48,0,1
39071,-100,4,1,3,48,0,1
39225,-100,4,1,5,48,0,1
39379,-100,4,1,10,48,0,1
39456,-100,4,1,11,48,0,1
39532,-100,4,1,10,48,0,1
39686,-100,4,1,12,48,0,1
39763,-100,4,1,1,48,0,1
40302,-100,4,1,3,48,0,1
40456,-100,4,1,5,48,0,1
40763,-100,4,1,1,48,0,1
40917,-100,4,1,9,48,0,1
41071,-100,4,1,12,48,0,1
41225,-100,4,1,3,48,0,1
41302,-100,4,1,5,48,0,1
41379,-100,4,1,12,48,0,1
41456,-100,4,1,5,48,0,1
41532,-100,4,1,12,48,0,1
41609,-100,4,1,11,48,0,1
41686,-100,4,1,10,48,0,1
41763,-100,4,1,12,48,0,1
41840,-100,4,1,5,48,0,1
41917,-100,4,1,12,48,0,1
41994,-100,4,1,11,48,0,1
42071,-100,4,1,3,48,0,1
42148,-100,4,1,10,48,0,1
42225,-100,4,1,11,48,0,1
42302,-100,4,2,2,60,0,0
42379,-100,4,2,2,50,0,0
42609,-100,4,2,2,55,0,0
42917,-100,4,2,2,40,0,0
43225,-100,4,2,2,35,0,0
43532,-100,4,2,2,30,0,0
43609,-100,4,2,2,28,0,0
43686,-100,4,2,2,26,0,0
43763,-100,4,2,2,24,0,0
43840,-100,4,2,2,22,0,0
43879,-100,4,2,2,20,0,0
43917,-100,4,2,2,40,0,0
43956,-100,4,2,2,20,0,0
43994,-100,4,2,2,40,0,0
44032,-100,4,2,2,20,0,0
44071,-100,4,2,2,40,0,0
44109,-100,4,2,2,20,0,0
44148,-100,4,2,2,40,0,0
44167,-100,4,2,2,20,0,0
44186,-100,4,2,2,40,0,0
44206,-100,4,2,2,20,0,0
44225,-100,4,2,2,40,0,0
44244,-100,4,2,2,20,0,0
44263,-100,4,2,2,40,0,0
44282,-100,4,2,2,20,0,0
44302,-100,4,2,2,40,0,0
44321,-100,4,2,2,20,0,0
44340,-100,4,2,2,40,0,0
44359,-100,4,2,2,20,0,0
44379,-100,4,2,2,40,0,0
44398,-100,4,2,2,20,0,0
44417,-100,4,2,2,40,0,0
44436,-100,4,2,2,20,0,0
44456,-100,4,2,2,10,0,0
44763,-125,4,3,1,50,0,0
45071,-125,4,3,1,30,0,0
47071,-125,4,3,1,5,0,0
47225,-125,4,3,1,50,0,0
47532,-125,4,3,1,30,0,0
49686,-125,4,3,1,50,0,0
49994,-125,4,3,1,30,0,0
52148,-125,4,3,1,50,0,0
52456,-125,4,3,1,30,0,0
54609,-100,4,3,1,60,0,0
54763,-100,4,3,1,5,0,0
54917,-100,4,3,1,60,0,0
57225,-100,4,3,1,5,0,0
57379,-100,4,3,1,60,0,0
59686,-100,4,3,1,5,0,0
59840,-100,4,3,1,60,0,0
64456,-100,4,2,1,30,0,0
74302,-125,4,2,1,40,0,0
83532,-125,4,2,1,50,0,0
83609,-125,4,2,1,51,0,0
83686,-125,4,2,1,52,0,0
83763,-125,4,2,1,53,0,0
83840,-125,4,2,1,54,0,0
83917,-125,4,2,1,55,0,0
83994,-125,4,2,1,56,0,0
84071,-125,4,2,1,57,0,0
84148,-100,4,1,13,60,0,1
84456,-100,4,1,14,60,0,1
84609,-100,4,1,15,60,0,1
84686,-100,4,1,6,60,0,1
84917,-100,4,1,13,60,0,1
85071,-100,4,1,16,60,0,1
85225,-100,4,1,17,70,0,1
85456,-100,4,1,1,60,0,1
85532,-100,4,1,14,60,0,1
85686,-100,4,1,13,60,0,1
85840,-100,4,1,11,65,0,1
85994,-100,4,1,18,60,0,1
86148,-100,4,1,13,60,0,1
86302,-100,4,1,15,60,0,1
86456,-100,4,1,16,60,0,1
86609,-100,4,1,15,60,0,1
86763,-100,4,1,13,60,0,1
87071,-100,4,1,15,60,0,1
87225,-100,4,1,13,60,0,1
87379,-100,4,1,14,60,0,1
87532,-100,4,1,15,60,0,1
87686,-100,4,1,18,60,0,1
87840,-100,4,1,15,60,0,1
87994,-100,4,1,14,50,0,1
88071,-100,4,1,13,50,0,1
88148,-100,4,1,3,50,0,1
88225,-100,4,1,14,50,0,1
88302,-100,4,1,19,50,0,1
88379,-100,4,1,20,50,0,1
88456,-100,4,1,19,60,0,1
88532,-100,4,1,20,60,0,1
88609,-100,4,1,19,60,0,1
88686,-100,4,1,21,60,0,1
88763,-100,4,1,14,60,0,1
88840,-100,4,1,21,60,0,1
88917,-100,4,1,3,60,0,1
88994,-100,4,1,13,60,0,1
89071,-100,4,1,15,60,0,1
89225,-100,4,1,1,60,0,1
89532,-100,4,1,13,60,0,1
89840,-100,4,1,14,60,0,1
89994,-100,4,1,15,60,0,1
90148,-100,4,1,16,60,0,1
90302,-100,4,1,15,60,0,1
90456,-100,4,1,19,60,0,1
90532,-100,4,1,14,60,0,1
90609,-100,4,1,3,60,0,1
90763,-100,4,1,13,60,0,1
90917,-100,4,1,15,60,0,1
91071,-100,4,1,13,60,0,1
91225,-100,4,1,3,60,0,1
91379,-100,4,1,14,60,0,1
91532,-100,4,1,13,60,0,1
91609,-100,4,1,3,60,0,1
91686,-100,4,1,14,60,0,1
91763,-100,4,1,20,60,0,1
91840,-100,4,1,19,60,0,1
91917,-100,4,1,20,60,0,1
91994,-100,4,1,19,60,0,1
92071,-100,4,1,21,60,0,1
92148,-100,4,1,14,60,0,1
92225,-100,4,1,19,60,0,1
92302,-100,4,1,21,60,0,1
92379,-100,4,1,14,60,0,1
92456,-100,4,1,13,60,0,1
92532,-100,4,1,20,60,0,1
92609,-100,4,1,3,60,0,1
92686,-100,4,1,13,60,0,1
92763,-100,4,1,3,60,0,1
92917,-100,4,1,3,60,0,1
92994,-100,4,1,13,60,0,1
93071,-100,4,1,15,60,0,1
93225,-100,4,1,15,60,0,1
93302,-100,4,1,16,60,0,1
93379,-100,4,1,18,70,0,1
93456,-100,4,1,16,70,0,1
93532,-100,4,1,18,70,0,1
93609,-100,4,1,17,70,0,1
93686,-100,4,1,11,70,0,1
93763,-100,4,1,18,70,0,1
93840,-100,4,1,16,70,0,1
93917,-100,4,1,13,70,0,1
93994,-100,4,1,16,60,0,1
94148,-100,4,1,1,60,0,1
94456,-100,4,1,15,60,0,1
94763,-100,4,1,13,60,0,1
94917,-100,4,1,16,60,0,1
95071,-100,4,1,17,70,0,1
95379,-100,4,1,11,60,0,1
95532,-100,4,1,18,60,0,1
95686,-100,4,1,13,60,0,1
95840,-100,4,1,15,60,0,1
95994,-100,4,1,13,60,0,1
96148,-100,4,1,11,70,0,1
96225,-100,4,1,18,70,0,1
96302,-100,4,1,11,70,0,1
96379,-100,4,1,17,70,0,1
96456,-100,4,1,22,70,0,1
96532,-100,4,1,17,60,0,1
96609,-100,4,1,11,60,0,1
96686,-100,4,1,18,60,0,1
96763,-100,4,1,15,60,0,1
96840,-100,4,1,13,60,0,1
96917,-100,4,1,3,60,0,1
96994,-100,4,1,14,60,0,1
97071,-100,4,1,3,60,0,1
97148,-100,4,1,14,60,0,1
97225,-100,4,1,3,60,0,1
97302,-100,4,1,13,60,0,1
97379,-100,4,1,15,60,0,1
97456,-100,4,1,13,60,0,1
97532,-100,4,1,15,60,0,1
97609,-100,4,1,16,60,0,1
97686,-100,4,1,99,75,0,1
98148,-100,4,1,98,80,0,1
98456,-100,4,1,97,80,0,1
98763,-100,4,1,96,80,0,1
98917,-100,4,3,0,40,0,1
99225,-100,4,1,13,60,0,1
99379,-100,4,1,23,60,0,1
99532,-100,4,1,3,60,0,1
99686,-100,4,1,13,60,0,1
99840,-100,4,1,24,60,0,1
99994,-100,4,1,18,60,0,1
100302,-100,4,1,14,60,0,1
100456,-100,4,1,13,60,0,1
100609,-100,4,1,3,60,0,1
100917,-100,4,1,13,60,0,1
101071,-100,4,1,24,60,0,1
101225,-100,4,1,18,60,0,1
101379,-100,4,1,13,60,0,1
101456,-100,4,1,3,60,0,1
101686,-100,4,1,19,60,0,1
101763,-100,4,1,20,60,0,1
101840,-100,4,1,19,60,0,1
101917,-100,4,1,21,60,0,1
101994,-100,4,1,14,60,0,1
102071,-100,4,1,21,60,0,1
102148,-100,4,1,14,60,0,1
102225,-100,4,1,3,60,0,1
102302,-100,4,1,13,60,0,1
102456,-100,4,1,15,60,0,1
102532,-100,4,1,16,60,0,1
102609,-100,4,1,15,60,0,1
102686,-100,4,1,13,60,0,1
102763,-100,4,1,15,60,0,1
102840,-100,4,1,16,60,0,1
102917,-100,4,1,18,60,0,1
102994,-100,4,1,15,60,0,1
103071,-100,4,1,16,60,0,1
103148,-100,4,1,18,60,0,1
103225,-100,4,1,11,70,0,1
103302,-100,4,1,18,70,0,1
103379,-100,4,1,11,70,0,1
103456,-100,4,1,17,70,0,1
103532,-100,4,1,22,70,0,1
103609,-100,4,1,17,70,0,1
103686,-100,4,1,22,70,0,1
103763,-100,4,1,25,70,0,1
103840,-100,4,2,2,60,0,0

[Colours]
Combo1 : 255,164,164
Combo2 : 141,100,251
Combo3 : 70,112,255
Combo4 : 123,123,123
Combo5 : 225,225,225
Combo6 : 157,241,253
Combo7 : 255,200,237
Combo8 : 255,51,51
SliderTrackOverride : 40,40,40

[HitObjects]
212,154,10302,38,0,P|196:191|207:230,1,64,2|0,0:0|0:0,0:0:0:0:
278,199,10609,1,0,0:0:0:0:
405,188,10763,2,0,L|255:200,1,128,0|0,0:0|0:0,0:0:0:0:
197,78,11225,2,0,L|285:83,1,64,0|0,0:0|0:0,0:0:0:0:
344,86,11532,5,0,0:0:0:0:
278,199,11686,1,0,0:0:0:0:
412,51,11840,2,0,P|422:84|405:130,1,64,8|0,0:0|0:0,0:0:0:0:
409,249,12148,2,0,P|399:216|416:170,1,64,4|0,0:0|0:0,0:0:0:0:
479,213,12456,1,0,0:0:0:0:
494,207,12763,102,0,L|472:333,1,128,8|0,0:0|0:0,0:0:0:0:
396,369,13225,1,0,0:0:0:0:
295,279,13379,2,0,P|300:310|318:337,1,64,4|0,0:0|0:0,0:0:0:0:
338,213,13686,2,0,P|308:201|276:203,1,64,0|0,0:0|0:0,0:0:0:0:
375,281,13994,6,0,P|400:261|413:232,2,64,0|0|8,0:0|0:0|0:0,0:0:0:0:
219,256,14456,1,0,0:0:0:0:
338,213,14609,1,4,0:0:0:0:
317,336,14763,1,0,0:0:0:0:
258,187,14917,2,0,P|225:176|175:187,1,64,0|0,0:0|0:0,0:0:0:0:
132,64,15225,102,0,B|123:95|123:95|133:147,1,64,8|0,0:0|0:0,0:0:0:0:
206,98,15532,1,0,0:0:0:0:
331,97,15686,2,0,B|286:92|286:92|254:104|254:104|202:97,1,128,0|0,0:0|0:0,0:0:0:0:
302,173,16148,2,0,L|375:180,1,64,0|0,0:0|0:0,0:0:0:0:
448,189,16456,5,0,0:0:0:0:
331,97,16609,1,0,0:0:0:0:
399,251,16763,2,0,B|406:284|406:284|391:329,1,64,8|0,0:0|0:0,0:0:0:0:
255,123,17071,2,0,B|248:90|248:90|263:45,1,64,4|0,0:0|0:0,0:0:0:0:
323,278,17379,1,0,0:0:0:0:
312,289,17686,102,0,L|174:277,1,128,8|0,0:0|0:0,0:0:0:0:
106,307,18148,1,0,0:0:0:0:
58,167,18302,2,0,L|73:230,1,64,4|0,0:0|0:0,0:0:0:0:
91,369,18609,2,0,L|105:306,1,64,0|0,0:0|0:0,0:0:0:0:
155,199,18917,5,0,0:0:0:0:
23,297,19071,1,0,0:0:0:0:
232,232,19225,2,0,P|239:202|220:150,1,64,8|0,0:0|0:0,0:0:0:0:
166,59,19532,2,0,P|159:89|178:141,1,64,4|0,0:0|0:0,0:0:0:0:
231,294,19840,2,0,P|238:264|219:212,1,64,8|0,0:0|0:0,0:0:0:0:
241,93,20148,101,2,0:0:0:0:
256,192,20225,12,0,21379,0:0:0:0:
241,93,22302,53,8,0:0:0:0:
241,93,22379,1,8,0:0:0:0:
241,93,22456,1,8,0:0:0:0:
241,93,22532,1,8,0:0:0:0:
241,93,22609,22,0,L|238:189,1,80,6|6,0:0|0:0,0:0:0:0:
318,51,22917,1,10,0:0:0:0:
155,138,23071,1,2,0:0:0:0:
313,225,23225,2,0,P|350:201|413:209,1,80,6|10,0:0|0:0,0:0:0:0:
262,293,23532,1,2,0:0:0:0:
238,172,23686,1,4,0:0:0:0:
372,279,23840,6,0,L|357:372,1,80,2|6,0:0|0:0,0:0:0:0:
452,243,24148,2,0,P|466:198|452:160,1,80,10|6,0:0|0:0,0:0:0:0:
457,167,24379,1,0,0:0:0:0:
457,167,24456,1,2,0:0:0:0:
450,323,24609,2,0,L|505:320,1,40,0|2,0:0|0:0,0:0:0:0:
382,200,24763,1,8,0:0:0:0:
359,357,24917,1,2,0:0:0:0:
225,249,25071,102,0,L|297:242,1,40,6|0,0:0|0:0,0:0:0:0:
382,200,25225,2,0,L|310:193,1,40,6|0,0:0|0:0,0:0:0:0:
176,172,25379,5,10,0:0:0:0:
265,330,25532,1,6,0:0:0:0:
251,143,25686,101,2,0:0:0:0:
128,240,25839,1,10,0:0:0:0:
138,100,25994,5,2,0:0:0:0:
225,249,26147,1,6,0:0:0:0:
93,169,26302,101,2,0:0:0:0:
214,73,26456,1,6,0:0:0:0:
242,64,26532,1,6,0:0:0:0:
272,66,26609,1,10,0:0:0:0:
298,79,26686,1,2,0:0:0:0:
318,101,26763,2,0,L|314:51,1,40,6|2,0:0|0:0,0:0:0:0:
251,143,26917,6,0,P|238:199|272:266,1,120,10|6,0:0|0:0,0:0:0:0:
339,241,27225,2,0,L|239:258,1,80,6|10,0:0|0:0,0:0:0:0:
203,312,27456,1,0,0:0:0:0:
203,312,27532,102,0,B|196:354|196:354|212:394,1,80,6|6,0:0|0:0,0:0:0:0:
140,254,27840,1,10,0:0:0:0:
282,346,27994,1,2,0:0:0:0:
140,254,28148,2,0,L|121:174,1,80,6|10,0:0|0:0,0:0:0:0:
68,297,28456,1,2,0:0:0:0:
217,207,28609,1,4,0:0:0:0:
46,136,28763,6,0,P|35:99|53:45,1,80,2|6,0:0|0:0,0:0:0:0:
140,254,29071,2,0,P|151:291|133:345,1,80,10|6,0:0|0:0,0:0:0:0:
116,97,29379,2,0,L|223:87,1,80,2|6,0:0|0:0,0:0:0:0:
278,72,29609,1,2,0:0:0:0:
278,72,29686,2,0,L|271:138,1,40,10|0,0:0|0:0,0:0:0:0:
217,207,29840,2,0,L|210:141,1,40,6|0,0:0|0:0,0:0:0:0:
349,20,29994,102,0,B|378:64|378:64|356:135,1,120
312,196,30302,2,0,B|352:208|352:208|412:195,1,80,8|6,0:0|0:0,0:0:0:0:
462,159,30532,1,0,0:0:0:0:
462,159,30609,2,0,L|482:103,2,40,2|4|8,0:0|0:0|0:0,0:0:0:0:
361,288,30917,2,0,L|381:344,2,40,4|4|6,0:0|0:0|0:0,0:0:0:0:
358,128,31225,6,0,P|317:115|273:122,1,80,10|6,0:0|0:0,0:0:0:0:
139,183,31456,1,2,0:0:0:0:
139,183,31532,2,0,P|180:170|224:177,1,80,10|6,0:0|0:0,0:0:0:0:
276,279,31763,1,6,0:0:0:0:
276,279,31840,2,0,L|264:211,3,40,10|2|6|6,0:0|0:0|0:0|0:0,0:0:0:0:
207,331,32148,2,0,L|195:399,3,40,6|6|10|10,0:0|0:0|0:0|0:0,0:0:0:0:
129,307,32456,102,0,P|96:294|41:309,1,80,6|6,0:0|0:0,0:0:0:0:
187,251,32763,1,10,0:0:0:0:
87,372,32917,1,2,0:0:0:0:
26,228,33071,2,0,B|17:192|17:192|32:144,1,80,6|10,0:0|0:0,0:0:0:0:
0,74,33379,1,2,0:0:0:0:
105,193,33532,1,4,0:0:0:0:
161,78,33686,6,0,L|74:88,1,80,2|6,0:0|0:0,0:0:0:0:
221,140,33994,2,0,L|308:150,1,80,10|6,0:0|0:0,0:0:0:0:
300,149,34225,1,0,0:0:0:0:
300,149,34302,1,2,0:0:0:0:
187,216,34456,2,0,L|199:259,1,40,0|2,0:0|0:0,0:0:0:0:
241,63,34609,1,8,0:0:0:0:
187,216,34763,1,2,0:0:0:0:
334,225,34917,102,0,L|396:216,1,40,6|0,0:0|0:0,0:0:0:0:
489,191,35071,2,0,L|427:182,1,40,6|0,0:0|0:0,0:0:0:0:
300,149,35225,5,10,0:0:0:0:
366,301,35379,1,6,0:0:0:0:
334,225,35532,101,2,0:0:0:0:
187,216,35686,1,10,0:0:0:0:
214,135,35840,5,2,0:0:0:0:
280,287,35994,1,6,0:0:0:0:
308,125,36148,101,2,0:0:0:0:
215,235,36302,1,6,0:0:0:0:
198,260,36378,1,6,0:0:0:0:
194,289,36455,1,10,0:0:0:0:
201,318,36532,1,2,0:0:0:0:
219,341,36609,2,0,L|171:338,1,40,6|2,0:0|0:0,0:0:0:0:
280,287,36763,6,0,B|340:274|340:274|411:294,1,120,10|6,0:0|0:0,0:0:0:0:
402,369,37071,2,0,L|394:272,1,80,6|10,0:0|0:0,0:0:0:0:
446,222,37302,1,0,0:0:0:0:
446,222,37379,102,0,P|455:179|431:130,1,80,6|6,0:0|0:0,0:0:0:0:
512,280,37686,1,10,0:0:0:0:
372,185,37840,1,2,0:0:0:0:
292,191,37994,2,0,L|371:184,1,80,6|10,0:0|0:0,0:0:0:0:
215,158,38302,1,2,0:0:0:0:
308,275,38456,1,4,0:0:0:0:
291,115,38609,6,0,B|301:75|301:75|289:32,1,80,2|6,0:0|0:0,0:0:0:0:
225,236,38917,2,0,B|215:276|215:276|227:319,1,80,10|6,0:0|0:0,0:0:0:0:
215,79,39225,2,0,L|117:74,1,80,2|6,0:0|0:0,0:0:0:0:
55,56,39456,1,6,0:0:0:0:
55,56,39532,2,0,L|64:121,1,40,10|0,0:0|0:0,0:0:0:0:
124,152,39686,2,0,L|115:217,1,40,6|0,0:0|0:0,0:0:0:0:
39,308,39840,102,0,P|89:268|160:282,1,120
225,300,40148,2,0,L|218:208,1,80,8|6,0:0|0:0,0:0:0:0:
287,166,40379,1,0,0:0:0:0:
287,166,40456,2,0,L|318:120,2,40,2|4|8,0:0|0:0|0:0,0:0:0:0:
142,271,40763,2,0,L|111:225,2,40,4|4|6,0:0|0:0|0:0,0:0:0:0:
298,338,41071,6,0,P|339:317|395:327,1,80,10|6,0:0|0:0,0:0:0:0:
506,282,41302,1,2,0:0:0:0:
506,282,41379,2,0,P|465:261|409:271,1,80,10|6,0:0|0:0,0:0:0:0:
342,196,41609,1,6,0:0:0:0:
342,196,41686,2,0,L|360:248,3,40,10|2|6|6,0:0|0:0|0:0|0:0,0:0:0:0:
406,140,41994,2,0,L|419:102,3,40,10|10|10|10,0:0|0:0|0:0|0:0,0:0:0:0:
323,112,42302,5,2,0:0:0:0:
256,192,42379,12,0,44456,0:0:0:0:
177,169,44763,54,0,L|168:143,8,16,4|0|0|0|0|0|0|0|0,0:0|0:0|0:0|0:0|0:0|0:0|0:0|0:0|0:0,0:0:0:0:
172,183,45225,1,4,0:0:0:0:
234,100,45532,54,0,P|240:68|227:30,2,64
100,227,46148,6,0,L|114:313,1,64
121,301,46609,1,0,0:0:0:0:
132,311,46917,1,0,0:0:0:0:
309,232,47225,38,0,L|314:205,8,16,4|0|0|0|0|0|0|0|0,0:0|0:0|0:0|0:0|0:0|0:0|0:0|0:0|0:0,0:0:0:0:
300,244,47686,1,4,0:0:0:0:
377,164,47994,54,0,P|364:141|361:102,2,64
431,294,48609,6,0,L|367:301,1,64
441,114,49071,2,0,L|514:120,1,64,0|0,0:0|0:0,0:0:0:0:
313,158,49379,2,0,L|386:164,1,64,0|0,0:0|0:0,0:0:0:0:
244,205,49686,38,0,L|252:233,8,16,4|0|0|0|0|0|0|0|0,0:0|0:0|0:0|0:0|0:0|0:0|0:0|0:0|0:0,0:0:0:0:
234,196,50148,1,4,0:0:0:0:
316,272,50456,54,0,B|325:304|325:304|316:345,2,64
162,150,51071,6,0,L|175:59,1,64
241,312,51532,2,0,L|149:323,1,64,0|0,0:0|0:0,0:0:0:0:
379,264,51840,2,0,L|287:275,1,64,0|0,0:0|0:0,0:0:0:0:
450,219,52148,38,0,L|465:244,8,16,4|0|0|0|0|0|0|0|0,0:0|0:0|0:0|0:0|0:0|0:0|0:0|0:0|0:0,0:0:0:0:
454,204,52609,1,4,0:0:0:0:
446,312,52917,54,0,L|437:382,2,64
376,172,53532,6,0,P|368:139|381:93,1,64
408,38,53840,1,0,0:0:0:0:
508,165,53994,2,0,P|483:145|453:137,1,64,0|0,0:0|0:0,0:0:0:0:
393,251,54302,2,0,P|422:239|445:217,1,64,0|0,0:0|0:0,0:0:0:0:
289,166,54609,6,0,B|173:145|173:145|219:175,1,160,4|8,0:0|0:0,0:0:0:0:
105,173,55071,2,0,P|98:136|196:78,1,160,4|4,0:0|0:0,0:0:0:0:
162,234,55532,1,0,0:0:0:0:
235,195,55686,6,0,B|246:231|246:231|237:273,1,80,8|0,0:0|0:0,0:0:0:0:
166,317,55994,1,4,0:0:0:0:
173,146,56148,1,0,0:0:0:0:
328,233,56302,1,8,0:0:0:0:
162,234,56456,102,0,L|64:249,2,80,4|4|8,0:0|0:0|0:0,0:0:0:0:
244,351,56917,1,0,0:0:0:0:
328,233,57071,6,0,B|358:189|350:159|350:159|317:130|325:83,1,160,4|8,0:0|0:0,0:0:0:0:
400,100,57532,2,0,P|369:26|295:18,1,160,4|4,0:0|0:0,0:0:0:0:
267,180,57994,1,0,0:0:0:0:
196,137,58148,102,0,B|185:177|185:177|199:232,1,80,8|0,0:0|0:0,0:0:0:0:
271,299,58456,2,0,L|268:247,2,40,4|4|8,0:0|0:0|0:0,0:0:0:0:
106,182,58763,1,4,0:0:0:0:
267,180,58917,21,8,0:0:0:0:
186,295,59071,1,4,0:0:0:0:
186,295,59225,1,4,0:0:0:0:
124,105,59379,1,8,0:0:0:0:
267,180,59532,86,0,B|314:198|354:151|354:151|343:211,1,160,4|8,0:0|0:0,0:0:0:0:
341,288,59994,2,0,B|389:292|409:251|409:251|439:269|484:252,1,160,4|4,0:0|0:0,0:0:0:0:
438,338,60456,1,0,0:0:0:0:
448,182,60609,6,0,L|425:86,1,80,8|0,0:0|0:0,0:0:0:0:
289,105,60917,1,4,0:0:0:0:
342,211,61071,1,4,0:0:0:0:
362,55,61225,1,8,0:0:0:0:
213,143,61379,2,0,B|204:104|204:104|216:54,2,80,4|4|8,0:0|0:0|0:0,0:0:0:0:
342,211,61840,1,4,0:0:0:0:
289,105,61994,101,4,0:0:0:0:
173,222,62148,1,8,0:0:0:0:
173,222,62302,1,4,0:0:0:0:
133,146,62456,5,4,0:0:0:0:
216,299,62610,1,8,0:0:0:0:
216,299,62764,1,4,0:0:0:0:
213,143,62917,101,4,0:0:0:0:
97,266,63071,1,8,0:0:0:0:
58,110,63225,6,0,L|40:57,2,40,4|4|8,0:0|0:0|0:0,0:0:0:0:
173,222,63532,1,4,0:0:0:0:
14,183,63686,1,4,0:0:0:0:
162,147,63840,2,0,P|210:152|240:183,1,80,8|4,0:0|0:0,0:0:0:0:
304,217,64071,1,4,0:0:0:0:
304,217,64148,2,0,L|310:177,3,40,8|8|8|8,0:0|0:0|0:0|0:0,0:0:0:0:
248,274,64456,69,2,0:0:0:0:
191,178,74302,118,0,P|194:145|178:108,2,64,2|0|0,0:0|0:0|0:0,0:0:0:0:
155,254,74763,2,0,P|209:215|278:225,1,128,2|2,0:0|0:0,0:0:0:0:
408,84,75379,6,0,B|434:129|434:129|411:206,1,128,2|0,0:0|0:0,0:0:0:0:
350,257,75840,1,0,0:0:0:0:
350,257,75994,2,0,B|324:212|324:212|347:135,1,128,2|0,0:0|0:0,0:0:0:0:
475,191,76456,2,0,L|386:206,1,64,2|0,0:0|0:0,0:0:0:0:
258,148,76763,102,0,L|194:137,2,64,2|0|0,0:0|0:0|0:0,0:0:0:0:
277,228,77225,2,0,L|121:203,1,128,2|0,0:0|0:0,0:0:0:0:
150,207,77686,1,0,0:0:0:0:
271,308,77840,6,0,L|115:283,1,128,2|0,0:0|0:0,0:0:0:0:
144,287,78301,1,0,0:0:0:0:
277,228,78456,102,0,P|328:195|411:227,1,128,2|0,0:0|0:0,0:0:0:0:
345,272,78917,2,0,P|354:309|338:351,1,64,0|0,0:0|0:0,0:0:0:0:
390,207,79225,6,0,P|381:170|397:128,2,64,2|0|0,0:0|0:0|0:0,0:0:0:0:
462,170,79686,2,0,P|476:119|449:36,1,128,2|2,0:0|0:0,0:0:0:0:
297,157,80302,102,0,B|250:148|250:148|221:159|221:159|164:150,2,128,2|2|2,0:0|0:0|0:0,0:0:0:0:
201,12,81225,2,0,L|209:94,2,64,0|0|0,0:0|0:0|0:0,0:0:0:0:
109,101,81686,6,0,P|93:133|100:185,1,64,2|0,0:0|0:0,0:0:0:0:
144,226,81994,1,0,0:0:0:0:
144,226,82148,2,0,P|168:288|132:352,1,128,2|0,0:0|0:0,0:0:0:0:
88,284,82609,1,0,0:0:0:0:
172,151,82763,1,2,0:0:0:0:
24,290,82917,102,0,L|108:282,1,64,0|0,0:0|0:0,0:0:0:0:
208,347,83225,2,0,L|124:339,1,64,0|0,0:0|0:0,0:0:0:0:
296,281,83532,54,0,L|281:326,7,32
377,275,84148,22,0,P|395:230|374:176,1,80,6|6,0:0|0:0,0:0:0:0:
353,125,84456,1,10,0:0:0:0:
508,136,84609,2,0,B|424:163|443:102|354:125,1,160,6|10,0:0|0:0,0:0:0:0:
474,62,85071,1,2,0:0:0:0:
389,200,85225,1,6,0:0:0:0:
298,61,85379,6,0,B|256:57|256:57|201:80,1,80,2|6,0:0|0:0,0:0:0:0:
150,18,85686,1,10,0:0:0:0:
272,142,85840,1,6,0:0:0:0:
142,101,85994,2,0,P|156:145|145:190,1,80,6|10,0:0|0:0,0:0:0:0:
12,191,86302,2,0,P|43:156|87:143,1,80,2|6,0:0|0:0,0:0:0:0:
157,257,86609,102,0,P|111:247|78:215,2,80,2|6|8,0:0|0:0|0:0,0:0:0:0:
231,291,87071,2,0,P|199:325|155:338,2,80,6|6|10,0:0|0:0|0:0,0:0:0:0:
299,245,87532,2,0,P|313:289|302:334,1,80,6|6,0:0|0:0,0:0:0:0:
226,211,87840,6,0,L|207:107,1,80,2|6,0:0|0:0,0:0:0:0:
142,93,88071,1,2,0:0:0:0:
142,93,88148,2,0,L|116:37,3,40,10|2|6|2,0:0|0:0|0:0|0:0,0:0:0:0:
211,132,88456,2,0,L|246:81,3,40,10|2|6|6,0:0|0:0|0:0|0:0,0:0:0:0:
125,167,88763,2,0,L|85:163,3,40,10|2|6|2,0:0|0:0|0:0|0:0,0:0:0:0:
200,211,89071,102,0,L|192:317,1,80,2|4,0:0|0:0,0:0:0:0:
193,290,89379,1,8,0:0:0:0:
63,343,89532,2,0,P|117:285|193:290,1,160,6|10,0:0|0:0,0:0:0:0:
239,355,89994,2,0,P|208:368|145:350,1,80,2|6,0:0|0:0,0:0:0:0:
121,204,90302,5,2,0:0:0:0:
275,281,90456,2,0,L|289:229,2,40,6|2|10,0:0|0:0|0:0,0:0:0:0:
163,361,90763,1,6,0:0:0:0:
210,211,90917,2,0,L|193:127,1,80,6|10,0:0|0:0,0:0:0:0:
285,162,91225,1,2,0:0:0:0:
193,290,91379,1,6,0:0:0:0:
111,122,91532,102,0,L|84:82,3,40,2|2|6|2,0:0|0:0|0:0|0:0,0:0:0:0:
194,132,91840,2,0,L|221:92,3,40,10|2|6|2,0:0|0:0|0:0|0:0,0:0:0:0:
104,202,92148,2,0,L|77:242,3,40,6|2|10|2,0:0|0:0|0:0|0:0,0:0:0:0:
187,212,92456,2,0,L|214:252,3,40,6|2|10|2,0:0|0:0|0:0|0:0,0:0:0:0:
265,173,92763,6,0,L|381:158,1,80,2|6,0:0|0:0,0:0:0:0:
378,92,92994,1,6,0:0:0:0:
378,92,93071,2,0,L|457:102,1,80,10|6,0:0|0:0,0:0:0:0:
512,170,93302,1,2,0:0:0:0:
512,170,93379,2,0,L|496:239,3,40,10|2|6|6,0:0|0:0|0:0|0:0,0:0:0:0:
429,251,93686,2,0,L|413:182,3,40,10|2|6|2,0:0|0:0|0:0|0:0,0:0:0:0:
475,312,93994,102,0,P|441:327|380:306,1,80,6|4,0:0|0:0,0:0:0:0:
243,285,94302,1,8,0:0:0:0:
307,219,94456,2,0,B|327:283|327:283|318:320|318:320|331:376,1,160,6|10,0:0|0:0,0:0:0:0:
243,285,94917,2,0,B|208:271|208:271|164:276,1,80,2|6,0:0|0:0,0:0:0:0:
110,212,95225,5,2,0:0:0:0:
200,354,95379,1,6,0:0:0:0:
226,192,95532,1,10,0:0:0:0:
83,286,95686,1,6,0:0:0:0:
159,147,95840,2,0,P|167:108|142:58,1,80,6|10,0:0|0:0,0:0:0:0:
82,44,96071,1,0,0:0:0:0:
82,44,96148,2,0,L|95:-8,3,40,2|2|6|2,0:0|0:0|0:0|0:0,0:0:0:0:
21,112,96456,102,0,L|8:60,3,40,2|2|6|2,0:0|0:0|0:0|0:0,0:0:0:0:
29,217,96763,2,0,L|-8:178,3,40,10|2|6|2,0:0|0:0|0:0|0:0,0:0:0:0:
76,309,97071,2,0,L|24:294,3,40,6|2|10|2,0:0|0:0|0:0|0:0,0:0:0:0:
147,266,97379,6,0,L|196:241,1,40,6|2,0:0|0:0,0:0:0:0:
140,366,97532,2,0,L|189:391,1,40,6|2,0:0|0:0,0:0:0:0:
275,315,97686,69,6,0:0:0:0:
275,315,97840,1,6,0:0:0:0:
288,325,98148,6,0,L|283:268,1,40,6|0,0:0|0:0,0:0:0:0:
300,335,98456,2,0,L|295:278,1,40,6|0,0:0|0:0,0:0:0:0:
310,345,98763,6,0,L|298:240,1,80,6|4,0:0|3:3,0:0:0:0:
282,242,98994,1,4,3:0:0:0:
305,223,99070,1,4,3:0:0:0:
333,215,99147,1,8,3:0:0:0:
363,219,99225,6,0,P|373:178|359:132,1,80,10|6,0:0|0:0,0:0:0:0:
291,23,99532,2,0,P|281:64|295:110,1,80,2|10,0:0|0:0,0:0:0:0:
365,65,99840,1,2,0:0:0:0:
292,182,99994,102,0,L|184:174,1,80,6|0,0:0|0:0,0:0:0:0:
56,100,100302,2,0,L|13:86,2,40,6|4|10,0:0|0:0|0:0,0:0:0:0:
147,222,100609,1,6,0:0:0:0:
142,65,100763,2,0,L|131:164,1,80,10|6,0:0|0:0,0:0:0:0:
75,276,101071,2,0,L|64:177,1,80,10|6,0:0|0:0,0:0:0:0:
150,306,101379,6,0,L|135:354,3,40,10|2|6|4,0:0|0:0|0:0|0:0,0:0:0:0:
230,318,101686,2,0,L|215:366,3,40,6|2|10|2,0:0|0:0|0:0|0:0,0:0:0:0:
279,250,101994,102,0,L|264:202,3,40,6|6|10|6,0:0|0:0|0:0|0:0,0:0:0:0:
359,238,102301,2,0,L|344:190,3,40,10|6|6|6,0:0|0:0|0:0|0:0,0:0:0:0:
436,274,102609,5,10,0:0:0:0:
432,293,102685,1,10,0:0:0:0:
429,313,102762,1,6,0:0:0:0:
426,333,102839,1,6,0:0:0:0:
420,351,102917,2,0,L|372:372,3,40,10|10|6|6,0:0|0:0|0:0|0:0,0:0:0:0:
307,325,103225,101,10,0:0:0:0:
281,310,103301,1,10,0:0:0:0:
251,304,103378,1,10,0:0:0:0:
222,308,103455,1,10,0:0:0:0:
195,320,103532,2,0,L|156:269,3,40,14|14|14|14,0:0|0:0|0:0|0:0,0:0:0:0:
224,227,103840,21,2,0:0:0:0:
