osu file format v14

[General]
AudioFilename: audio.mp3
AudioLeadIn: 0
PreviewTime: 54644
Countdown: 0
SampleSet: Soft
StackLeniency: 0.7
Mode: 3
LetterboxInBreaks: 0
SpecialStyle: 0
WidescreenStoryboard: 1

[Editor]
DistanceSpacing: 1.5
BeatDivisor: 4
GridSize: 8
TimelineZoom: 1.2

[Metadata]
Title:Altros
TitleUnicode:Altros
Artist:ARForest
ArtistUnicode:ARForest
Creator:ByeForNow
Version:Normal
Source:MUSYNX
Tags:PABAT! 2017 k-bms inukoro artcore bms musync electronic instrumental
BeatmapID:2060687
BeatmapSetID:877895

[Difficulty]
HPDrainRate:7.5
CircleSize:4
OverallDifficulty:7
ApproachRate:5
SliderMultiplier:1.4
SliderTickRate:1

[Events]
//Background and Video events
0,0,"bg.jpg",0,0
Video,9,"Altros.avi"
//Break Periods
//Storyboard Layer 0 (Background)
//Storyboard Layer 1 (Fail)
//Storyboard Layer 2 (Pass)
//Storyboard Layer 3 (Foreground)
//Storyboard Layer 4 (Overlay)
//Storyboard Sound Samples
Sample,5414,0,"Kick1.wav",70
Sample,5721,0,"Drum2.wav",35
Sample,5875,0,"Drum.wav",20
Sample,6029,0,"Drum2.wav",35
Sample,6183,0,"Drum.wav",20
Sample,6337,0,"Kick1.wav",70
Sample,6491,0,"Kick1.wav",70
Sample,6644,0,"Drum2.wav",35
Sample,6798,0,"Drum.wav",20
Sample,6952,0,"Kick1.wav",70
Sample,7106,0,"Drum2.wav",35
Sample,7260,0,"Drum2.wav",35
Sample,7567,0,"Kick1.wav",70
Sample,7721,0,"Drum.wav",20
Sample,7875,0,"Kick1.wav",70
Sample,8183,0,"Drum2.wav",35
Sample,8337,0,"Drum.wav",20
Sample,8491,0,"Drum2.wav",35
Sample,8644,0,"Drum.wav",20
Sample,8798,0,"Kick1.wav",70
Sample,8952,0,"Drum2.wav",35
Sample,9106,0,"Drum.wav",20
Sample,9260,0,"Drum2.wav",35
Sample,9414,0,"Kick1.wav",70
Sample,9567,0,"Kick1.wav",70
Sample,9644,0,"Kick1.wav",70
Sample,9721,0,"Drum2.wav",35
Sample,9875,0,"Kick1.wav",70
Sample,9952,0,"Kick1.wav",70
Sample,10029,0,"Kick1.wav",70
Sample,10183,0,"Drum2.wav",35
Sample,10260,0,"Drum2.wav",35
Sample,10337,0,"Bass_Finish.wav",50
Sample,10337,0,"D#6.wav",50
Sample,10952,0,"Snare1.wav",70
Sample,11875,0,"Kick1.wav",70
Sample,12183,0,"Snare1.wav",70
Sample,12798,0,"Kick1.wav",70
Sample,13414,0,"Snare1.wav",70
Sample,14337,0,"Kick1.wav",70
Sample,14644,0,"Snare1.wav",70
Sample,15260,0,"Kick1.wav",70
Sample,15875,0,"Snare1.wav",70
Sample,16798,0,"Kick1.wav",70
Sample,17106,0,"Snare1.wav",70
Sample,17721,0,"Kick1.wav",70
Sample,18337,0,"Snare1.wav",70
Sample,19260,0,"Kick1.wav",70
Sample,19567,0,"Snare1.wav",70
Sample,19875,0,"Kick1.wav",70
Sample,20183,0,"Kick1.wav",70
Sample,22414,0,"Snare2_Low.wav",50
Sample,22567,0,"Snare2_Low.wav",50
Sample,22644,0,"G#6_s.wav",70
Sample,22644,0,"Cymbal.wav",70
Sample,22798,0,"Cymbal.wav",70
Sample,22798,0,"G#6_s.wav",70
Sample,22952,0,"G6_s.wav",70
Sample,23106,0,"G#6_s.wav",70
Sample,23260,0,"A#6_s.wav",70
Sample,23414,0,"G#6_s.wav",70
Sample,23567,0,"D#6_s.wav",70
Sample,23721,0,"D#6_s.wav",70
Sample,23875,0,"G#6_s.wav",70
Sample,24029,0,"A#6_s.wav",70
Sample,24183,0,"D#6_s.wav",70
Sample,24337,0,"C7.wav",70
Sample,24491,0,"A#6.wav",70
Sample,24721,0,"G#6.wav",70
Sample,24952,0,"C7.wav",70
Sample,25106,0,"G#6_s.wav",70
Sample,25260,0,"G#6_s.wav",70
Sample,25414,0,"D#6_s.wav",70
Sample,25567,0,"G#6_s.wav",70
Sample,25721,0,"G6_s.wav",70
Sample,25875,0,"G#6_s.wav",70
Sample,26029,0,"G6_s.wav",70
Sample,26183,0,"G#6_s.wav",70
Sample,26337,0,"G6_s.wav",70
Sample,26491,0,"A#5_s.wav",70
Sample,26567,0,"D#6_s.wav",70
Sample,26644,0,"G6_s.wav",70
Sample,26721,0,"D#6_s.wav",70
Sample,26798,0,"G6_s.wav",70
Sample,26875,0,"G#6_s.wav",70
Sample,26952,0,"A#6.wav",70
Sample,27183,0,"G#6_s.wav",70
Sample,27260,0,"G6_s.wav",70
Sample,27414,0,"G#6_s.wav",70
Sample,27567,0,"Cymbal.wav",70
Sample,27567,0,"G#6_s.wav",70
Sample,27721,0,"G#6_s.wav",70
Sample,27721,0,"Cymbal.wav",70
Sample,27875,0,"G6_s.wav",70
Sample,28029,0,"G#6_s.wav",70
Sample,28183,0,"A#6_s.wav",70
Sample,28337,0,"G#6_s.wav",70
Sample,28491,0,"D#6_s.wav",70
Sample,28644,0,"D#6_s.wav",70
Sample,28798,0,"G#6_s.wav",70
Sample,28952,0,"A#6_s.wav",70
Sample,29106,0,"F7_s.wav",70
Sample,29260,0,"D#7_s.wav",70
Sample,29414,0,"D#6_s.wav",70
Sample,29567,0,"G7_s.wav",70
Sample,29644,0,"G#7_s.wav",70
Sample,29721,0,"G7_s.wav",70
Sample,29875,0,"D#7_s.wav",70
Sample,30029,0,"G#6_s.wav",70
Sample,30183,0,"G#6_s.wav",70
Sample,30337,0,"D#6_s.wav",70
Sample,30491,0,"G#6_s.wav",70
Sample,30644,0,"A#6_s.wav",70
Sample,30721,0,"D#6_s.wav",70
Sample,30798,0,"G6_s.wav",70
Sample,30875,0,"C7_s.wav",70
Sample,30952,0,"G#6_s.wav",70
Sample,31029,0,"G#6_s.wav",70
Sample,31106,0,"F7_s.wav",70
Sample,31260,0,"Snare2_High.wav",70
Sample,31260,0,"D#7_s.wav",70
Sample,31260,0,"Cymbal.wav",70
Sample,31414,0,"G#6_s.wav",70
Sample,31491,0,"A#6_s.wav",70
Sample,31567,0,"D#7_s.wav",70
Sample,31644,0,"A#6_s.wav",70
Sample,31721,0,"D#7_s.wav",70
Sample,31798,0,"G#7_s.wav",70
Sample,31798,0,"Kick2_Low.wav",70
Sample,31875,0,"G7_s.wav",70
Sample,31952,0,"D#7_s.wav",70
Sample,32029,0,"Kick2_High.wav",70
Sample,32029,0,"A#6_s.wav",70
Sample,32106,0,"Kick2_Low.wav",70
Sample,32106,0,"D#7_s.wav",70
Sample,32183,0,"G7_s.wav",70
Sample,32183,0,"Kick2_High.wav",70
Sample,32260,0,"G#7_s.wav",70
Sample,32260,0,"Kick2_Low.wav",70
Sample,32337,0,"G7_s.wav",70
Sample,32414,0,"Snare2_Low.wav",70
Sample,32414,0,"G#7_s.wav",70
Sample,32491,0,"G#6_s.wav",70
Sample,32491,0,"Cymbal.wav",70
Sample,32644,0,"Cymbal.wav",70
Sample,32644,0,"G#6_s.wav",70
Sample,32798,0,"G6_s.wav",70
Sample,32952,0,"G#6_s.wav",70
Sample,33106,0,"A#6_s.wav",70
Sample,33260,0,"G#6_s.wav",70
Sample,33414,0,"D#6_s.wav",70
Sample,33567,0,"D#6_s.wav",70
Sample,33721,0,"G#6_s.wav",70
Sample,33875,0,"A#6_s.wav",70
Sample,34029,0,"D#6_s.wav",70
Sample,34183,0,"C7.wav",70
Sample,34337,0,"A#6.wav",70
Sample,34567,0,"G#6.wav",70
Sample,34798,0,"C7.wav",70
Sample,34952,0,"G#6_s.wav",70
Sample,35106,0,"G#6_s.wav",70
Sample,35260,0,"D#6_s.wav",70
Sample,35414,0,"G#6_s.wav",70
Sample,35567,0,"G6_s.wav",70
Sample,35721,0,"G#6_s.wav",70
Sample,35875,0,"G6_s.wav",70
Sample,36029,0,"G#6_s.wav",70
Sample,36183,0,"G6_s.wav",70
Sample,36337,0,"A#5_s.wav",70
Sample,36414,0,"D#6_s.wav",70
Sample,36491,0,"G6_s.wav",70
Sample,36567,0,"D#6_s.wav",70
Sample,36644,0,"G6_s.wav",70
Sample,36721,0,"G#6_s.wav",70
Sample,36798,0,"A#6.wav",70
Sample,37029,0,"G#6_s.wav",70
Sample,37106,0,"G6_s.wav",70
Sample,37260,0,"G#6_s.wav",70
Sample,37414,0,"G#6_s.wav",70
Sample,37414,0,"Cymbal.wav",70
Sample,37567,0,"Cymbal.wav",70
Sample,37567,0,"G#6_s.wav",70
Sample,37721,0,"G6_s.wav",70
Sample,37875,0,"G#6_s.wav",70
Sample,38029,0,"A#6_s.wav",70
Sample,38183,0,"G#6_s.wav",70
Sample,38337,0,"D#6_s.wav",70
Sample,38491,0,"D#6_s.wav",70
Sample,38644,0,"G#6_s.wav",70
Sample,38798,0,"A#6_s.wav",70
Sample,38952,0,"F7_s.wav",70
Sample,39106,0,"D#7_s.wav",70
Sample,39260,0,"D#6_s.wav",70
Sample,39414,0,"G7_s.wav",70
Sample,39491,0,"G#7_s.wav",70
Sample,39491,0,"Kick2_High.wav",70
Sample,39567,0,"G7_s.wav",70
Sample,39721,0,"D#7_s.wav",70
Sample,39875,0,"G#6_s.wav",70
Sample,40029,0,"G#6_s.wav",70
Sample,40183,0,"D#6_s.wav",70
Sample,40337,0,"G#6_s.wav",70
Sample,40491,0,"A#6_s.wav",70
Sample,40567,0,"D#6_s.wav",70
Sample,40644,0,"G6_s.wav",70
Sample,40721,0,"C7_s.wav",70
Sample,40798,0,"G#6_s.wav",70
Sample,40875,0,"G#6_s.wav",70
Sample,40952,0,"F7_s.wav",70
Sample,41106,0,"Snare2_High.wav",70
Sample,41106,0,"Cymbal.wav",70
Sample,41106,0,"D#7_s.wav",70
Sample,41260,0,"G#6_s.wav",70
Sample,41337,0,"A#6_s.wav",70
Sample,41414,0,"D#7_s.wav",70
Sample,41491,0,"A#6_s.wav",70
Sample,41567,0,"D#7_s.wav",70
Sample,41644,0,"G#7_s.wav",70
Sample,41644,0,"Kick2_Low.wav",70
Sample,41721,0,"G7_s.wav",70
Sample,41798,0,"D#7_s.wav",70
Sample,41875,0,"A#6_s.wav",70
Sample,41875,0,"Kick2_High.wav",70
Sample,41952,0,"Kick2_Low.wav",70
Sample,41952,0,"D#7_s.wav",70
Sample,42029,0,"G7_s.wav",70
Sample,42106,0,"G#7_s.wav",70
Sample,42106,0,"Snare2_Low.wav",70
Sample,42183,0,"G7_s.wav",70
Sample,42260,0,"Snare2_Low.wav",70
Sample,42260,0,"G#7_s.wav",70
Sample,42337,0,"Kick1.wav",70
Sample,44798,0,"Kick2_High.wav",60
Sample,45260,0,"Kick2_High.wav",60
Sample,45567,0,"D#5_s.wav",50
Sample,45721,0,"G#5_s.wav",50
Sample,45875,0,"A#5_s.wav",50
Sample,46183,0,"D#5_s.wav",50
Sample,46337,0,"G#5_s.wav",50
Sample,46644,0,"A#5_s.wav",50
Sample,46952,0,"C6_s.wav",50
Sample,47260,0,"Kick2_High.wav",60
Sample,47721,0,"Kick2_High.wav",60
Sample,48029,0,"D#5_s.wav",50
Sample,48183,0,"G#5_s.wav",50
Sample,48337,0,"A#5_s.wav",50
Sample,48644,0,"D#5_s.wav",50
Sample,48798,0,"G#5_s.wav",50
Sample,49106,0,"A#5_s.wav",50
Sample,49260,0,"G#5_s.wav",50
Sample,49414,0,"A#5_s.wav",50
Sample,49567,0,"D#6_s.wav",50
Sample,49721,0,"Kick2_High.wav",60
Sample,50183,0,"Kick2_High.wav",60
Sample,50491,0,"D#5_s.wav",50
Sample,50644,0,"G#5_s.wav",50
Sample,50798,0,"A#5_s.wav",50
Sample,51106,0,"D#5_s.wav",50
Sample,51260,0,"G#5_s.wav",50
Sample,51567,0,"A#5_s.wav",50
Sample,51721,0,"G#5_s.wav",50
Sample,51875,0,"A#5_s.wav",50
Sample,52029,0,"D#6_s.wav",50
Sample,52183,0,"Kick2_High.wav",60
Sample,52644,0,"Kick2_High.wav",60
Sample,52952,0,"D#5_s.wav",50
Sample,53106,0,"G#5_s.wav",50
Sample,53260,0,"A#5_s.wav",50
Sample,53567,0,"D#5_s.wav",50
Sample,53721,0,"G#5_s.wav",50
Sample,53875,0,"D#6_s.wav",50
Sample,54029,0,"A#5_s.wav",50
Sample,54183,0,"G#6_s.wav",50
Sample,54337,0,"G6_s.wav",50
Sample,54491,0,"D#6_s.wav",50
Sample,54644,0,"C6.wav",60
Sample,54644,0,"Cymbal.wav",60
Sample,55106,0,"C6.wav",60
Sample,55414,0,"D#5_s.wav",60
Sample,55567,0,"G#5_s.wav",60
Sample,55721,0,"A#5_s.wav",60
Sample,56029,0,"D#5_s.wav",60
Sample,56183,0,"G#5_s.wav",60
Sample,56337,0,"D#6_s.wav",60
Sample,56491,0,"A#5_s.wav",60
Sample,56644,0,"D#5_s.wav",60
Sample,56798,0,"A#5_s.wav",60
Sample,56952,0,"C6_s.wav",60
Sample,57106,0,"D#6.wav",60
Sample,57567,0,"D#6.wav",60
Sample,57875,0,"D#5_s.wav",60
Sample,58029,0,"G#5_s.wav",60
Sample,58183,0,"A#5_s.wav",60
Sample,58491,0,"D#5_s.wav",60
Sample,58644,0,"G#5_s.wav",60
Sample,58798,0,"D#6_s.wav",60
Sample,58952,0,"A#5_s.wav",60
Sample,59106,0,"G#6_s.wav",60
Sample,59260,0,"G6_s.wav",60
Sample,59414,0,"G#6_s.wav",60
Sample,59567,0,"D#6.wav",60
Sample,60029,0,"D#6.wav",60
Sample,60337,0,"D#5_s.wav",60
Sample,60491,0,"G#5_s.wav",60
Sample,60644,0,"D#6_s.wav",60
Sample,60952,0,"D#5_s.wav",60
Sample,61106,0,"G#5_s.wav",60
Sample,61260,0,"D#6_s.wav",60
Sample,61414,0,"A#5_s.wav",60
Sample,61567,0,"G#6_s.wav",60
Sample,61721,0,"G6_s.wav",60
Sample,61875,0,"D#6_s.wav",60
Sample,62029,0,"G#6.wav",60
Sample,62491,0,"G#6.wav",60
Sample,62798,0,"G#5_s.wav",60
Sample,62952,0,"D#6_s.wav",60
Sample,63106,0,"G#6_s.wav",60
Sample,63260,0,"G6_s.wav",60
Sample,63414,0,"G#5_s.wav",60
Sample,63567,0,"D#6_s.wav",60
Sample,63721,0,"G#6_s.wav",60
Sample,63875,0,"G6_s.wav",60
Sample,64029,0,"G#5_s.wav",60
Sample,64183,0,"G6_s.wav",60
Sample,64260,0,"Snare2_Low.wav",60
Sample,64337,0,"G#6_s.wav",60
Sample,64414,0,"Snare2_Low.wav",60
Sample,64798,0,"G#5_s.wav",50
Sample,64952,0,"A#5_s.wav",50
Sample,65260,0,"G#5_s.wav",50
Sample,65414,0,"D#6_s.wav",50
Sample,65721,0,"G#5_s.wav",50
Sample,65875,0,"D#5_s.wav",50
Sample,66029,0,"G#5_s.wav",50
Sample,66183,0,"A#5_s.wav",50
Sample,66491,0,"G#5_s.wav",50
Sample,66644,0,"F6_s.wav",50
Sample,66798,0,"D#6_s.wav",50
Sample,67260,0,"G#5_s.wav",50
Sample,67414,0,"A#5_s.wav",50
Sample,67721,0,"G#5_s.wav",50
Sample,67875,0,"D#6_s.wav",50
Sample,68183,0,"G#5_s.wav",50
Sample,68337,0,"D#5_s.wav",50
Sample,68491,0,"G#5_s.wav",50
Sample,68644,0,"A#5_s.wav",50
Sample,68952,0,"G#5_s.wav",50
Sample,69106,0,"G#6_s.wav",50
Sample,69260,0,"D#6_s.wav",50
Sample,69721,0,"G#5_s.wav",50
Sample,69875,0,"A#5_s.wav",50
Sample,70183,0,"G#5_s.wav",50
Sample,70337,0,"D#6_s.wav",50
Sample,70644,0,"G#5_s.wav",50
Sample,70798,0,"D#5_s.wav",50
Sample,70952,0,"G#5_s.wav",50
Sample,71106,0,"A#5_s.wav",50
Sample,71414,0,"G#5_s.wav",50
Sample,71567,0,"F6_s.wav",50
Sample,71721,0,"D#6_s.wav",50
Sample,72183,0,"G#5_s.wav",50
Sample,72337,0,"A#5_s.wav",50
Sample,72644,0,"G#5_s.wav",50
Sample,72798,0,"D#6_s.wav",50
Sample,73260,0,"D#5_s.wav",50
Sample,73414,0,"G#5_s.wav",50
Sample,73567,0,"A#5_s.wav",50
Sample,74337,0,"C7.wav",50
Sample,74491,0,"D#6.wav",50
Sample,74644,0,"G#6.wav",50
Sample,74798,0,"A#6.wav",50
Sample,75106,0,"C7.wav",50
Sample,75414,0,"A#6.wav",50
Sample,75721,0,"D#6.wav",50
Sample,75875,0,"G#6.wav",50
Sample,76029,0,"A#6.wav",50
Sample,76337,0,"G#6.wav",50
Sample,76491,0,"G6.wav",50
Sample,76644,0,"G#6.wav",50
Sample,76798,0,"A#6.wav",50
Sample,76952,0,"D#6.wav",50
Sample,77106,0,"G#6.wav",50
Sample,77260,0,"A#6.wav",50
Sample,77567,0,"E6.wav",50
Sample,77721,0,"C7.wav",50
Sample,77875,0,"A#6.wav",50
Sample,78183,0,"G#6.wav",50
Sample,78337,0,"G6.wav",50
Sample,78491,0,"G#6.wav",50
Sample,78798,0,"G#6.wav",50
Sample,78952,0,"A#6.wav",50
Sample,79106,0,"G#6.wav",50
Sample,79260,0,"G#6.wav",50
Sample,79414,0,"D#6.wav",50
Sample,79567,0,"G#6.wav",50
Sample,79721,0,"A#6.wav",50
Sample,80029,0,"C7.wav",50
Sample,80337,0,"G6.wav",50
Sample,80644,0,"A#6.wav",50
Sample,80952,0,"G#6.wav",50
Sample,81260,0,"G#6.wav",50
Sample,81414,0,"G6.wav",50
Sample,81567,0,"D#6.wav",50
Sample,81721,0,"G#6.wav",50
Sample,81875,0,"D#6.wav",50
Sample,82029,0,"A#6.wav",50
Sample,82183,0,"G#6.wav",50
Sample,82491,0,"G#6.wav",50
Sample,82644,0,"A#6.wav",50
Sample,82798,0,"C7.wav",50
Sample,82952,0,"E6.wav",50
Sample,83106,0,"A6.wav",50
Sample,83260,0,"B6.wav",50
Sample,83414,0,"E7.wav",50
Sample,83644,0,"B6_s.wav",50
Sample,83721,0,"A6_s.wav",50
Sample,83798,0,"E6_s.wav",50
Sample,83875,0,"B5_s.wav",50
Sample,83952,0,"A5_s.wav",50
Sample,84029,0,"E5_s.wav",50
Sample,84106,0,"B4_s.wav",50
Sample,84183,0,"Kick2_High.wav",60
Sample,84183,0,"E7_s.wav",50
Sample,84337,0,"A6_s.wav",70
Sample,84491,0,"E6_s.wav",70
Sample,84644,0,"B6_s.wav",70
Sample,84952,0,"A6_s.wav",70
Sample,85106,0,"C#7_s.wav",70
Sample,85260,0,"A7_s.wav",70
Sample,85337,0,"A7_s.wav",70
Sample,85414,0,"A7_s.wav",70
Sample,85567,0,"A6_s.wav",70
Sample,85721,0,"C#7_s.wav",70
Sample,85875,0,"G#7_s.wav",70
Sample,86029,0,"G#7_s.wav",70
Sample,86183,0,"A6_s.wav",70
Sample,86337,0,"B6_s.wav",70
Sample,86491,0,"C#7_s.wav",70
Sample,86644,0,"B6.wav",70
Sample,86798,0,"A6_s.wav",70
Sample,86952,0,"E6_s.wav",70
Sample,87106,0,"B6.wav",70
Sample,87260,0,"A6_s.wav",70
Sample,87414,0,"E6_s.wav",70
Sample,87567,0,"B6.wav",70
Sample,87721,0,"E7_s.wav",70
Sample,87875,0,"B6.wav",70
Sample,88106,0,"A6_s.wav",70
Sample,88183,0,"G#6_s.wav",70
Sample,88337,0,"B5_s.wav",70
Sample,88414,0,"A5_s.wav",70
Sample,88491,0,"B5_s.wav",70
Sample,88567,0,"A5_s.wav",70
Sample,88644,0,"B5_s.wav",70
Sample,88721,0,"D#6_s.wav",70
Sample,88798,0,"E6_s.wav",70
Sample,88875,0,"G#6_s.wav",70
Sample,88952,0,"A6_s.wav",70
Sample,89029,0,"B6_s.wav",70
Sample,89106,0,"B6.wav",70
Sample,89567,0,"A6.wav",70
Sample,89875,0,"E6_s.wav",70
Sample,90029,0,"B6_s.wav",70
Sample,90183,0,"C#7_s.wav",70
Sample,90337,0,"B6_s.wav",70
Sample,90491,0,"B5_s.wav",70
Sample,90567,0,"E6_s.wav",70
Sample,90644,0,"G#6_s.wav",70
Sample,90798,0,"A6_s.wav",70
Sample,90952,0,"B6_s.wav",70
Sample,91106,0,"A6_s.wav",70
Sample,91260,0,"G#6_s.wav",70
Sample,91414,0,"E6_s.wav",70
Sample,91567,0,"A6_s.wav",70
Sample,91644,0,"G#6_s.wav",70
Sample,91721,0,"B5_s.wav",70
Sample,91798,0,"A5_s.wav",70
Sample,91875,0,"B5_s.wav",70
Sample,91952,0,"A5_s.wav",70
Sample,92029,0,"B5_s.wav",70
Sample,92106,0,"D#6_s.wav",70
Sample,92183,0,"E6_s.wav",70
Sample,92260,0,"A5_s.wav",70
Sample,92337,0,"B5_s.wav",70
Sample,92414,0,"D#6_s.wav",70
Sample,92491,0,"A6_s.wav",70
Sample,92721,0,"A6_s.wav",70
Sample,92798,0,"G#6_s.wav",70
Sample,92952,0,"G#6_s.wav",70
Sample,93029,0,"A6_s.wav",70
Sample,93106,0,"B6_s.wav",70
Sample,93183,0,"A6_s.wav",70
Sample,93260,0,"B6_s.wav",70
Sample,93337,0,"C#7_s.wav",70
Sample,93414,0,"E7_s.wav",70
Sample,93567,0,"A7_s.wav",70
Sample,93721,0,"G#7_s.wav",70
Sample,93875,0,"E7_s.wav",70
Sample,94029,0,"E7_s.wav",70
Sample,94029,0,"Cymbal.wav",70
Sample,94183,0,"A6_s.wav",70
Sample,94337,0,"E6_s.wav",70
Sample,94491,0,"B6_s.wav",70
Sample,94798,0,"A6_s.wav",70
Sample,94952,0,"C#7_s.wav",70
Sample,95106,0,"A7_s.wav",70
Sample,95183,0,"A7_s.wav",70
Sample,95260,0,"A7_s.wav",70
Sample,95414,0,"G#7_s.wav",70
Sample,95567,0,"E7_s.wav",70
Sample,95721,0,"A6_s.wav",70
Sample,95875,0,"B6_s.wav",70
Sample,96029,0,"A6_s.wav",70
Sample,96106,0,"B6_s.wav",70
Sample,96183,0,"G#7_s.wav",70
Sample,96260,0,"E7_s.wav",70
Sample,96337,0,"G#7_s.wav",70
Sample,96414,0,"A7_s.wav",70
Sample,96491,0,"B7_s.wav",70
Sample,96567,0,"A7_s.wav",70
Sample,96644,0,"G#7_s.wav",70
Sample,96721,0,"E7_s.wav",70
Sample,96798,0,"B6_s.wav",70
Sample,96875,0,"A6_s.wav",70
Sample,96952,0,"G#6_s.wav",70
Sample,97029,0,"E6_s.wav",70
Sample,97106,0,"G#6_s.wav",70
Sample,97183,0,"E6_s.wav",70
Sample,97260,0,"G#6_s.wav",70
Sample,97337,0,"A6_s.wav",70
Sample,97414,0,"B6_s.wav",70
Sample,97491,0,"A6_s.wav",70
Sample,97567,0,"B6_s.wav",70
Sample,97644,0,"C#7_s.wav",70
Sample,97721,0,"Snare2_High.wav",70
Sample,97721,0,"Cymbal.wav",70
Sample,97875,0,"Snare2_High.wav",70
Sample,97875,0,"Cymbal.wav",70
Sample,98183,0,"Snare2_High.wav",70
Sample,98183,0,"Cymbal.wav",70
Sample,98491,0,"Snare2_High.wav",70
Sample,98491,0,"Cymbal.wav",70
Sample,98798,0,"Cymbal.wav",70
Sample,98798,0,"Snare2_High.wav",70
Sample,98991,0,"C#8_s.wav",70
Sample,99029,0,"B7_s.wav",70
Sample,99067,0,"A7_s.wav",70
Sample,99106,0,"E7_s.wav",70
Sample,99144,0,"C#7_s.wav",70
Sample,99183,0,"B6_s.wav",70
Sample,99221,0,"A6_s.wav",70
Sample,99260,0,"A6_s.wav",70
Sample,99260,0,"Snare2_High.wav",70
Sample,99414,0,"F#6.wav",70
Sample,99567,0,"G#6_s.wav",70
Sample,99721,0,"A6_s.wav",70
Sample,99875,0,"F#7.wav",70
Sample,100029,0,"E7_s.wav",70
Sample,100337,0,"E6_s.wav",70
Sample,100414,0,"E6_s.wav",70
Sample,100491,0,"A6_s.wav",70
Sample,100644,0,"G#6_s.wav",70
Sample,100798,0,"G#6_s.wav",70
Sample,100952,0,"A6_s.wav",70
Sample,101106,0,"F#7.wav",70
Sample,101260,0,"E7_s.wav",70
Sample,101414,0,"Snare2_High.wav",70
Sample,101414,0,"A6_s.wav",70
Sample,101491,0,"G#6_s.wav",70
Sample,101567,0,"E6_s.wav",70
Sample,101644,0,"Kick2_Low.wav",70
Sample,101644,0,"A5_s.wav",70
Sample,101721,0,"B5_s.wav",70
Sample,101798,0,"A5_s.wav",70
Sample,101875,0,"B5_s.wav",70
Sample,101952,0,"C#6_s.wav",70
Sample,102029,0,"E6_s.wav",70
Sample,102106,0,"C#6_s.wav",70
Sample,102106,0,"Kick2_Low.wav",70
Sample,102183,0,"E6_s.wav",70
Sample,102260,0,"Kick2_High.wav",70
Sample,102260,0,"G#6_s.wav",70
Sample,102337,0,"A6_s.wav",70
Sample,102414,0,"A6_s.wav",70
Sample,102414,0,"Kick2_High.wav",70
Sample,102491,0,"B6_s.wav",70
Sample,102567,0,"Kick2_High.wav",70
Sample,102567,0,"C#7_s.wav",70
Sample,102644,0,"B6_s.wav",70
Sample,102644,0,"Cymbal.wav",70
Sample,102721,0,"A6_s.wav",70
Sample,102798,0,"B6_s.wav",70
Sample,102798,0,"Kick2_High.wav",70
Sample,102875,0,"Kick2_Low.wav",70
Sample,102875,0,"C#7_s.wav",70
Sample,102952,0,"E7_s.wav",70
Sample,103029,0,"B6_s.wav",70
Sample,103106,0,"C#7_s.wav",70
Sample,103106,0,"Kick2_High.wav",70
Sample,103183,0,"Kick2_Low.wav",70
Sample,103183,0,"E7_s.wav",70
Sample,103260,0,"G#7_s.wav",70
Sample,103337,0,"Snare2_Low.wav",70
Sample,103337,0,"E7_s.wav",70
Sample,103414,0,"G#7_s.wav",70
Sample,103491,0,"A7_s.wav",70
Sample,103491,0,"Snare2_Low.wav",70
Sample,103567,0,"B7_s.wav",70
Sample,103644,0,"A7_s.wav",70
Sample,103644,0,"Snare2_High.wav",70
Sample,103721,0,"B7_s.wav",70
Sample,103798,0,"E8_s.wav",70
Sample,103798,0,"Snare2_High.wav",70

[TimingPoints]
491,307.692307692308,4,2,1,80,1,0
22644,-100,4,2,1,80,0,1
42337,-100,4,2,1,80,0,0
84183,-100,4,2,1,80,0,1
103875,-100,4,2,1,80,0,0

[HitObjects]
448,192,10337,5,0,0:0:0:70:Kick1.wav
192,192,10798,1,0,0:0:0:50:C6.wav
320,192,11260,1,0,0:0:0:50:A#5.wav
64,192,11721,1,0,0:0:0:50:G#5.wav
320,192,12183,1,0,0:0:0:50:A#5.wav
448,192,12491,1,0,0:0:0:50:C6.wav
320,192,12798,1,0,0:0:0:50:A#5.wav
192,192,13260,1,0,0:0:0:50:G#5.wav
64,192,13721,1,0,0:0:0:50:D#5.wav
192,192,14183,1,0,0:0:0:50:G#5.wav
320,192,14644,1,0,0:0:0:50:A#5.wav
448,192,14952,1,0,0:0:0:50:D#6.wav
448,192,15260,1,0,0:0:0:50:D#6.wav
192,192,15721,1,0,0:0:0:50:C6.wav
320,192,16183,1,0,0:0:0:50:A#5.wav
64,192,16644,1,0,0:0:0:50:G#5.wav
192,192,17106,1,0,0:0:0:50:A#5.wav
320,192,17414,1,0,0:0:0:50:C6.wav
192,192,17721,1,0,0:0:0:50:A#5.wav
320,192,18183,1,0,0:0:0:50:C6.wav
64,192,18644,1,0,0:0:0:50:D#6.wav
448,192,19106,1,0,0:0:0:50:G#6.wav
192,192,19567,1,0,0:0:0:50:G6.wav
448,192,19875,1,0,0:0:0:50:G#6.wav
64,192,20183,1,0,0:0:0:50:Bass_Finish.wav
320,192,22337,1,0,0:0:0:50:Snare2_High.wav
320,192,22491,1,0,0:0:0:50:Snare2_High.wav
64,192,22644,1,0,0:0:0:70:Kick2_High.wav
64,192,22798,1,0,0:0:0:70:Kick2_High.wav
320,192,22952,1,0,0:0:0:70:Snare2_High.wav
64,192,23260,1,0,0:0:0:70:Kick2_High.wav
320,192,23414,1,0,0:0:0:70:Snare2_High.wav
64,192,23721,1,0,0:0:0:70:Kick2_High.wav
64,192,24029,1,0,0:0:0:70:Kick2_High.wav
320,192,24183,1,0,0:0:0:70:Snare2_High.wav
64,192,24337,1,0,0:0:0:70:Kick2_High.wav
64,192,24644,1,0,0:0:0:70:Kick2_High.wav
320,192,24798,1,0,0:0:0:70:Snare2_High.wav
64,192,25106,1,0,0:0:0:70:Kick2_High.wav
64,192,25260,1,0,0:0:0:70:Kick2_High.wav
320,192,25414,1,0,0:0:0:70:Snare2_High.wav
64,192,25567,1,0,0:0:0:70:Kick2_High.wav
320,192,25875,1,0,0:0:0:70:Snare2_High.wav
64,192,26183,1,0,0:0:0:70:Kick2_High.wav
448,192,26491,1,0,0:0:0:70:Kick2_High.wav
64,192,26567,1,0,0:0:0:70:Kick2_Low.wav
320,192,26644,1,0,0:0:0:70:Snare2_High.wav
64,192,26798,1,0,0:0:0:70:Kick2_High.wav
320,192,26952,1,0,0:0:0:70:Snare2_High.wav
448,192,27183,1,0,0:0:0:70:Kick2_High.wav
64,192,27260,1,0,0:0:0:70:Kick2_Low.wav
320,192,27414,1,0,0:0:0:70:Snare2_High.wav
64,192,27567,1,0,0:0:0:70:Kick2_High.wav
64,192,27721,1,0,0:0:0:70:Kick2_High.wav
320,192,27875,1,0,0:0:0:70:Snare2_High.wav
64,192,28183,1,0,0:0:0:70:Kick2_High.wav
320,192,28337,1,0,0:0:0:70:Snare2_High.wav
64,192,28644,1,0,0:0:0:70:Kick2_High.wav
64,192,28952,1,0,0:0:0:70:Kick2_High.wav
320,192,29106,1,0,0:0:0:70:Snare2_High.wav
64,192,29260,1,0,0:0:0:70:Kick2_High.wav
64,192,29567,1,0,0:0:0:70:Kick2_High.wav
320,192,29721,1,0,0:0:0:70:Snare2_High.wav
64,192,29875,1,0,0:0:0:70:Kick2_High.wav
448,192,30029,1,0,0:0:0:70:Cymbal.wav
64,192,30183,1,0,0:0:0:70:Kick2_High.wav
320,192,30337,1,0,0:0:0:70:Snare2_High.wav
64,192,30491,1,0,0:0:0:70:Kick2_High.wav
64,192,30721,1,0,0:0:0:70:Kick2_High.wav
320,192,30798,1,0,0:0:0:70:Snare2_High.wav
64,192,30952,1,0,0:0:0:70:Kick2_High.wav
448,192,31029,1,0,0:0:0:70:Kick2_Low.wav
64,192,31106,1,0,0:0:0:70:Kick2_High.wav
320,192,31260,1,0,0:0:0:70:Kick2_High.wav
64,192,31414,1,0,0:0:0:70:Kick2_High.wav
320,192,31567,1,0,0:0:0:70:Snare2_High.wav
64,192,31721,1,0,0:0:0:70:Kick2_High.wav
320,192,31875,1,0,0:0:0:70:Snare2_High.wav
192,192,32337,1,0,0:0:0:70:Snare2_High.wav
64,192,32491,1,0,0:0:0:70:Kick2_High.wav
64,192,32644,1,0,0:0:0:70:Kick2_High.wav
320,192,32798,1,0,0:0:0:70:Snare2_High.wav
64,192,33106,1,0,0:0:0:70:Kick2_High.wav
320,192,33260,1,0,0:0:0:70:Snare2_High.wav
64,192,33567,1,0,0:0:0:70:Kick2_High.wav
64,192,33875,1,0,0:0:0:70:Kick2_High.wav
320,192,34029,1,0,0:0:0:70:Snare2_High.wav
64,192,34183,1,0,0:0:0:70:Kick2_High.wav
64,192,34491,1,0,0:0:0:70:Kick2_High.wav
320,192,34644,1,0,0:0:0:70:Snare2_High.wav
64,192,34952,1,0,0:0:0:70:Kick2_High.wav
64,192,35106,1,0,0:0:0:70:Kick2_High.wav
320,192,35260,1,0,0:0:0:70:Snare2_High.wav
64,192,35414,1,0,0:0:0:70:Kick2_High.wav
320,192,35721,1,0,0:0:0:70:Snare2_High.wav
64,192,36029,1,0,0:0:0:70:Kick2_High.wav
448,192,36337,1,0,0:0:0:70:Kick2_High.wav
64,192,36414,1,0,0:0:0:70:Kick2_Low.wav
320,192,36491,1,0,0:0:0:70:Snare2_High.wav
64,192,36644,1,0,0:0:0:70:Kick2_High.wav
320,192,36798,1,0,0:0:0:70:Snare2_High.wav
448,192,37029,1,0,0:0:0:70:Kick2_High.wav
64,192,37106,1,0,0:0:0:70:Kick2_Low.wav
320,192,37260,1,0,0:0:0:70:Snare2_High.wav
64,192,37414,1,0,0:0:0:70:Kick2_High.wav
64,192,37567,1,0,0:0:0:70:Kick2_High.wav
320,192,37721,1,0,0:0:0:70:Snare2_High.wav
64,192,38029,1,0,0:0:0:70:Kick2_High.wav
320,192,38183,1,0,0:0:0:70:Snare2_High.wav
64,192,38491,1,0,0:0:0:70:Kick2_High.wav
64,192,38798,1,0,0:0:0:70:Kick2_High.wav
320,192,38952,1,0,0:0:0:70:Snare2_High.wav
64,192,39106,1,0,0:0:0:70:Kick2_High.wav
64,192,39414,1,0,0:0:0:70:Kick2_High.wav
320,192,39567,1,0,0:0:0:70:Snare2_High.wav
64,192,39721,1,0,0:0:0:70:Kick2_High.wav
448,192,39875,1,0,0:0:0:70:Cymbal.wav
64,192,40029,1,0,0:0:0:70:Kick2_High.wav
320,192,40183,1,0,0:0:0:70:Snare2_High.wav
64,192,40337,1,0,0:0:0:70:Kick2_High.wav
64,192,40567,1,0,0:0:0:70:Kick2_High.wav
320,192,40644,1,0,0:0:0:70:Snare2_High.wav
64,192,40798,1,0,0:0:0:70:Kick2_High.wav
448,192,40875,1,0,0:0:0:70:Kick2_Low.wav
64,192,40952,1,0,0:0:0:70:Kick2_High.wav
320,192,41106,1,0,0:0:0:70:Kick2_High.wav
64,192,41260,1,0,0:0:0:70:Kick2_High.wav
320,192,41414,1,0,0:0:0:70:Snare2_High.wav
64,192,41567,1,0,0:0:0:70:Kick2_High.wav
320,192,41721,1,0,0:0:0:70:Snare2_High.wav
192,192,42029,1,0,0:0:0:70:Snare2_High.wav
192,192,42183,1,0,0:0:0:70:Snare2_High.wav
448,192,42337,1,0,0:0:0:70:Cymbal.wav
448,192,44798,128,0,45106:0:0:0:50:C6.wav
448,192,45260,1,0,0:0:0:50:C6.wav
320,192,47260,128,0,47567:0:0:0:70:A#5.wav
320,192,47721,1,0,0:0:0:70:A#5.wav
192,192,49721,128,0,50029:0:0:0:50:A#5.wav
192,192,50183,1,0,0:0:0:50:A#5.wav
448,192,52183,128,0,52491:0:0:0:50:C6.wav
448,192,52644,1,0,0:0:0:50:C6.wav
64,192,54644,1,0,0:0:0:60:Kick2_High.wav
320,192,54952,1,0,0:0:0:60:Snare2_High.wav
64,192,55106,1,0,0:0:0:60:Kick2_High.wav
64,192,55414,1,0,0:0:0:60:Kick2_High.wav
320,192,55721,1,0,0:0:0:60:Snare2_High.wav
64,192,56029,1,0,0:0:0:60:Kick2_High.wav
320,192,56337,1,0,0:0:0:60:Snare2_High.wav
64,192,56491,1,0,0:0:0:60:Kick2_High.wav
64,192,56644,1,0,0:0:0:60:Kick2_High.wav
320,192,56798,1,0,0:0:0:60:Snare2_High.wav
64,192,57106,1,0,0:0:0:60:Kick2_High.wav
320,192,57414,1,0,0:0:0:60:Snare2_High.wav
64,192,57567,1,0,0:0:0:60:Kick2_High.wav
64,192,57875,1,0,0:0:0:60:Kick2_High.wav
320,192,58183,1,0,0:0:0:60:Snare2_High.wav
448,192,58491,1,0,0:0:0:60:Kick2_High.wav
64,192,58567,1,0,0:0:0:60:Kick2_Low.wav
320,192,58644,1,0,0:0:0:60:Snare2_High.wav
64,192,58798,1,0,0:0:0:60:Kick2_High.wav
320,192,58952,1,0,0:0:0:60:Snare2_High.wav
64,192,59106,1,0,0:0:0:60:Kick2_High.wav
64,192,59260,1,0,0:0:0:60:Kick2_High.wav
320,192,59414,1,0,0:0:0:60:Snare2_High.wav
64,192,59567,1,0,0:0:0:60:Kick2_High.wav
320,192,59875,1,0,0:0:0:60:Snare2_High.wav
64,192,60029,1,0,0:0:0:60:Kick2_High.wav
64,192,60337,1,0,0:0:0:60:Kick2_High.wav
320,192,60644,1,0,0:0:0:60:Snare2_High.wav
64,192,60952,1,0,0:0:0:60:Kick2_High.wav
64,192,61106,1,0,0:0:0:60:Kick2_High.wav
320,192,61260,1,0,0:0:0:60:Snare2_High.wav
448,192,61414,1,0,0:0:0:60:Kick2_High.wav
448,192,61567,1,0,0:0:0:60:Kick2_High.wav
320,192,61721,1,0,0:0:0:60:Snare2_High.wav
448,192,61875,1,0,0:0:0:60:Kick2_High.wav
64,192,62029,1,0,0:0:0:60:Kick2_High.wav
320,192,62183,1,0,0:0:0:60:Snare2_High.wav
64,192,62337,1,0,0:0:0:60:Kick2_High.wav
64,192,62491,1,0,0:0:0:60:Kick2_High.wav
320,192,62644,1,0,0:0:0:60:Snare2_High.wav
448,192,62798,1,0,0:0:0:60:Kick2_High.wav
448,192,62952,1,0,0:0:0:60:Kick2_High.wav
320,192,63106,1,0,0:0:0:60:Snare2_High.wav
448,192,63260,1,0,0:0:0:60:Kick2_High.wav
64,192,63337,1,0,0:0:0:60:Kick2_Low.wav
320,192,63414,1,0,0:0:0:60:Snare2_High.wav
64,192,63567,1,0,0:0:0:60:Kick2_High.wav
64,192,63721,1,0,0:0:0:60:Kick2_High.wav
320,192,63875,1,0,0:0:0:60:Snare2_High.wav
64,192,64029,1,0,0:0:0:60:Kick2_High.wav
448,192,64106,1,0,0:0:0:60:Kick2_Low.wav
192,192,64183,1,0,0:0:0:60:Snare2_High.wav
192,192,64337,1,0,0:0:0:60:Snare2_High.wav
64,192,64491,128,0,66952:0:0:0:50:G#5_s.wav
448,192,66952,128,0,69414:0:0:0:50:G#5_s.wav
64,192,69414,128,0,71875:0:0:0:50:G#5_s.wav
320,192,71875,128,0,73106:0:0:0:50:G#5_s.wav
192,192,73106,128,0,73721:0:0:0:50:G#5_s.wav
448,192,73721,128,0,74029:0:0:0:50:Cymbal_Reverse.wav
64,192,74029,1,0,0:0:0:40:Scratch.wav
192,192,74337,1,0,0:0:0:40:C#5_s.wav
448,192,74644,1,0,0:0:0:40:G#5_s.wav
192,192,74798,1,0,0:0:0:40:C#5_s.wav
448,192,75106,1,0,0:0:0:40:G#5_s.wav
320,192,75414,1,0,0:0:0:40:D#5_s.wav
320,192,75875,1,0,0:0:0:40:D#5_s.wav
320,192,76644,1,0,0:0:0:40:D#5_s.wav
64,192,76798,1,0,0:0:0:40:C5_s.wav
192,192,77260,1,0,0:0:0:40:E5_s.wav
448,192,77875,1,0,0:0:0:40:F5_s.wav
320,192,78491,1,0,0:0:0:40:D#5_s.wav
320,192,79106,1,0,0:0:0:40:D#5_s.wav
64,192,79260,1,0,0:0:0:40:A#4_s.wav
448,192,79567,1,0,0:0:0:40:C#5_s.wav
192,192,79721,1,0,0:0:0:40:C5_s.wav
320,192,80029,1,0,0:0:0:40:E5_s.wav
448,192,80337,1,0,0:0:0:40:F5_s.wav
192,192,80644,1,0,0:0:0:40:D#5_s.wav
64,192,80952,1,0,0:0:0:40:D5_s.wav
320,192,81414,1,0,0:0:0:40:F5_s.wav
192,192,81567,1,0,0:0:0:40:C#5_s.wav
64,192,81721,1,0,0:0:0:40:A#4_s.wav
192,192,81875,1,0,0:0:0:40:C#5_s.wav
448,192,82029,1,0,0:0:0:40:G#5_s.wav
64,192,82183,1,0,0:0:0:40:C5_s.wav
320,192,82491,1,0,0:0:0:40:D#5_s.wav
192,192,82952,1,0,0:0:0:40:D5_s.wav
320,192,83567,128,0,84183:0:0:0:50:E7_s.wav
448,192,84183,1,0,0:0:0:60:Cymbal.wav
64,192,84337,1,0,0:0:0:70:Kick2_High.wav
320,192,84491,1,0,0:0:0:70:Snare2_High.wav
64,192,84644,1,0,0:0:0:70:Kick2_High.wav
320,192,84952,1,0,0:0:0:70:Snare2_High.wav
64,192,85260,1,0,0:0:0:70:Kick2_High.wav
64,192,85567,1,0,0:0:0:70:Kick2_High.wav
320,192,85721,1,0,0:0:0:70:Snare2_High.wav
64,192,85875,1,0,0:0:0:70:Kick2_High.wav
64,192,86029,1,0,0:0:0:70:Kick2_High.wav
320,192,86183,1,0,0:0:0:70:Snare2_High.wav
64,192,86491,1,0,0:0:0:70:Kick2_High.wav
64,192,86798,1,0,0:0:0:70:Kick2_High.wav
320,192,86952,1,0,0:0:0:70:Snare2_High.wav
64,192,87106,1,0,0:0:0:70:Kick2_High.wav
64,192,87260,1,0,0:0:0:70:Kick2_High.wav
320,192,87414,1,0,0:0:0:70:Snare2_High.wav
448,192,87567,1,0,0:0:0:70:Kick2_High.wav
448,192,87721,1,0,0:0:0:70:Kick2_High.wav
448,192,88029,1,0,0:0:0:70:Kick2_High.wav
192,192,88183,1,0,0:0:0:70:Snare2_High.wav
64,192,88337,1,0,0:0:0:70:Kick2_High.wav
320,192,88491,1,0,0:0:0:70:Snare2_High.wav
448,192,88644,1,0,0:0:0:70:Kick2_High.wav
64,192,88721,1,0,0:0:0:70:Kick2_Low.wav
320,192,88798,1,0,0:0:0:70:Snare2_High.wav
64,192,88952,1,0,0:0:0:70:Kick2_High.wav
64,192,89260,1,0,0:0:0:70:Kick2_High.wav
320,192,89414,1,0,0:0:0:70:Snare2_High.wav
64,192,89567,1,0,0:0:0:70:Kick2_High.wav
320,192,89875,1,0,0:0:0:70:Snare2_High.wav
64,192,90183,1,0,0:0:0:70:Kick2_High.wav
64,192,90491,1,0,0:0:0:70:Kick2_High.wav
320,192,90644,1,0,0:0:0:70:Snare2_High.wav
64,192,90798,1,0,0:0:0:70:Kick2_High.wav
64,192,90952,1,0,0:0:0:70:Kick2_High.wav
320,192,91106,1,0,0:0:0:70:Snare2_High.wav
64,192,91414,1,0,0:0:0:70:Kick2_High.wav
64,192,91721,1,0,0:0:0:70:Kick2_High.wav
320,192,91875,1,0,0:0:0:70:Snare2_High.wav
448,192,92029,1,0,0:0:0:70:Kick2_High.wav
448,192,92183,1,0,0:0:0:70:Kick2_High.wav
192,192,92337,1,0,0:0:0:70:Snare2_High.wav
448,192,92491,1,0,0:0:0:70:Kick2_High.wav
192,192,92644,1,0,0:0:0:70:Snare2_High.wav
448,192,92952,1,0,0:0:0:70:Kick2_High.wav
64,192,93029,1,0,0:0:0:70:Kick2_Low.wav
320,192,93106,1,0,0:0:0:70:Snare2_High.wav
64,192,93260,1,0,0:0:0:70:Kick2_High.wav
320,192,93414,1,0,0:0:0:70:Snare2_High.wav
448,192,93567,1,0,0:0:0:70:Kick2_High.wav
64,192,93644,1,0,0:0:0:70:Kick2_Low.wav
320,192,93721,1,0,0:0:0:70:Snare2_High.wav
64,192,93875,1,0,0:0:0:70:Kick2_High.wav
448,192,94029,1,0,0:0:0:70:Kick2_High.wav
64,192,94183,1,0,0:0:0:70:Kick2_High.wav
320,192,94337,1,0,0:0:0:70:Snare2_High.wav
192,192,94491,1,0,0:0:0:70:Kick2_High.wav
320,192,94798,1,0,0:0:0:70:Snare2_High.wav
64,192,95106,1,0,0:0:0:70:Kick2_High.wav
64,192,95414,1,0,0:0:0:70:Kick2_High.wav
320,192,95567,1,0,0:0:0:70:Snare2_High.wav
64,192,95721,1,0,0:0:0:70:Kick2_High.wav
64,192,95875,1,0,0:0:0:70:Kick2_High.wav
320,192,96029,1,0,0:0:0:70:Snare2_High.wav
64,192,96337,1,0,0:0:0:70:Kick2_High.wav
64,192,96644,1,0,0:0:0:70:Kick2_High.wav
320,192,96798,1,0,0:0:0:70:Snare2_High.wav
64,192,96952,1,0,0:0:0:70:Kick2_High.wav
64,192,97106,1,0,0:0:0:70:Kick2_High.wav
320,192,97260,1,0,0:0:0:70:Snare2_High.wav
448,192,97414,1,0,0:0:0:70:Kick2_High.wav
448,192,97567,1,0,0:0:0:70:Kick2_High.wav
64,192,97721,1,0,0:0:0:70:E7.wav
64,192,97875,1,0,0:0:0:70:E7.wav
192,192,98183,1,0,0:0:0:70:G#7_s.wav
448,192,98491,1,0,0:0:0:70:B7_s.wav
320,192,98798,1,0,0:0:0:70:A7_s.wav
192,192,98952,128,0,99260:0:0:0:70:E8_s.wav
448,192,99260,1,0,0:0:0:70:Cymbal.wav
64,192,99414,1,0,0:0:0:70:Kick2_High.wav
320,192,99721,1,0,0:0:0:70:Snare2_High.wav
64,192,100029,1,0,0:0:0:70:Kick2_High.wav
448,192,100337,1,0,0:0:0:70:Kick2_High.wav
64,192,100414,1,0,0:0:0:70:Kick2_Low.wav
320,192,100491,1,0,0:0:0:70:Snare2_High.wav
64,192,100644,1,0,0:0:0:70:Kick2_High.wav
320,192,100798,1,0,0:0:0:70:Snare2_High.wav
64,192,100952,1,0,0:0:0:70:Kick2_High.wav
320,192,101106,1,0,0:0:0:70:Snare2_High.wav
64,192,101260,1,0,0:0:0:70:Kick2_High.wav
448,192,101414,1,0,0:0:0:70:Cymbal.wav
64,192,101567,1,0,0:0:0:70:Kick2_High.wav
64,192,101721,1,0,0:0:0:70:Kick2_High.wav
320,192,101875,1,0,0:0:0:70:Snare2_High.wav
448,192,102029,1,0,0:0:0:70:Kick2_High.wav
320,192,102183,1,0,0:0:0:70:Snare2_High.wav
320,192,102337,1,0,0:0:0:70:Snare2_High.wav
64,192,102491,1,0,0:0:0:70:Kick2_Low.wav
320,192,102644,1,0,0:0:0:70:Snare2_High.wav
192,192,102721,1,0,0:0:0:70:Snare2_Low.wav
320,192,102952,1,0,0:0:0:70:Snare2_High.wav
192,192,103029,1,0,0:0:0:70:Snare2_Low.wav
320,192,103260,1,0,0:0:0:70:Snare2_High.wav
320,192,103414,1,0,0:0:0:70:Snare2_High.wav
448,192,103567,1,0,0:0:0:70:Snare2_High.wav
448,192,103721,1,0,0:0:0:70:Snare2_High.wav
64,192,103875,1,0,0:0:0:70:Cymbal.wav
