osu file format v14

[General]
AudioFilename: audio.mp3
AudioLeadIn: 0
PreviewTime: 84192
Countdown: 0
SampleSet: Soft
StackLeniency: 0.7
Mode: 3
LetterboxInBreaks: 0
SpecialStyle: 0
WidescreenStoryboard: 1

[Editor]
DistanceSpacing: 0.3
BeatDivisor: 4
GridSize: 8
TimelineZoom: 2.3

[Metadata]
Title:Altros
TitleUnicode:Altros
Artist:ARForest
ArtistUnicode:ARForest
Creator:[ A v a l o n ]
Version:4K Normal
Source:MUSYNX
Tags:k-bms pabat! 2017 seasons artcore BMS MUSYNC
BeatmapID:1930441
BeatmapSetID:922352

[Difficulty]
HPDrainRate:7
CircleSize:4
OverallDifficulty:7
ApproachRate:5
SliderMultiplier:1.4
SliderTickRate:1

[Events]
//Background and Video events
0,0,"4K.jpg",0,0
//Break Periods
//Storyboard Layer 0 (Background)
//Storyboard Layer 1 (Fail)
//Storyboard Layer 2 (Pass)
//Storyboard Layer 3 (Foreground)
//Storyboard Layer 4 (Overlay)
//Storyboard Sound Samples

[TimingPoints]
500,307.692307692308,4,2,1,40,1,0
10346,-100,4,2,1,50,0,0
22653,-100,4,2,1,60,0,1
42346,-100,4,2,1,40,0,0
54653,-100,4,2,1,50,0,0
84192,-100,4,2,1,60,0,1
103884,-100,4,2,1,45,0,0

[HitObjects]
320,192,500,1,0,0:0:0:0:
192,192,653,1,0,0:0:0:0:
64,192,807,1,0,0:0:0:0:
192,192,1115,1,0,0:0:0:0:
320,192,1269,1,0,0:0:0:0:
448,192,1576,1,0,0:0:0:0:
192,192,1884,1,0,0:0:0:0:
64,192,2038,1,0,0:0:0:0:
192,192,2346,1,0,0:0:0:0:
320,192,2500,1,0,0:0:0:0:
448,192,2807,1,0,0:0:0:0:
320,192,3115,1,0,0:0:0:0:
192,192,3269,1,0,0:0:0:0:
64,192,3423,1,0,0:0:0:0:
320,192,3576,1,0,0:0:0:0:
448,192,3730,1,0,0:0:0:0:
192,192,3884,1,0,0:0:0:0:
320,192,4038,1,0,0:0:0:0:
64,192,4346,1,0,0:0:0:0:
448,192,4500,1,0,0:0:0:0:
320,192,4807,1,0,0:0:0:0:
192,192,4961,1,0,0:0:0:0:
64,192,5115,1,0,0:0:0:0:
448,192,5269,1,0,0:0:0:0:
320,192,5423,1,0,0:0:0:0:
192,192,5576,1,0,0:0:0:0:
64,192,5730,1,0,0:0:0:70:low clap.wav
192,192,6038,1,0,0:0:0:70:low clap.wav
320,192,6192,1,0,0:0:0:0:
448,192,6500,1,0,0:0:0:0:
192,192,6807,1,0,0:0:0:0:
320,192,6961,1,0,0:0:0:0:
64,192,7269,1,0,0:0:0:70:low clap.wav
448,192,7423,1,0,0:0:0:0:
320,192,7576,1,0,0:0:0:0:
192,192,7730,1,0,0:0:0:0:
64,192,7884,1,0,0:0:0:0:
320,192,8038,1,0,0:0:0:0:
192,192,8192,1,0,0:0:0:70:low clap.wav
448,192,8346,1,0,0:0:0:0:
320,192,8653,1,0,0:0:0:0:
192,192,8807,1,0,0:0:0:0:
64,192,8961,1,0,0:0:0:70:low clap.wav
448,192,9269,1,0,0:0:0:70:low clap.wav
320,192,9423,1,0,0:0:0:0:
64,192,9730,1,0,0:0:0:70:low clap.wav
192,192,9884,1,0,0:0:0:0:
320,192,10038,1,0,0:0:0:0:
448,192,10192,1,0,0:0:0:70:low clap.wav
64,192,10346,1,2,0:0:0:0:
192,192,10346,1,0,0:0:0:0:
320,192,10653,1,0,0:0:0:0:
448,192,10807,1,0,0:0:0:0:
64,192,11115,1,0,0:0:0:0:
320,192,11269,1,0,0:0:0:0:
192,192,11423,1,0,0:0:0:0:
64,192,11730,1,0,0:0:0:0:
320,192,11884,1,2,0:0:0:0:
448,192,12192,1,0,0:0:0:70:low clap.wav
448,192,12500,1,0,0:0:0:0:
64,192,12807,1,2,0:0:0:0:
192,192,13115,1,0,0:0:0:0:
448,192,13269,1,0,0:0:0:0:
64,192,13576,1,0,0:0:0:0:
320,192,13730,1,0,0:0:0:0:
192,192,14192,1,0,0:0:0:0:
64,192,14346,1,2,0:0:0:0:
448,192,14653,1,0,0:0:0:70:low clap.wav
320,192,14961,1,0,0:0:0:0:
192,192,15269,1,2,0:0:0:0:
64,192,15576,1,0,0:0:0:0:
320,192,15730,1,0,0:0:0:0:
192,192,16038,1,0,0:0:0:0:
448,192,16192,1,0,0:0:0:0:
320,192,16346,1,0,0:0:0:0:
64,192,16653,1,0,0:0:0:0:
192,192,16807,1,2,0:0:0:0:
448,192,17115,1,0,0:0:0:70:low clap.wav
448,192,17423,1,0,0:0:0:0:
64,192,17730,1,2,0:0:0:0:
320,192,18038,1,0,0:0:0:0:
448,192,18192,1,0,0:0:0:0:
320,192,18500,1,0,0:0:0:0:
64,192,18653,1,0,0:0:0:0:
192,192,18807,1,0,0:0:0:0:
448,192,19115,1,0,0:0:0:0:
320,192,19269,1,2,0:0:0:0:
448,192,19576,1,0,0:0:0:70:low clap.wav
448,192,19884,1,2,0:0:0:0:
64,192,20038,1,0,0:0:0:0:
192,192,20192,1,4,0:0:0:0:
320,192,20192,1,2,0:0:0:0:
320,192,21423,1,0,0:0:0:0:
64,192,21576,1,0,0:0:0:0:
192,192,21730,1,0,0:0:0:0:
320,192,21884,1,0,0:0:0:0:
448,192,22038,1,0,0:0:0:0:
64,192,22346,128,8,22653:0:0:0:0:
320,192,22653,1,4,0:0:0:0:
448,192,22653,1,2,0:0:0:0:
192,192,22807,1,2,0:0:0:0:
64,192,22961,1,8,0:0:0:0:
320,192,22961,1,0,0:0:0:0:
448,192,23115,1,0,0:0:0:0:
192,192,23269,1,2,0:0:0:0:
320,192,23423,1,8,0:0:0:0:
448,192,23423,1,0,0:0:0:0:
64,192,23576,1,0,0:0:0:0:
64,192,23730,1,2,0:0:0:0:
320,192,23884,1,0,0:0:0:0:
192,192,24038,1,2,0:0:0:0:
448,192,24346,1,2,0:0:0:0:
320,192,24500,1,0,0:0:0:0:
192,192,24730,1,0,0:0:0:0:
320,192,24807,1,8,0:0:0:0:
448,192,24807,1,0,0:0:0:0:
64,192,24961,1,0,0:0:0:0:
448,192,25115,1,2,0:0:0:0:
320,192,25269,1,2,0:0:0:0:
64,192,25423,1,8,0:0:0:0:
192,192,25423,1,0,0:0:0:0:
320,192,25576,1,2,0:0:0:0:
64,192,25730,1,0,0:0:0:0:
320,192,25884,1,8,0:0:0:0:
448,192,25884,1,0,0:0:0:0:
64,192,26038,1,0,0:0:0:0:
320,192,26192,1,2,0:0:0:0:
64,192,26346,1,0,0:0:0:0:
448,192,26500,1,2,0:0:0:0:
320,192,26576,1,2,0:0:0:0:
64,192,26653,1,8,0:0:0:0:
192,192,26653,1,0,0:0:0:0:
320,192,26807,1,2,0:0:0:0:
192,192,26884,1,0,0:0:0:0:
64,192,26961,128,8,27192:0:0:0:0:
448,192,26961,1,0,0:0:0:0:
192,192,27192,1,2,0:0:0:0:
320,192,27269,1,2,0:0:0:0:
448,192,27423,1,8,0:0:0:0:
64,192,27576,1,2,0:0:0:0:
192,192,27576,1,0,0:0:0:0:
320,192,27730,1,2,0:0:0:0:
64,192,27884,1,8,0:0:0:0:
448,192,27884,1,0,0:0:0:0:
192,192,28038,1,0,0:0:0:0:
320,192,28192,1,2,0:0:0:0:
64,192,28346,1,8,0:0:0:0:
192,192,28346,1,0,0:0:0:0:
448,192,28500,1,0,0:0:0:0:
448,192,28653,1,2,0:0:0:0:
64,192,28807,1,0,0:0:0:0:
192,192,28961,1,2,0:0:0:0:
320,192,29115,1,8,0:0:0:0:
448,192,29115,1,0,0:0:0:0:
64,192,29269,1,2,0:0:0:0:
448,192,29423,1,0,0:0:0:0:
64,192,29576,1,2,0:0:0:0:
192,192,29653,1,0,0:0:0:0:
320,192,29730,1,8,0:0:0:0:
448,192,29884,1,2,0:0:0:0:
192,192,30038,1,0,0:0:0:0:
320,192,30192,1,2,0:0:0:0:
64,192,30346,1,8,0:0:0:0:
448,192,30346,1,0,0:0:0:0:
192,192,30500,1,2,0:0:0:0:
320,192,30653,1,0,0:0:0:0:
64,192,30807,1,8,0:0:0:0:
192,192,30884,1,0,0:0:0:0:
448,192,30961,1,2,0:0:0:0:
320,192,31115,1,2,0:0:0:0:
64,192,31269,1,8,0:0:0:0:
192,192,31269,1,0,0:0:0:0:
320,192,31423,1,2,0:0:0:0:
64,192,31576,1,8,0:0:0:0:
448,192,31576,1,0,0:0:0:0:
192,192,31730,1,2,0:0:0:0:
64,192,31884,1,8,0:0:0:0:
448,192,31884,1,0,0:0:0:0:
320,192,32038,1,2,0:0:0:0:
192,192,32192,1,2,0:0:0:0:
64,192,32346,1,8,0:0:0:0:
320,192,32500,1,4,0:0:0:0:
448,192,32500,1,2,0:0:0:0:
192,192,32653,1,2,0:0:0:0:
64,192,32807,1,8,0:0:0:0:
320,192,32807,1,0,0:0:0:0:
448,192,32961,1,0,0:0:0:0:
192,192,33115,1,2,0:0:0:0:
320,192,33269,1,8,0:0:0:0:
448,192,33269,1,0,0:0:0:0:
64,192,33423,1,0,0:0:0:0:
64,192,33576,1,2,0:0:0:0:
320,192,33730,1,0,0:0:0:0:
192,192,33884,1,2,0:0:0:0:
448,192,34192,1,2,0:0:0:0:
320,192,34346,1,0,0:0:0:0:
192,192,34576,1,0,0:0:0:0:
320,192,34653,1,8,0:0:0:0:
448,192,34653,1,0,0:0:0:0:
64,192,34807,1,0,0:0:0:0:
448,192,34961,1,2,0:0:0:0:
448,192,35115,1,2,0:0:0:0:
64,192,35269,1,8,0:0:0:0:
192,192,35269,1,0,0:0:0:0:
320,192,35423,1,2,0:0:0:0:
64,192,35576,1,0,0:0:0:0:
320,192,35730,1,8,0:0:0:0:
448,192,35730,1,0,0:0:0:0:
64,192,35884,1,0,0:0:0:0:
320,192,36038,1,2,0:0:0:0:
64,192,36192,1,0,0:0:0:0:
448,192,36346,1,2,0:0:0:0:
320,192,36423,1,2,0:0:0:0:
64,192,36500,1,8,0:0:0:0:
192,192,36500,1,0,0:0:0:0:
320,192,36653,1,2,0:0:0:0:
192,192,36730,1,0,0:0:0:0:
64,192,36807,128,8,37038:0:0:0:0:
448,192,36807,1,0,0:0:0:0:
192,192,37038,1,2,0:0:0:0:
320,192,37115,1,2,0:0:0:0:
448,192,37269,1,8,0:0:0:0:
64,192,37423,1,4,0:0:0:0:
192,192,37423,1,2,0:0:0:0:
320,192,37576,1,2,0:0:0:0:
192,192,37730,1,8,0:0:0:0:
448,192,37730,1,0,0:0:0:0:
64,192,37884,1,0,0:0:0:0:
320,192,38038,1,2,0:0:0:0:
64,192,38192,1,8,0:0:0:0:
192,192,38192,1,0,0:0:0:0:
448,192,38346,1,0,0:0:0:0:
448,192,38500,1,2,0:0:0:0:
64,192,38653,1,0,0:0:0:0:
192,192,38807,1,2,0:0:0:0:
320,192,38961,1,8,0:0:0:0:
448,192,38961,1,0,0:0:0:0:
64,192,39115,1,2,0:0:0:0:
192,192,39269,1,0,0:0:0:0:
448,192,39423,1,2,0:0:0:0:
320,192,39500,1,2,0:0:0:0:
192,192,39576,1,8,0:0:0:0:
448,192,39730,1,2,0:0:0:0:
64,192,39884,1,4,0:0:0:0:
320,192,40038,1,2,0:0:0:0:
64,192,40192,1,8,0:0:0:0:
448,192,40192,1,0,0:0:0:0:
192,192,40346,1,2,0:0:0:0:
320,192,40500,1,0,0:0:0:0:
64,192,40653,1,8,0:0:0:0:
192,192,40730,1,0,0:0:0:0:
320,192,40807,1,2,0:0:0:0:
448,192,40961,1,2,0:0:0:0:
64,192,41115,1,8,0:0:0:0:
192,192,41115,1,0,0:0:0:0:
320,192,41269,1,2,0:0:0:0:
64,192,41423,1,8,0:0:0:0:
448,192,41423,1,0,0:0:0:0:
192,192,41576,1,2,0:0:0:0:
320,192,41730,1,8,0:0:0:0:
448,192,41730,1,0,0:0:0:0:
64,192,41884,1,2,0:0:0:0:
192,192,42038,1,8,0:0:0:0:
320,192,42192,1,8,0:0:0:0:
64,192,42346,1,4,0:0:0:0:
448,192,42346,128,2,44807:0:0:0:0:
64,192,44807,128,2,45115:0:0:0:0:
64,192,45269,1,2,0:0:0:0:
320,192,45576,1,0,0:0:0:0:
192,192,45730,1,0,0:0:0:0:
448,192,45884,1,0,0:0:0:0:
64,192,46192,1,0,0:0:0:0:
320,192,46346,1,0,0:0:0:0:
192,192,46653,1,0,0:0:0:0:
448,192,46961,1,0,0:0:0:0:
64,192,47269,128,2,47423:0:0:0:0:
448,192,47423,1,0,0:0:0:0:
320,192,47500,1,0,0:0:0:0:
192,192,47576,1,0,0:0:0:0:
448,192,47730,128,2,47884:0:0:0:0:
320,192,48038,1,0,0:0:0:0:
192,192,48192,1,0,0:0:0:0:
448,192,48346,1,0,0:0:0:0:
64,192,48653,1,0,0:0:0:0:
320,192,48807,1,0,0:0:0:0:
448,192,49115,1,0,0:0:0:0:
64,192,49269,1,0,0:0:0:0:
448,192,49423,1,0,0:0:0:0:
64,192,49576,1,0,0:0:0:0:
320,192,49730,128,2,50038:0:0:0:0:
192,192,50192,1,2,0:0:0:0:
448,192,50500,1,0,0:0:0:0:
64,192,50653,1,0,0:0:0:0:
320,192,50807,1,0,0:0:0:0:
192,192,51115,1,0,0:0:0:0:
448,192,51269,1,0,0:0:0:0:
64,192,51576,1,0,0:0:0:0:
448,192,51730,1,0,0:0:0:0:
64,192,51884,1,0,0:0:0:0:
448,192,52038,1,0,0:0:0:0:
192,192,52192,128,2,52500:0:0:0:0:
448,192,52653,1,2,0:0:0:0:
192,192,52961,1,0,0:0:0:0:
320,192,53115,1,0,0:0:0:0:
64,192,53269,1,0,0:0:0:0:
448,192,53576,1,0,0:0:0:0:
64,192,53730,1,0,0:0:0:0:
192,192,53884,1,0,0:0:0:0:
320,192,54038,1,0,0:0:0:0:
448,192,54192,128,0,54346:0:0:0:0:
320,192,54346,128,0,54500:0:0:0:0:
192,192,54500,128,0,54653:0:0:0:0:
64,192,54653,128,4,54807:0:0:0:0:
448,192,54653,1,2,0:0:0:0:
448,192,54961,1,8,0:0:0:0:
64,192,55115,128,2,55269:0:0:0:0:
320,192,55423,1,2,0:0:0:0:
448,192,55576,1,0,0:0:0:0:
192,192,55730,1,8,0:0:0:0:
320,192,56038,1,2,0:0:0:0:
448,192,56192,1,0,0:0:0:0:
192,192,56346,1,8,0:0:0:0:
320,192,56500,1,2,0:0:0:0:
320,192,56653,1,2,0:0:0:0:
64,192,56807,1,8,0:0:0:0:
192,192,56961,1,0,0:0:0:0:
448,192,57115,128,2,57269:0:0:0:0:
64,192,57423,1,8,0:0:0:0:
448,192,57576,128,2,57730:0:0:0:0:
192,192,57884,1,2,0:0:0:0:
320,192,58038,1,0,0:0:0:0:
448,192,58192,1,8,0:0:0:0:
320,192,58500,1,2,0:0:0:0:
192,192,58576,1,2,0:0:0:0:
64,192,58653,1,8,0:0:0:0:
320,192,58807,1,2,0:0:0:0:
192,192,58961,1,8,0:0:0:0:
448,192,59115,1,2,0:0:0:0:
320,192,59269,1,2,0:0:0:0:
192,192,59423,1,8,0:0:0:0:
64,192,59576,128,2,59730:0:0:0:0:
448,192,59884,1,8,0:0:0:0:
64,192,60038,128,2,60192:0:0:0:0:
320,192,60346,1,2,0:0:0:0:
192,192,60500,1,0,0:0:0:0:
448,192,60653,1,8,0:0:0:0:
320,192,60961,1,2,0:0:0:0:
192,192,61115,1,2,0:0:0:0:
448,192,61269,1,8,0:0:0:0:
320,192,61423,1,2,0:0:0:0:
64,192,61576,1,2,0:0:0:0:
192,192,61730,1,8,0:0:0:0:
320,192,61884,1,2,0:0:0:0:
448,192,62038,128,2,62192:0:0:0:0:
64,192,62192,1,8,0:0:0:0:
192,192,62346,1,2,0:0:0:0:
448,192,62500,128,2,62653:0:0:0:0:
64,192,62653,1,8,0:0:0:0:
320,192,62807,1,2,0:0:0:0:
192,192,62961,1,2,0:0:0:0:
64,192,63115,1,8,0:0:0:0:
448,192,63269,1,2,0:0:0:0:
192,192,63423,1,8,0:0:0:0:
320,192,63576,1,2,0:0:0:0:
448,192,63730,1,2,0:0:0:0:
64,192,63884,1,8,0:0:0:0:
320,192,64038,1,2,0:0:0:0:
192,192,64192,1,8,0:0:0:0:
448,192,64346,1,8,0:0:0:0:
64,192,64500,128,2,66961:0:0:0:0:
192,192,64807,1,0,0:0:0:0:
320,192,64961,1,0,0:0:0:0:
192,192,65269,1,0,0:0:0:0:
448,192,65423,1,0,0:0:0:0:
320,192,65730,1,0,0:0:0:0:
192,192,66038,1,0,0:0:0:0:
320,192,66192,1,0,0:0:0:0:
192,192,66500,1,0,0:0:0:0:
448,192,66653,1,0,0:0:0:0:
448,192,66807,1,0,0:0:0:0:
320,192,66961,128,0,69423:0:0:0:0:
192,192,67423,1,0,0:0:0:0:
64,192,67730,1,0,0:0:0:0:
448,192,67884,1,0,0:0:0:0:
192,192,68192,1,0,0:0:0:0:
64,192,68500,1,0,0:0:0:0:
192,192,68653,1,0,0:0:0:0:
64,192,68961,1,0,0:0:0:0:
448,192,69115,1,0,0:0:0:0:
448,192,69269,1,0,0:0:0:0:
192,192,69423,128,0,71884:0:0:0:0:
64,192,69730,1,0,0:0:0:0:
320,192,69884,1,0,0:0:0:0:
64,192,70192,1,0,0:0:0:0:
448,192,70346,1,0,0:0:0:0:
320,192,70653,1,0,0:0:0:0:
64,192,70961,1,0,0:0:0:0:
320,192,71115,1,0,0:0:0:0:
64,192,71423,1,0,0:0:0:0:
448,192,71576,1,0,0:0:0:0:
320,192,71730,1,0,0:0:0:0:
448,192,71884,128,0,73115:0:0:0:0:
64,192,72192,1,0,0:0:0:0:
192,192,72346,1,0,0:0:0:0:
64,192,72653,1,0,0:0:0:0:
320,192,72807,1,0,0:0:0:0:
64,192,73115,128,0,73730:0:0:0:0:
192,192,73423,1,0,0:0:0:0:
448,192,73576,1,0,0:0:0:0:
320,192,73730,128,0,74038:0:0:0:0:
192,192,74038,128,0,74192:0:0:0:0:
448,192,74346,1,0,0:0:0:0:
320,192,74500,1,0,0:0:0:0:
192,192,74653,1,0,0:0:0:0:
64,192,74807,1,0,0:0:0:0:
192,192,75115,1,0,0:0:0:0:
320,192,75423,1,0,0:0:0:0:
192,192,75730,1,0,0:0:0:0:
448,192,75884,1,0,0:0:0:0:
320,192,76038,1,0,0:0:0:0:
192,192,76346,1,0,0:0:0:0:
64,192,76500,1,0,0:0:0:0:
448,192,76653,1,0,0:0:0:0:
320,192,76807,1,0,0:0:0:0:
64,192,76961,1,0,0:0:0:0:
192,192,77115,1,0,0:0:0:0:
320,192,77269,1,0,0:0:0:0:
448,192,77576,1,0,0:0:0:0:
320,192,77884,1,0,0:0:0:0:
192,192,78192,1,0,0:0:0:0:
448,192,78346,1,0,0:0:0:0:
64,192,78500,1,0,0:0:0:0:
320,192,78807,1,0,0:0:0:0:
448,192,78961,1,0,0:0:0:0:
192,192,79115,1,0,0:0:0:0:
320,192,79269,1,0,0:0:0:0:
64,192,79423,1,0,0:0:0:0:
320,192,79576,1,0,0:0:0:0:
192,192,79730,1,0,0:0:0:0:
448,192,80038,1,0,0:0:0:0:
320,192,80346,1,0,0:0:0:0:
192,192,80653,1,0,0:0:0:0:
64,192,80961,1,0,0:0:0:0:
320,192,81269,1,0,0:0:0:0:
448,192,81423,1,0,0:0:0:0:
320,192,81576,1,0,0:0:0:0:
64,192,81730,1,0,0:0:0:0:
192,192,81884,1,0,0:0:0:0:
320,192,82038,1,0,0:0:0:0:
448,192,82192,1,0,0:0:0:0:
192,192,82500,1,0,0:0:0:0:
320,192,82653,1,0,0:0:0:0:
448,192,82807,1,0,0:0:0:0:
64,192,82961,1,0,0:0:0:0:
320,192,83115,1,0,0:0:0:0:
448,192,83269,1,0,0:0:0:0:
192,192,83423,1,0,0:0:0:0:
448,192,83576,128,0,83730:0:0:0:0:
320,192,83730,128,0,83884:0:0:0:0:
192,192,83884,128,0,84038:0:0:0:0:
64,192,84038,128,0,84192:0:0:0:0:
320,192,84192,1,4,0:0:0:0:
448,192,84192,1,2,0:0:0:0:
192,192,84346,1,2,0:0:0:0:
448,192,84653,1,2,0:0:0:0:
64,192,84961,1,8,0:0:0:0:
192,192,84961,1,0,0:0:0:0:
320,192,85115,1,0,0:0:0:0:
64,192,85269,1,2,0:0:0:0:
192,192,85346,1,0,0:0:0:0:
448,192,85423,1,0,0:0:0:0:
320,192,85576,1,2,0:0:0:0:
64,192,85730,1,8,0:0:0:0:
192,192,85730,1,0,0:0:0:0:
448,192,85884,1,2,0:0:0:0:
448,192,86038,1,2,0:0:0:0:
64,192,86192,1,8,0:0:0:0:
192,192,86192,1,0,0:0:0:0:
320,192,86346,1,0,0:0:0:0:
448,192,86500,1,2,0:0:0:0:
64,192,86653,1,0,0:0:0:0:
192,192,86807,1,2,0:0:0:0:
448,192,87115,1,2,0:0:0:0:
320,192,87269,1,2,0:0:0:0:
192,192,87576,1,2,0:0:0:0:
320,192,87730,1,2,0:0:0:0:
448,192,87884,1,0,0:0:0:0:
64,192,88038,1,2,0:0:0:0:
192,192,88115,1,0,0:0:0:0:
320,192,88192,1,8,0:0:0:0:
448,192,88192,1,0,0:0:0:0:
64,192,88500,128,8,88653:0:0:0:0:
448,192,88500,1,0,0:0:0:0:
320,192,88653,128,2,88807:0:0:0:0:
64,192,88807,1,8,0:0:0:0:
192,192,88807,128,0,88961:0:0:0:0:
448,192,88961,128,2,89115:0:0:0:0:
64,192,89115,1,0,0:0:0:0:
192,192,89269,1,2,0:0:0:0:
320,192,89576,1,2,0:0:0:0:
64,192,89884,1,8,0:0:0:0:
448,192,89884,1,0,0:0:0:0:
192,192,90038,1,0,0:0:0:0:
320,192,90192,1,2,0:0:0:0:
448,192,90346,1,0,0:0:0:0:
192,192,90500,1,2,0:0:0:0:
64,192,90653,1,8,0:0:0:0:
448,192,90653,1,0,0:0:0:0:
320,192,90807,1,2,0:0:0:0:
192,192,90961,1,2,0:0:0:0:
64,192,91115,1,8,0:0:0:0:
320,192,91115,1,0,0:0:0:0:
448,192,91269,1,0,0:0:0:0:
192,192,91423,1,2,0:0:0:0:
320,192,91576,1,0,0:0:0:0:
64,192,91730,1,2,0:0:0:0:
192,192,91884,1,8,0:0:0:0:
448,192,91884,1,0,0:0:0:0:
320,192,92038,1,2,0:0:0:0:
192,192,92192,1,2,0:0:0:0:
64,192,92346,1,8,0:0:0:0:
320,192,92346,1,0,0:0:0:0:
448,192,92500,1,2,0:0:0:0:
192,192,92653,1,8,0:0:0:0:
448,192,92730,1,0,0:0:0:0:
64,192,92807,1,0,0:0:0:0:
320,192,92961,128,2,93115:0:0:0:0:
64,192,93115,1,8,0:0:0:0:
448,192,93115,128,0,93269:0:0:0:0:
192,192,93269,128,2,93423:0:0:0:0:
64,192,93423,128,8,93576:0:0:0:0:
448,192,93423,1,0,0:0:0:0:
320,192,93576,128,2,93730:0:0:0:0:
64,192,93730,1,8,0:0:0:0:
192,192,93730,128,0,93884:0:0:0:0:
448,192,93884,128,2,94038:0:0:0:0:
64,192,94038,1,4,0:0:0:0:
320,192,94038,1,2,0:0:0:0:
192,192,94192,1,2,0:0:0:0:
64,192,94346,1,8,0:0:0:0:
448,192,94346,1,0,0:0:0:0:
320,192,94500,1,2,0:0:0:0:
64,192,94807,1,8,0:0:0:0:
192,192,94807,1,0,0:0:0:0:
448,192,94961,1,0,0:0:0:0:
320,192,95115,1,2,0:0:0:0:
192,192,95192,1,0,0:0:0:0:
64,192,95269,1,0,0:0:0:0:
320,192,95423,1,2,0:0:0:0:
64,192,95576,1,8,0:0:0:0:
448,192,95576,1,0,0:0:0:0:
192,192,95730,1,2,0:0:0:0:
320,192,95884,1,2,0:0:0:0:
64,192,96038,1,8,0:0:0:0:
448,192,96038,128,0,96192:0:0:0:0:
192,192,96192,128,0,96346:0:0:0:0:
320,192,96346,128,2,96500:0:0:0:0:
64,192,96500,128,0,96653:0:0:0:0:
448,192,96653,128,2,96807:0:0:0:0:
192,192,96807,1,8,0:0:0:0:
320,192,96807,128,0,96961:0:0:0:0:
64,192,96961,128,2,97115:0:0:0:0:
192,192,97115,128,2,97269:0:0:0:0:
64,192,97269,1,8,0:0:0:0:
448,192,97269,128,0,97423:0:0:0:0:
320,192,97423,128,2,97576:0:0:0:0:
192,192,97576,128,2,97730:0:0:0:0:
64,192,97730,1,4,0:0:0:0:
448,192,97730,1,2,0:0:0:0:
192,192,97884,1,4,0:0:0:0:
320,192,97884,1,2,0:0:0:0:
64,192,98192,1,4,0:0:0:0:
448,192,98192,1,2,0:0:0:0:
192,192,98500,1,4,0:0:0:0:
448,192,98500,1,2,0:0:0:0:
64,192,98807,1,4,0:0:0:0:
320,192,98807,1,2,0:0:0:0:
448,192,98961,128,2,99269:0:0:0:0:
64,192,99269,1,8,0:0:0:0:
192,192,99269,1,4,0:0:0:0:
320,192,99423,1,2,0:0:0:0:
192,192,99576,1,0,0:0:0:0:
64,192,99730,1,8,0:0:0:0:
448,192,99730,1,0,0:0:0:0:
320,192,99884,1,0,0:0:0:0:
192,192,100038,1,2,0:0:0:0:
448,192,100346,1,2,0:0:0:0:
320,192,100423,1,2,0:0:0:0:
64,192,100500,1,8,0:0:0:0:
192,192,100500,1,0,0:0:0:0:
448,192,100653,1,2,0:0:0:0:
64,192,100807,1,8,0:0:0:0:
192,192,100807,1,0,0:0:0:0:
320,192,100961,1,2,0:0:0:0:
64,192,101115,1,8,0:0:0:0:
448,192,101115,1,0,0:0:0:0:
192,192,101269,1,2,0:0:0:0:
64,192,101423,1,8,0:0:0:0:
448,192,101423,1,4,0:0:0:0:
320,192,101576,1,2,0:0:0:0:
192,192,101730,1,2,0:0:0:0:
64,192,101884,1,8,0:0:0:0:
320,192,101884,1,0,0:0:0:0:
192,192,102038,1,2,0:0:0:0:
448,192,102192,128,10,102346:0:0:0:0:
192,192,102346,128,10,102500:0:0:0:0:
320,192,102500,128,2,102653:0:0:0:0:
64,192,102653,128,8,102807:0:0:0:0:
192,192,102653,1,4,0:0:0:0:
448,192,102807,128,2,102961:0:0:0:0:
192,192,102961,1,8,0:0:0:0:
320,192,102961,128,2,103115:0:0:0:0:
64,192,103115,128,2,103269:0:0:0:0:
320,192,103269,1,8,0:0:0:0:
448,192,103269,128,0,103423:0:0:0:0:
192,192,103423,128,8,103576:0:0:0:0:
320,192,103576,1,2,0:0:0:0:
64,192,103730,128,2,103884:0:0:0:0:
320,192,103884,1,4,0:0:0:0:
448,192,103884,128,2,105115:0:0:0:0:
192,192,104038,1,0,0:0:0:0:
64,192,104192,1,0,0:0:0:0:
192,192,104500,1,0,0:0:0:70:low clap.wav
320,192,104653,1,0,0:0:0:0:
64,192,104961,1,0,0:0:0:0:
320,192,105115,128,0,106346:0:0:0:0:
64,192,105269,1,0,0:0:0:0:
448,192,105423,1,0,0:0:0:0:
192,192,105730,1,0,0:0:0:70:low clap.wav
448,192,105884,1,0,0:0:0:0:
64,192,106192,1,0,0:0:0:0:
192,192,106346,128,0,107576:0:0:0:0:
448,192,106500,1,0,0:0:0:0:
320,192,106653,1,0,0:0:0:0:
64,192,106961,1,0,0:0:0:70:low clap.wav
320,192,107115,1,0,0:0:0:0:
448,192,107423,1,0,0:0:0:70:low clap.wav
64,192,107576,128,0,108807:0:0:0:0:
448,192,107730,1,0,0:0:0:70:low clap.wav
320,192,107884,1,0,0:0:0:0:
192,192,108192,1,0,0:0:0:70:low clap.wav
320,192,108346,1,0,0:0:0:0:
448,192,108500,1,0,0:0:0:0:
192,192,108653,1,0,0:0:0:0:
320,192,108807,128,0,110038:0:0:0:0:
64,192,108961,1,0,0:0:0:0:
192,192,109115,1,0,0:0:0:0:
64,192,109423,1,0,0:0:0:70:low clap.wav
448,192,109576,1,0,0:0:0:0:
64,192,109884,1,0,0:0:0:0:
192,192,110038,128,0,111269:0:0:0:0:
448,192,110192,1,0,0:0:0:0:
320,192,110346,1,0,0:0:0:0:
64,192,110653,1,0,0:0:0:70:low clap.wav
448,192,110807,1,0,0:0:0:0:
320,192,111115,1,0,0:0:0:0:
448,192,111269,128,0,112500:0:0:0:0:
64,192,111423,1,0,0:0:0:0:
192,192,111576,1,0,0:0:0:0:
64,192,111884,1,0,0:0:0:70:low clap.wav
192,192,112038,1,0,0:0:0:0:
320,192,112192,1,0,0:0:0:0:
192,192,112346,1,0,0:0:0:60:low clap.wav
64,192,112500,128,0,113730:0:0:0:60:low clap.wav
320,192,112653,1,0,0:0:0:0:
448,192,112807,1,0,0:0:0:0:
320,192,113115,128,0,113269:0:0:0:70:low clap.wav
192,192,113269,128,0,113423:0:0:0:70:low clap.wav
448,192,113423,128,0,113576:0:0:0:70:low clap.wav
320,192,113576,128,0,113730:0:0:0:70:low clap.wav
