osu file format v14

[General]
AudioFilename: audio.mp3
AudioLeadIn: 0
PreviewTime: 84192
Countdown: 0
SampleSet: Soft
StackLeniency: 0.7
Mode: 3
LetterboxInBreaks: 0
SpecialStyle: 0
WidescreenStoryboard: 1

[Editor]
DistanceSpacing: 0.3
BeatDivisor: 4
GridSize: 8
TimelineZoom: 2.5

[Metadata]
Title:Altros
TitleUnicode:Altros
Artist:ARForest
ArtistUnicode:ARForest
Creator:[ A v a l o n ]
Version:4K Another
Source:MUSYNX
Tags:k-bms pabat! 2017 seasons artcore BMS MUSYNC
BeatmapID:1926200
BeatmapSetID:922352

[Difficulty]
HPDrainRate:8.5
CircleSize:4
OverallDifficulty:8
ApproachRate:5
SliderMultiplier:1.4
SliderTickRate:1

[Events]
//Background and Video events
0,0,"4K.jpg",0,0
//Break Periods
//Storyboard Layer 0 (Background)
//Storyboard Layer 1 (Fail)
//Storyboard Layer 2 (Pass)
//Storyboard Layer 3 (Foreground)
//Storyboard Layer 4 (Overlay)
//Storyboard Sound Samples

[TimingPoints]
500,307.692307692308,4,2,1,40,1,0
500,-117.647058823529,4,2,1,40,0,0
5423,-111.111111111111,4,2,1,45,0,0
10346,-100,4,2,1,50,0,0
20192,-111.111111111111,4,2,1,50,0,0
22346,-100,4,2,1,50,0,0
22653,-100,4,2,1,60,0,1
42346,-111.111111111111,4,2,1,40,0,0
54653,-100,4,2,1,50,0,0
64500,-125,4,2,1,50,0,0
74346,-111.111111111111,4,2,1,50,0,0
84192,-100,4,2,1,60,0,1
97730,-62.5,4,2,1,60,0,1
97807,-250.000000000001,4,2,1,60,0,1
97884,-62.5,4,2,1,60,0,1
98038,-250,4,2,1,60,0,1
98192,-62.5,4,2,1,60,0,1
98346,-250.000000000001,4,2,1,60,0,1
98500,-62.5,4,2,1,60,0,1
98653,-250.000000000001,4,2,1,60,0,1
98807,-62.5,4,2,1,60,0,1
98884,-250,4,2,1,60,0,1
98961,-100,4,2,1,60,0,1
103884,-117.647058823529,4,2,1,45,0,0

[HitObjects]
320,192,500,128,0,961:0:0:0:0:
192,192,653,128,0,961:0:0:0:0:
64,192,807,128,0,961:0:0:0:0:
192,192,1115,128,0,1423:0:0:0:0:
320,192,1269,128,0,1423:0:0:0:0:
64,192,1576,128,0,1730:0:0:0:0:
448,192,1576,128,0,1730:0:0:0:0:
320,192,1884,128,0,2192:0:0:0:0:
64,192,2038,128,0,2192:0:0:0:0:
192,192,2346,128,0,2653:0:0:0:0:
320,192,2500,128,0,2653:0:0:0:0:
64,192,2807,128,0,2961:0:0:0:0:
448,192,2807,128,0,2961:0:0:0:0:
192,192,3115,128,0,3269:0:0:0:0:
320,192,3269,128,0,3576:0:0:0:0:
64,192,3423,128,0,3730:0:0:0:0:
448,192,3423,128,0,3576:0:0:0:0:
192,192,3576,128,0,3730:0:0:0:0:
448,192,3730,128,0,4192:0:0:0:0:
320,192,3884,128,0,4192:0:0:0:0:
192,192,4038,128,0,4192:0:0:0:0:
64,192,4346,128,0,4653:0:0:0:0:
192,192,4500,128,0,4653:0:0:0:0:
320,192,4807,128,0,5115:0:0:0:0:
448,192,4961,128,0,5115:0:0:0:0:
192,192,5115,128,0,5423:0:0:0:0:
64,192,5269,128,0,5423:0:0:0:0:
320,192,5423,128,0,5576:0:0:0:0:
448,192,5423,1,0,0:0:0:0:
192,192,5576,128,0,5730:0:0:0:0:
64,192,5730,128,0,5884:0:0:0:70:low clap.wav
448,192,5730,1,0,0:0:0:0:
320,192,5884,1,0,0:0:0:0:
192,192,6038,1,0,0:0:0:70:low clap.wav
448,192,6038,128,0,6192:0:0:0:0:
320,192,6192,128,0,6346:0:0:0:0:
64,192,6346,1,0,0:0:0:0:
448,192,6346,1,0,0:0:0:0:
192,192,6500,128,0,6653:0:0:0:0:
320,192,6500,1,0,0:0:0:0:
448,192,6653,1,0,0:0:0:0:
64,192,6807,128,0,6961:0:0:0:0:
192,192,6961,128,0,7115:0:0:0:0:
320,192,6961,1,0,0:0:0:0:
448,192,7115,1,0,0:0:0:0:
64,192,7269,1,0,0:0:0:70:low clap.wav
320,192,7269,128,0,7423:0:0:0:0:
448,192,7423,128,0,7576:0:0:0:0:
64,192,7576,1,0,0:0:0:0:
192,192,7576,128,0,7730:0:0:0:0:
320,192,7730,128,0,7884:0:0:0:0:
64,192,7884,1,0,0:0:0:0:
448,192,7884,1,0,0:0:0:0:
192,192,8038,128,0,8192:0:0:0:0:
64,192,8192,128,0,8346:0:0:0:70:low clap.wav
448,192,8192,1,0,0:0:0:0:
320,192,8346,128,0,8500:0:0:0:0:
64,192,8500,1,0,0:0:0:70:low clap.wav
192,192,8500,1,0,0:0:0:0:
448,192,8653,128,0,8807:0:0:0:0:
192,192,8807,1,0,0:0:0:0:
320,192,8807,128,0,8961:0:0:0:0:
64,192,8961,128,0,9115:0:0:0:70:low clap.wav
448,192,8961,1,0,0:0:0:0:
320,192,9115,1,0,0:0:0:0:
64,192,9269,1,0,0:0:0:70:low clap.wav
192,192,9269,1,0,0:0:0:0:
320,192,9423,1,0,0:0:0:0:
448,192,9423,128,0,9576:0:0:0:0:
192,192,9576,1,0,0:0:0:0:
64,192,9653,1,0,0:0:0:0:
192,192,9730,128,0,9884:0:0:0:70:low clap.wav
320,192,9730,1,0,0:0:0:0:
64,192,9884,128,0,10038:0:0:0:0:
448,192,9884,1,0,0:0:0:0:
320,192,9961,1,0,0:0:0:0:
192,192,10038,1,0,0:0:0:0:
448,192,10038,128,0,10192:0:0:0:0:
64,192,10192,1,0,0:0:0:70:low clap.wav
320,192,10192,128,0,10346:0:0:0:0:
192,192,10269,1,0,0:0:0:70:low clap.wav
64,192,10346,128,2,11576:0:0:0:0:
448,192,10346,1,0,0:0:0:0:
192,192,10500,1,0,0:0:0:0:
320,192,10653,1,0,0:0:0:0:
192,192,10807,1,0,0:0:0:0:
320,192,10961,1,0,0:0:0:70:low clap.wav
448,192,10961,1,0,0:0:0:0:
192,192,11115,1,0,0:0:0:0:
448,192,11269,1,0,0:0:0:0:
320,192,11423,1,0,0:0:0:0:
192,192,11576,128,0,12807:0:0:0:0:
448,192,11730,1,0,0:0:0:0:
64,192,11884,1,2,0:0:0:0:
320,192,11884,1,0,0:0:0:0:
64,192,12192,1,0,0:0:0:70:low clap.wav
448,192,12192,1,0,0:0:0:0:
448,192,12500,1,0,0:0:0:0:
64,192,12807,1,2,0:0:0:0:
320,192,12807,128,0,14038:0:0:0:0:
192,192,13115,1,0,0:0:0:0:
448,192,13269,1,0,0:0:0:0:
64,192,13423,1,0,0:0:0:70:low clap.wav
192,192,13423,1,0,0:0:0:0:
448,192,13576,1,0,0:0:0:0:
64,192,13730,1,0,0:0:0:0:
448,192,14038,128,0,15269:0:0:0:0:
64,192,14192,1,0,0:0:0:0:
192,192,14346,1,2,0:0:0:0:
320,192,14346,1,0,0:0:0:0:
64,192,14653,1,0,0:0:0:70:low clap.wav
192,192,14653,1,0,0:0:0:0:
320,192,14961,1,0,0:0:0:0:
192,192,15269,1,2,0:0:0:0:
320,192,15269,128,0,16500:0:0:0:0:
64,192,15576,1,0,0:0:0:0:
192,192,15730,1,0,0:0:0:0:
64,192,15884,1,0,0:0:0:70:low clap.wav
448,192,15884,1,0,0:0:0:0:
192,192,16038,1,0,0:0:0:0:
448,192,16192,1,0,0:0:0:0:
64,192,16346,1,0,0:0:0:0:
192,192,16500,128,0,17730:0:0:0:0:
448,192,16653,1,0,0:0:0:0:
64,192,16807,1,2,0:0:0:0:
320,192,16807,1,0,0:0:0:0:
64,192,17115,1,0,0:0:0:70:low clap.wav
448,192,17115,1,0,0:0:0:0:
448,192,17423,1,0,0:0:0:0:
64,192,17730,128,2,18961:0:0:0:0:
320,192,17730,1,0,0:0:0:0:
448,192,18038,1,0,0:0:0:0:
320,192,18192,1,0,0:0:0:0:
192,192,18346,1,0,0:0:0:70:low clap.wav
448,192,18346,1,0,0:0:0:0:
320,192,18500,1,0,0:0:0:0:
192,192,18653,1,0,0:0:0:0:
320,192,18807,1,0,0:0:0:0:
448,192,18961,128,0,20192:0:0:0:0:
64,192,19115,1,0,0:0:0:0:
192,192,19269,1,2,0:0:0:0:
320,192,19269,1,0,0:0:0:0:
64,192,19576,1,0,0:0:0:70:low clap.wav
192,192,19576,1,0,0:0:0:0:
64,192,19884,1,2,0:0:0:0:
320,192,19884,1,0,0:0:0:0:
192,192,20038,1,0,0:0:0:0:
64,192,20192,1,4,0:0:0:0:
320,192,20192,1,2,0:0:0:0:
448,192,21423,128,0,21576:0:0:0:0:
192,192,21576,1,0,0:0:0:0:
64,192,21653,1,0,0:0:0:0:
320,192,21730,1,0,0:0:0:0:
192,192,21807,1,0,0:0:0:0:
320,192,21884,1,0,0:0:0:0:
192,192,21961,1,0,0:0:0:0:
448,192,22038,1,0,0:0:0:0:
64,192,22346,1,8,0:0:0:0:
192,192,22346,1,0,0:0:0:0:
64,192,22423,1,8,0:0:0:0:
192,192,22423,1,0,0:0:0:0:
320,192,22500,1,8,0:0:0:0:
448,192,22500,1,0,0:0:0:0:
320,192,22576,1,8,0:0:0:0:
448,192,22576,1,0,0:0:0:0:
64,192,22653,1,4,0:0:0:0:
192,192,22653,128,2,22807:0:0:0:0:
320,192,22807,128,2,22961:0:0:0:0:
448,192,22807,1,0,0:0:0:0:
64,192,22961,128,8,23115:0:0:0:0:
192,192,22961,1,0,0:0:0:0:
448,192,23115,128,0,23269:0:0:0:0:
64,192,23269,1,2,0:0:0:0:
320,192,23269,128,0,23423:0:0:0:0:
192,192,23423,128,8,23576:0:0:0:0:
448,192,23423,1,0,0:0:0:0:
320,192,23576,1,0,0:0:0:0:
320,192,23730,1,2,0:0:0:0:
64,192,23730,1,0,0:0:0:0:
192,192,23884,128,0,24038:0:0:0:0:
320,192,24038,128,2,24192:0:0:0:0:
448,192,24038,1,0,0:0:0:0:
64,192,24192,1,8,0:0:0:0:
192,192,24192,1,0,0:0:0:0:
448,192,24346,1,2,0:0:0:0:
64,192,24346,128,0,24500:0:0:0:0:
192,192,24500,128,0,24653:0:0:0:0:
320,192,24653,1,2,0:0:0:0:
448,192,24653,1,0,0:0:0:0:
64,192,24730,1,0,0:0:0:0:
192,192,24807,1,8,0:0:0:0:
448,192,24807,1,0,0:0:0:0:
64,192,24961,1,0,0:0:0:0:
320,192,24961,1,0,0:0:0:0:
192,192,25115,1,2,0:0:0:0:
448,192,25115,128,0,25269:0:0:0:0:
192,192,25269,1,2,0:0:0:0:
320,192,25269,128,0,25423:0:0:0:0:
64,192,25423,1,8,0:0:0:0:
448,192,25423,1,0,0:0:0:0:
192,192,25576,128,2,25730:0:0:0:0:
320,192,25576,1,0,0:0:0:0:
64,192,25730,128,0,25884:0:0:0:0:
192,192,25884,128,8,26038:0:0:0:0:
448,192,25884,1,0,0:0:0:0:
64,192,26038,128,0,26192:0:0:0:0:
192,192,26192,128,2,26346:0:0:0:0:
320,192,26192,1,0,0:0:0:0:
64,192,26346,128,0,26500:0:0:0:0:
320,192,26500,1,2,0:0:0:0:
448,192,26500,1,0,0:0:0:0:
320,192,26576,1,2,0:0:0:0:
448,192,26576,1,0,0:0:0:0:
64,192,26653,1,8,0:0:0:0:
192,192,26653,1,0,0:0:0:0:
320,192,26730,1,0,0:0:0:0:
64,192,26807,1,2,0:0:0:0:
448,192,26807,1,0,0:0:0:0:
192,192,26884,1,0,0:0:0:0:
320,192,26961,1,8,0:0:0:0:
448,192,26961,128,0,27192:0:0:0:0:
64,192,27192,1,2,0:0:0:0:
192,192,27192,1,0,0:0:0:0:
320,192,27269,1,2,0:0:0:0:
448,192,27269,1,0,0:0:0:0:
192,192,27423,1,8,0:0:0:0:
320,192,27423,1,0,0:0:0:0:
64,192,27576,1,2,0:0:0:0:
192,192,27576,128,0,27730:0:0:0:0:
320,192,27730,128,2,27884:0:0:0:0:
448,192,27730,1,0,0:0:0:0:
64,192,27884,128,8,28038:0:0:0:0:
192,192,27884,1,0,0:0:0:0:
448,192,28038,128,0,28192:0:0:0:0:
64,192,28192,1,2,0:0:0:0:
320,192,28192,128,0,28346:0:0:0:0:
192,192,28346,128,8,28500:0:0:0:0:
448,192,28346,1,0,0:0:0:0:
320,192,28500,1,0,0:0:0:0:
320,192,28653,1,2,0:0:0:0:
64,192,28653,1,0,0:0:0:0:
192,192,28807,128,0,28961:0:0:0:0:
64,192,28961,1,2,0:0:0:0:
320,192,28961,128,0,29115:0:0:0:0:
192,192,29115,1,8,0:0:0:0:
448,192,29115,128,0,29269:0:0:0:0:
64,192,29269,128,2,29423:0:0:0:0:
320,192,29269,1,0,0:0:0:0:
192,192,29423,128,0,29576:0:0:0:0:
320,192,29576,1,2,0:0:0:0:
448,192,29576,1,0,0:0:0:0:
64,192,29653,1,0,0:0:0:0:
192,192,29730,1,8,0:0:0:0:
448,192,29730,1,0,0:0:0:0:
320,192,29807,1,0,0:0:0:0:
64,192,29884,1,2,0:0:0:0:
448,192,29884,1,0,0:0:0:0:
192,192,29961,1,0,0:0:0:0:
320,192,30038,1,0,0:0:0:0:
192,192,30192,1,2,0:0:0:0:
448,192,30192,1,0,0:0:0:0:
320,192,30346,1,8,0:0:0:0:
64,192,30346,1,0,0:0:0:0:
320,192,30500,128,2,30653:0:0:0:0:
448,192,30500,1,0,0:0:0:0:
64,192,30653,128,0,30730:0:0:0:0:
320,192,30730,1,2,0:0:0:0:
448,192,30730,1,0,0:0:0:0:
64,192,30807,1,8,0:0:0:0:
192,192,30807,128,0,30884:0:0:0:0:
448,192,30884,128,0,30961:0:0:0:0:
64,192,30961,1,2,0:0:0:0:
192,192,30961,1,0,0:0:0:0:
320,192,31038,1,2,0:0:0:0:
448,192,31038,1,0,0:0:0:0:
64,192,31115,128,2,31192:0:0:0:0:
192,192,31115,1,0,0:0:0:0:
192,192,31269,1,8,0:0:0:0:
320,192,31269,1,0,0:0:0:0:
448,192,31269,1,0,0:0:0:0:
64,192,31423,1,2,0:0:0:0:
448,192,31423,1,0,0:0:0:0:
320,192,31500,1,0,0:0:0:0:
64,192,31576,1,8,0:0:0:0:
192,192,31576,1,0,0:0:0:0:
448,192,31653,1,0,0:0:0:0:
192,192,31730,1,2,0:0:0:0:
320,192,31730,1,0,0:0:0:0:
64,192,31807,1,2,0:0:0:0:
448,192,31807,1,0,0:0:0:0:
192,192,31884,1,8,0:0:0:0:
320,192,31884,1,0,0:0:0:0:
64,192,31961,1,0,0:0:0:0:
320,192,32038,128,2,32115:0:0:0:0:
448,192,32038,1,0,0:0:0:0:
64,192,32115,1,2,0:0:0:0:
192,192,32115,128,0,32192:0:0:0:0:
320,192,32192,128,2,32269:0:0:0:0:
448,192,32192,1,0,0:0:0:0:
64,192,32269,1,2,0:0:0:0:
192,192,32269,128,0,32346:0:0:0:0:
320,192,32346,1,8,0:0:0:0:
448,192,32346,128,0,32423:0:0:0:0:
64,192,32423,128,8,32500:0:0:0:0:
192,192,32423,1,0,0:0:0:0:
320,192,32500,128,4,32653:0:0:0:0:
448,192,32500,1,2,0:0:0:0:
64,192,32653,1,2,0:0:0:0:
192,192,32653,128,0,32807:0:0:0:0:
320,192,32807,1,8,0:0:0:0:
448,192,32807,128,0,32961:0:0:0:0:
64,192,32961,128,0,33115:0:0:0:0:
192,192,33115,1,2,0:0:0:0:
320,192,33115,128,0,33269:0:0:0:0:
64,192,33269,1,8,0:0:0:0:
448,192,33269,128,0,33423:0:0:0:0:
192,192,33423,128,0,33576:0:0:0:0:
64,192,33576,128,2,33730:0:0:0:0:
320,192,33576,1,0,0:0:0:0:
448,192,33730,128,0,33884:0:0:0:0:
192,192,33884,1,2,0:0:0:0:
320,192,33884,128,0,34038:0:0:0:0:
64,192,34038,1,8,0:0:0:0:
448,192,34038,1,0,0:0:0:0:
192,192,34192,128,2,34346:0:0:0:0:
320,192,34192,1,0,0:0:0:0:
64,192,34346,128,0,34500:0:0:0:0:
320,192,34500,1,2,0:0:0:0:
448,192,34500,1,0,0:0:0:0:
192,192,34576,1,0,0:0:0:0:
64,192,34653,1,8,0:0:0:0:
448,192,34653,1,0,0:0:0:0:
192,192,34807,1,0,0:0:0:0:
320,192,34807,1,0,0:0:0:0:
64,192,34961,1,2,0:0:0:0:
448,192,34961,128,0,35115:0:0:0:0:
64,192,35115,1,2,0:0:0:0:
320,192,35115,128,0,35269:0:0:0:0:
192,192,35269,1,8,0:0:0:0:
448,192,35269,1,0,0:0:0:0:
192,192,35423,128,2,35576:0:0:0:0:
320,192,35423,1,0,0:0:0:0:
64,192,35576,128,0,35730:0:0:0:0:
192,192,35730,128,8,35884:0:0:0:0:
448,192,35730,1,0,0:0:0:0:
64,192,35884,128,0,36038:0:0:0:0:
192,192,36038,128,2,36192:0:0:0:0:
320,192,36038,1,0,0:0:0:0:
64,192,36192,128,0,36346:0:0:0:0:
320,192,36346,1,2,0:0:0:0:
448,192,36346,1,0,0:0:0:0:
320,192,36423,1,2,0:0:0:0:
448,192,36423,1,0,0:0:0:0:
64,192,36500,1,8,0:0:0:0:
192,192,36500,1,0,0:0:0:0:
448,192,36576,1,0,0:0:0:0:
64,192,36653,1,2,0:0:0:0:
320,192,36653,1,0,0:0:0:0:
192,192,36730,1,0,0:0:0:0:
320,192,36807,1,8,0:0:0:0:
448,192,36807,128,0,37038:0:0:0:0:
64,192,37038,1,2,0:0:0:0:
192,192,37038,1,0,0:0:0:0:
320,192,37115,1,2,0:0:0:0:
448,192,37115,1,0,0:0:0:0:
192,192,37269,1,8,0:0:0:0:
320,192,37269,1,0,0:0:0:0:
64,192,37423,1,4,0:0:0:0:
192,192,37423,128,2,37576:0:0:0:0:
448,192,37423,1,0,0:0:0:0:
320,192,37576,128,2,37730:0:0:0:0:
448,192,37576,1,0,0:0:0:0:
64,192,37730,128,8,37884:0:0:0:0:
192,192,37730,1,0,0:0:0:0:
448,192,37884,128,0,38038:0:0:0:0:
192,192,38038,128,2,38192:0:0:0:0:
320,192,38038,1,0,0:0:0:0:
64,192,38192,128,8,38346:0:0:0:0:
448,192,38192,1,0,0:0:0:0:
320,192,38346,128,0,38500:0:0:0:0:
192,192,38500,1,2,0:0:0:0:
448,192,38500,128,0,38653:0:0:0:0:
64,192,38653,128,0,38807:0:0:0:0:
192,192,38807,128,2,38961:0:0:0:0:
320,192,38807,1,0,0:0:0:0:
64,192,38961,1,8,0:0:0:0:
448,192,38961,128,0,39115:0:0:0:0:
192,192,39115,1,2,0:0:0:0:
320,192,39115,128,0,39269:0:0:0:0:
64,192,39269,128,0,39423:0:0:0:0:
320,192,39423,1,2,0:0:0:0:
448,192,39423,1,0,0:0:0:0:
320,192,39500,1,2,0:0:0:0:
448,192,39500,1,0,0:0:0:0:
64,192,39576,1,8,0:0:0:0:
192,192,39576,1,0,0:0:0:0:
320,192,39653,1,0,0:0:0:0:
64,192,39730,1,2,0:0:0:0:
448,192,39730,1,0,0:0:0:0:
192,192,39807,1,0,0:0:0:0:
320,192,39884,1,4,0:0:0:0:
448,192,39884,1,0,0:0:0:0:
192,192,40038,1,2,0:0:0:0:
320,192,40038,1,0,0:0:0:0:
64,192,40192,1,8,0:0:0:0:
448,192,40192,1,0,0:0:0:0:
192,192,40346,1,2,0:0:0:0:
320,192,40346,128,0,40500:0:0:0:0:
64,192,40500,128,0,40576:0:0:0:0:
320,192,40576,1,2,0:0:0:0:
448,192,40576,1,0,0:0:0:0:
64,192,40653,1,8,0:0:0:0:
192,192,40653,128,0,40730:0:0:0:0:
448,192,40730,128,0,40807:0:0:0:0:
64,192,40807,1,2,0:0:0:0:
192,192,40807,1,0,0:0:0:0:
320,192,40884,1,2,0:0:0:0:
448,192,40884,1,0,0:0:0:0:
64,192,40961,128,2,41038:0:0:0:0:
192,192,40961,1,0,0:0:0:0:
192,192,41115,1,8,0:0:0:0:
320,192,41115,1,0,0:0:0:0:
448,192,41115,1,0,0:0:0:0:
64,192,41269,1,2,0:0:0:0:
448,192,41269,1,0,0:0:0:0:
320,192,41346,1,0,0:0:0:0:
64,192,41423,1,8,0:0:0:0:
192,192,41423,1,0,0:0:0:0:
448,192,41500,1,0,0:0:0:0:
192,192,41576,1,2,0:0:0:0:
320,192,41576,1,0,0:0:0:0:
64,192,41653,1,2,0:0:0:0:
448,192,41653,1,0,0:0:0:0:
192,192,41730,1,8,0:0:0:0:
320,192,41730,1,0,0:0:0:0:
64,192,41807,1,0,0:0:0:0:
320,192,41884,128,2,41961:0:0:0:0:
448,192,41884,1,0,0:0:0:0:
64,192,41961,1,2,0:0:0:0:
192,192,41961,128,0,42038:0:0:0:0:
320,192,42038,128,8,42115:0:0:0:0:
448,192,42038,1,0,0:0:0:0:
64,192,42115,1,2,0:0:0:0:
192,192,42115,128,0,42192:0:0:0:0:
320,192,42192,1,8,0:0:0:0:
448,192,42192,128,0,42269:0:0:0:0:
64,192,42269,128,8,42346:0:0:0:0:
192,192,42269,1,0,0:0:0:0:
320,192,42346,1,4,0:0:0:0:
448,192,42346,128,2,44807:0:0:0:0:
64,192,44807,128,2,45115:0:0:0:0:
192,192,44807,128,0,45115:0:0:0:0:
64,192,45269,1,2,0:0:0:0:
192,192,45269,1,0,0:0:0:0:
320,192,45576,1,0,0:0:0:0:
192,192,45730,1,0,0:0:0:0:
64,192,45884,1,0,0:0:0:0:
320,192,46192,1,0,0:0:0:0:
448,192,46346,1,0,0:0:0:0:
64,192,46653,1,0,0:0:0:0:
320,192,46653,1,0,0:0:0:0:
192,192,46961,1,0,0:0:0:0:
448,192,46961,1,0,0:0:0:0:
320,192,47269,128,2,47423:0:0:0:0:
448,192,47269,128,0,47423:0:0:0:0:
64,192,47423,1,0,0:0:0:0:
192,192,47500,1,0,0:0:0:0:
320,192,47576,1,0,0:0:0:0:
64,192,47730,128,2,47884:0:0:0:0:
192,192,47730,128,0,47884:0:0:0:0:
448,192,48038,1,0,0:0:0:0:
320,192,48192,1,0,0:0:0:0:
192,192,48346,1,0,0:0:0:0:
64,192,48653,1,0,0:0:0:0:
320,192,48807,1,0,0:0:0:0:
192,192,49115,1,0,0:0:0:0:
448,192,49115,1,0,0:0:0:0:
64,192,49269,1,0,0:0:0:0:
320,192,49269,1,0,0:0:0:0:
192,192,49423,1,0,0:0:0:0:
448,192,49423,1,0,0:0:0:0:
64,192,49576,1,0,0:0:0:0:
320,192,49576,1,0,0:0:0:0:
320,192,49730,128,2,50038:0:0:0:0:
448,192,49730,128,0,50038:0:0:0:0:
64,192,50192,128,2,50346:0:0:0:0:
448,192,50192,128,0,50346:0:0:0:0:
192,192,50500,1,0,0:0:0:0:
320,192,50653,1,0,0:0:0:0:
448,192,50807,1,0,0:0:0:0:
192,192,51115,1,0,0:0:0:0:
64,192,51269,1,0,0:0:0:0:
64,192,51576,1,0,0:0:0:0:
320,192,51576,1,0,0:0:0:0:
192,192,51730,1,0,0:0:0:0:
448,192,51730,1,0,0:0:0:0:
64,192,51884,1,0,0:0:0:0:
320,192,51884,1,0,0:0:0:0:
192,192,52038,1,0,0:0:0:0:
448,192,52038,1,0,0:0:0:0:
64,192,52192,128,2,52500:0:0:0:0:
192,192,52192,128,0,52500:0:0:0:0:
320,192,52653,128,2,52807:0:0:0:0:
448,192,52653,128,0,52807:0:0:0:0:
192,192,52961,1,0,0:0:0:0:
320,192,53115,1,0,0:0:0:0:
448,192,53269,1,0,0:0:0:0:
192,192,53576,1,0,0:0:0:0:
64,192,53730,1,0,0:0:0:0:
320,192,53730,1,0,0:0:0:0:
192,192,53884,1,0,0:0:0:0:
448,192,53884,1,0,0:0:0:0:
320,192,54038,1,0,0:0:0:0:
64,192,54192,128,0,54576:0:0:0:0:
192,192,54346,128,0,54576:0:0:0:0:
320,192,54500,128,0,54576:0:0:0:0:
64,192,54653,1,4,0:0:0:0:
320,192,54653,128,2,54807:0:0:0:0:
448,192,54653,128,0,54807:0:0:0:0:
64,192,54961,1,8,0:0:0:0:
192,192,54961,1,0,0:0:0:0:
320,192,55115,128,2,55269:0:0:0:0:
448,192,55115,128,0,55269:0:0:0:0:
192,192,55423,128,2,55576:0:0:0:0:
448,192,55423,1,0,0:0:0:0:
320,192,55576,128,0,55730:0:0:0:0:
64,192,55730,1,8,0:0:0:0:
448,192,55730,128,0,55884:0:0:0:0:
64,192,56038,1,2,0:0:0:0:
192,192,56038,128,0,56192:0:0:0:0:
320,192,56192,128,0,56346:0:0:0:0:
64,192,56346,128,8,56500:0:0:0:0:
448,192,56346,1,0,0:0:0:0:
192,192,56500,1,2,0:0:0:0:
320,192,56500,128,0,56653:0:0:0:0:
192,192,56653,128,2,56807:0:0:0:0:
448,192,56653,1,0,0:0:0:0:
64,192,56807,128,8,56961:0:0:0:0:
320,192,56807,1,0,0:0:0:0:
448,192,56961,128,0,57115:0:0:0:0:
64,192,57115,128,2,57269:0:0:0:0:
192,192,57115,128,0,57269:0:0:0:0:
320,192,57423,1,8,0:0:0:0:
448,192,57423,1,0,0:0:0:0:
64,192,57576,128,2,57730:0:0:0:0:
192,192,57576,128,0,57730:0:0:0:0:
64,192,57884,1,2,0:0:0:0:
448,192,57884,128,0,58038:0:0:0:0:
320,192,58038,128,0,58192:0:0:0:0:
192,192,58192,128,8,58346:0:0:0:0:
448,192,58192,1,0,0:0:0:0:
320,192,58500,1,2,0:0:0:0:
448,192,58500,1,0,0:0:0:0:
320,192,58576,1,2,0:0:0:0:
448,192,58576,1,0,0:0:0:0:
64,192,58653,128,8,58807:0:0:0:0:
192,192,58653,1,0,0:0:0:0:
320,192,58807,1,2,0:0:0:0:
448,192,58807,128,0,58961:0:0:0:0:
64,192,58961,128,8,59115:0:0:0:0:
192,192,58961,1,0,0:0:0:0:
320,192,59115,1,2,0:0:0:0:
448,192,59115,128,0,59269:0:0:0:0:
192,192,59269,1,2,0:0:0:0:
320,192,59269,128,0,59423:0:0:0:0:
64,192,59423,1,8,0:0:0:0:
192,192,59423,128,0,59576:0:0:0:0:
320,192,59576,128,2,59730:0:0:0:0:
448,192,59576,128,0,59730:0:0:0:0:
64,192,59884,1,8,0:0:0:0:
192,192,59884,1,0,0:0:0:0:
320,192,60038,128,2,60192:0:0:0:0:
448,192,60038,128,0,60192:0:0:0:0:
192,192,60346,128,2,60500:0:0:0:0:
448,192,60346,1,0,0:0:0:0:
320,192,60500,128,0,60653:0:0:0:0:
64,192,60653,1,8,0:0:0:0:
448,192,60653,128,0,60807:0:0:0:0:
64,192,60961,128,2,61115:0:0:0:0:
320,192,60961,1,0,0:0:0:0:
192,192,61115,128,2,61269:0:0:0:0:
320,192,61115,1,0,0:0:0:0:
64,192,61269,1,8,0:0:0:0:
448,192,61269,128,0,61423:0:0:0:0:
192,192,61423,128,2,61576:0:0:0:0:
320,192,61423,1,0,0:0:0:0:
64,192,61576,1,2,0:0:0:0:
320,192,61576,128,0,61730:0:0:0:0:
64,192,61730,128,8,61884:0:0:0:0:
448,192,61730,1,0,0:0:0:0:
192,192,61884,1,2,0:0:0:0:
448,192,61884,128,0,62038:0:0:0:0:
64,192,62038,128,2,62192:0:0:0:0:
192,192,62038,128,0,62192:0:0:0:0:
320,192,62192,1,8,0:0:0:0:
448,192,62192,1,0,0:0:0:0:
64,192,62346,1,2,0:0:0:0:
320,192,62346,1,0,0:0:0:0:
64,192,62500,128,2,62653:0:0:0:0:
192,192,62500,128,0,62653:0:0:0:0:
320,192,62653,1,8,0:0:0:0:
448,192,62653,1,0,0:0:0:0:
64,192,62807,1,2,0:0:0:0:
448,192,62807,128,0,62961:0:0:0:0:
64,192,62961,1,2,0:0:0:0:
320,192,62961,128,0,63115:0:0:0:0:
192,192,63115,1,8,0:0:0:0:
448,192,63115,128,0,63269:0:0:0:0:
64,192,63269,1,2,0:0:0:0:
320,192,63269,128,0,63423:0:0:0:0:
192,192,63346,1,2,0:0:0:0:
64,192,63423,128,8,63576:0:0:0:0:
448,192,63423,1,0,0:0:0:0:
192,192,63576,128,2,63730:0:0:0:0:
320,192,63576,1,0,0:0:0:0:
64,192,63730,1,2,0:0:0:0:
320,192,63730,128,0,63884:0:0:0:0:
192,192,63884,1,8,0:0:0:0:
448,192,63884,128,0,64038:0:0:0:0:
64,192,64038,1,2,0:0:0:0:
192,192,64038,1,0,0:0:0:0:
320,192,64115,1,2,0:0:0:0:
448,192,64115,1,0,0:0:0:0:
64,192,64192,1,8,0:0:0:0:
192,192,64192,1,0,0:0:0:0:
320,192,64269,1,8,0:0:0:0:
448,192,64269,1,0,0:0:0:0:
64,192,64346,1,8,0:0:0:0:
192,192,64346,1,0,0:0:0:0:
320,192,64423,1,8,0:0:0:0:
448,192,64423,1,0,0:0:0:0:
64,192,64500,128,2,66961:0:0:0:0:
192,192,64500,1,0,0:0:0:0:
192,192,64807,1,0,0:0:0:0:
320,192,64961,1,0,0:0:0:0:
320,192,65269,1,0,0:0:0:0:
448,192,65423,1,0,0:0:0:0:
192,192,65730,1,0,0:0:0:0:
320,192,66038,1,0,0:0:0:0:
448,192,66192,1,0,0:0:0:0:
192,192,66500,1,0,0:0:0:0:
448,192,66653,1,0,0:0:0:0:
320,192,66807,1,0,0:0:0:0:
192,192,66961,1,0,0:0:0:0:
448,192,66961,128,0,69423:0:0:0:0:
64,192,67269,1,0,0:0:0:0:
192,192,67423,1,0,0:0:0:0:
192,192,67730,1,0,0:0:0:0:
320,192,67884,1,0,0:0:0:0:
64,192,68192,1,0,0:0:0:0:
192,192,68500,1,0,0:0:0:0:
320,192,68653,1,0,0:0:0:0:
64,192,68961,1,0,0:0:0:0:
320,192,69115,1,0,0:0:0:0:
192,192,69269,1,0,0:0:0:0:
64,192,69423,1,0,0:0:0:0:
320,192,69423,128,0,71884:0:0:0:0:
192,192,69730,1,0,0:0:0:0:
448,192,69884,1,0,0:0:0:0:
64,192,70192,1,0,0:0:0:0:
448,192,70346,1,0,0:0:0:0:
192,192,70653,1,0,0:0:0:0:
64,192,70961,1,0,0:0:0:0:
448,192,71115,1,0,0:0:0:0:
192,192,71423,1,0,0:0:0:0:
448,192,71576,1,0,0:0:0:0:
64,192,71730,1,0,0:0:0:0:
192,192,71884,128,0,73115:0:0:0:0:
448,192,71884,1,0,0:0:0:0:
64,192,72192,1,0,0:0:0:0:
320,192,72346,1,0,0:0:0:0:
64,192,72653,1,0,0:0:0:0:
448,192,72807,1,0,0:0:0:0:
64,192,73115,128,0,73730:0:0:0:0:
320,192,73115,1,0,0:0:0:0:
320,192,73423,1,0,0:0:0:0:
192,192,73576,1,0,0:0:0:0:
448,192,73730,1,0,0:0:0:0:
320,192,73782,1,0,0:0:0:0:
192,192,73833,1,0,0:0:0:0:
64,192,73884,1,0,0:0:0:0:
448,192,73935,1,0,0:0:0:0:
320,192,73987,1,0,0:0:0:0:
64,192,74038,128,0,74192:0:0:0:0:
192,192,74038,128,0,74192:0:0:0:0:
320,192,74346,1,0,0:0:0:0:
448,192,74346,1,0,0:0:0:0:
64,192,74500,1,0,0:0:0:0:
192,192,74653,1,0,0:0:0:0:
448,192,74653,1,0,0:0:0:0:
64,192,74807,1,0,0:0:0:0:
320,192,74807,1,0,0:0:0:0:
64,192,75115,1,0,0:0:0:0:
192,192,75115,1,0,0:0:0:0:
320,192,75423,1,0,0:0:0:0:
448,192,75423,1,0,0:0:0:0:
64,192,75730,1,0,0:0:0:0:
320,192,75730,1,0,0:0:0:0:
192,192,75884,1,0,0:0:0:0:
448,192,75884,1,0,0:0:0:0:
64,192,76038,1,0,0:0:0:0:
320,192,76038,1,0,0:0:0:0:
320,192,76346,1,0,0:0:0:0:
448,192,76346,1,0,0:0:0:0:
64,192,76500,1,0,0:0:0:0:
192,192,76653,1,0,0:0:0:0:
448,192,76653,1,0,0:0:0:0:
64,192,76807,1,0,0:0:0:0:
320,192,76807,1,0,0:0:0:0:
192,192,76961,1,0,0:0:0:0:
320,192,77115,1,0,0:0:0:0:
448,192,77115,1,0,0:0:0:0:
64,192,77269,1,0,0:0:0:0:
192,192,77269,1,0,0:0:0:0:
192,192,77576,1,0,0:0:0:0:
320,192,77576,1,0,0:0:0:0:
64,192,77730,1,0,0:0:0:0:
320,192,77884,1,0,0:0:0:0:
448,192,77884,1,0,0:0:0:0:
64,192,78192,1,0,0:0:0:0:
448,192,78192,1,0,0:0:0:0:
192,192,78346,1,0,0:0:0:0:
320,192,78346,1,0,0:0:0:0:
64,192,78500,1,0,0:0:0:0:
448,192,78500,1,0,0:0:0:0:
192,192,78807,1,0,0:0:0:0:
320,192,78807,1,0,0:0:0:0:
448,192,78961,1,0,0:0:0:0:
64,192,79115,1,0,0:0:0:0:
192,192,79115,1,0,0:0:0:0:
320,192,79269,1,0,0:0:0:0:
448,192,79269,1,0,0:0:0:0:
64,192,79423,1,0,0:0:0:0:
192,192,79576,1,0,0:0:0:0:
448,192,79576,1,0,0:0:0:0:
64,192,79730,1,0,0:0:0:0:
320,192,79730,1,0,0:0:0:0:
192,192,80038,1,0,0:0:0:0:
448,192,80038,1,0,0:0:0:0:
64,192,80346,1,0,0:0:0:0:
448,192,80346,1,0,0:0:0:0:
192,192,80653,1,0,0:0:0:0:
320,192,80653,1,0,0:0:0:0:
64,192,80961,1,0,0:0:0:0:
192,192,80961,1,0,0:0:0:0:
320,192,81269,1,0,0:0:0:0:
448,192,81269,1,0,0:0:0:0:
64,192,81423,1,0,0:0:0:0:
192,192,81423,1,0,0:0:0:0:
320,192,81576,1,0,0:0:0:0:
64,192,81730,1,0,0:0:0:0:
448,192,81730,1,0,0:0:0:0:
192,192,81884,1,0,0:0:0:0:
320,192,82038,1,0,0:0:0:0:
448,192,82038,1,0,0:0:0:0:
64,192,82192,1,0,0:0:0:0:
192,192,82192,1,0,0:0:0:0:
64,192,82500,1,0,0:0:0:0:
320,192,82500,1,0,0:0:0:0:
448,192,82653,1,0,0:0:0:0:
192,192,82807,1,0,0:0:0:0:
320,192,82961,1,0,0:0:0:0:
448,192,82961,1,0,0:0:0:0:
192,192,83115,1,0,0:0:0:0:
448,192,83115,1,0,0:0:0:0:
64,192,83269,1,0,0:0:0:0:
320,192,83269,1,0,0:0:0:0:
192,192,83423,1,0,0:0:0:0:
448,192,83423,1,0,0:0:0:0:
64,192,83576,128,0,84192:0:0:0:0:
448,192,83576,128,0,83653:0:0:0:0:
320,192,83653,128,0,83730:0:0:0:0:
192,192,83730,128,0,83807:0:0:0:0:
448,192,83807,128,0,83884:0:0:0:0:
320,192,83884,128,0,83961:0:0:0:0:
192,192,83961,128,0,84038:0:0:0:0:
448,192,84038,128,0,84115:0:0:0:0:
320,192,84115,128,0,84192:0:0:0:0:
192,192,84192,128,4,84346:0:0:0:0:
448,192,84192,1,2,0:0:0:0:
64,192,84346,1,2,0:0:0:0:
320,192,84346,128,0,84500:0:0:0:0:
64,192,84500,1,8,0:0:0:0:
192,192,84500,1,0,0:0:0:0:
320,192,84653,1,2,0:0:0:0:
448,192,84653,128,0,84807:0:0:0:0:
192,192,84807,1,0,0:0:0:0:
64,192,84961,128,8,85115:0:0:0:0:
448,192,84961,1,0,0:0:0:0:
320,192,85115,128,0,85269:0:0:0:0:
64,192,85269,1,2,0:0:0:0:
192,192,85269,128,0,85346:0:0:0:0:
448,192,85346,128,0,85423:0:0:0:0:
64,192,85423,128,0,85500:0:0:0:0:
320,192,85576,1,2,0:0:0:0:
448,192,85576,1,0,0:0:0:0:
192,192,85730,1,8,0:0:0:0:
448,192,85730,1,0,0:0:0:0:
64,192,85884,128,2,85961:0:0:0:0:
320,192,85884,128,0,85961:0:0:0:0:
64,192,86038,128,2,86115:0:0:0:0:
320,192,86038,128,0,86115:0:0:0:0:
192,192,86192,128,8,86346:0:0:0:0:
448,192,86192,1,0,0:0:0:0:
320,192,86346,128,0,86500:0:0:0:0:
64,192,86500,128,2,86653:0:0:0:0:
448,192,86500,1,0,0:0:0:0:
192,192,86653,128,0,86807:0:0:0:0:
320,192,86807,128,2,86961:0:0:0:0:
448,192,86807,1,0,0:0:0:0:
64,192,86961,1,8,0:0:0:0:
192,192,86961,1,0,0:0:0:0:
64,192,87115,128,2,87269:0:0:0:0:
320,192,87115,1,0,0:0:0:0:
192,192,87269,128,2,87423:0:0:0:0:
320,192,87269,1,0,0:0:0:0:
64,192,87423,1,8,0:0:0:0:
448,192,87423,1,0,0:0:0:0:
192,192,87576,1,2,0:0:0:0:
320,192,87576,128,0,87730:0:0:0:0:
192,192,87730,1,2,0:0:0:0:
448,192,87730,128,0,87884:0:0:0:0:
64,192,87884,128,0,88038:0:0:0:0:
192,192,88038,128,2,88115:0:0:0:0:
448,192,88038,1,0,0:0:0:0:
320,192,88115,128,0,88192:0:0:0:0:
64,192,88192,128,8,88269:0:0:0:0:
448,192,88192,1,0,0:0:0:0:
192,192,88346,1,2,0:0:0:0:
320,192,88346,1,0,0:0:0:0:
64,192,88500,1,8,0:0:0:0:
448,192,88500,1,0,0:0:0:0:
192,192,88576,1,0,0:0:0:0:
320,192,88653,1,2,0:0:0:0:
448,192,88653,1,0,0:0:0:0:
64,192,88730,1,2,0:0:0:0:
192,192,88730,1,0,0:0:0:0:
320,192,88807,1,8,0:0:0:0:
448,192,88807,1,0,0:0:0:0:
64,192,88884,1,0,0:0:0:0:
192,192,88961,1,2,0:0:0:0:
320,192,88961,1,0,0:0:0:0:
448,192,89038,1,0,0:0:0:0:
64,192,89115,128,0,89269:0:0:0:0:
192,192,89115,1,0,0:0:0:0:
320,192,89269,1,2,0:0:0:0:
448,192,89269,128,0,89423:0:0:0:0:
64,192,89423,1,8,0:0:0:0:
192,192,89423,1,0,0:0:0:0:
320,192,89576,128,2,89730:0:0:0:0:
448,192,89576,1,0,0:0:0:0:
64,192,89730,1,0,0:0:0:0:
192,192,89884,1,8,0:0:0:0:
448,192,89884,1,0,0:0:0:0:
320,192,90038,128,0,90192:0:0:0:0:
64,192,90192,128,2,90346:0:0:0:0:
192,192,90192,1,0,0:0:0:0:
448,192,90346,128,0,90500:0:0:0:0:
192,192,90500,1,2,0:0:0:0:
320,192,90500,1,0,0:0:0:0:
64,192,90576,1,0,0:0:0:0:
192,192,90653,1,8,0:0:0:0:
448,192,90653,1,0,0:0:0:0:
320,192,90730,1,0,0:0:0:0:
64,192,90807,1,2,0:0:0:0:
448,192,90807,1,0,0:0:0:0:
192,192,90884,1,0,0:0:0:0:
64,192,90961,128,2,91115:0:0:0:0:
320,192,90961,1,0,0:0:0:0:
192,192,91115,1,8,0:0:0:0:
448,192,91115,128,0,91269:0:0:0:0:
320,192,91269,128,0,91423:0:0:0:0:
64,192,91423,1,2,0:0:0:0:
192,192,91423,128,0,91576:0:0:0:0:
448,192,91576,1,0,0:0:0:0:
320,192,91653,1,0,0:0:0:0:
64,192,91730,1,2,0:0:0:0:
192,192,91730,1,0,0:0:0:0:
448,192,91807,1,0,0:0:0:0:
64,192,91884,1,8,0:0:0:0:
320,192,91884,1,0,0:0:0:0:
192,192,91961,1,0,0:0:0:0:
320,192,92038,1,2,0:0:0:0:
448,192,92038,1,0,0:0:0:0:
64,192,92115,1,0,0:0:0:0:
192,192,92192,1,2,0:0:0:0:
448,192,92192,1,0,0:0:0:0:
320,192,92269,1,0,0:0:0:0:
64,192,92346,1,8,0:0:0:0:
192,192,92346,1,0,0:0:0:0:
448,192,92423,1,0,0:0:0:0:
64,192,92500,1,2,0:0:0:0:
320,192,92500,1,0,0:0:0:0:
192,192,92576,1,0,0:0:0:0:
320,192,92653,1,8,0:0:0:0:
448,192,92653,1,0,0:0:0:0:
64,192,92730,1,0,0:0:0:0:
192,192,92807,1,0,0:0:0:0:
320,192,92884,1,0,0:0:0:0:
64,192,92961,1,2,0:0:0:0:
448,192,92961,1,0,0:0:0:0:
192,192,93038,1,2,0:0:0:0:
320,192,93038,1,0,0:0:0:0:
64,192,93115,1,8,0:0:0:0:
448,192,93115,1,0,0:0:0:0:
192,192,93192,1,0,0:0:0:0:
320,192,93269,1,2,0:0:0:0:
448,192,93269,1,0,0:0:0:0:
64,192,93346,1,0,0:0:0:0:
192,192,93423,1,8,0:0:0:0:
448,192,93423,1,0,0:0:0:0:
320,192,93500,1,0,0:0:0:0:
64,192,93576,1,2,0:0:0:0:
192,192,93576,1,0,0:0:0:0:
320,192,93653,1,2,0:0:0:0:
448,192,93653,1,0,0:0:0:0:
64,192,93730,1,8,0:0:0:0:
192,192,93730,1,0,0:0:0:0:
448,192,93807,1,0,0:0:0:0:
64,192,93884,1,2,0:0:0:0:
320,192,93884,1,0,0:0:0:0:
192,192,93961,1,0,0:0:0:0:
64,192,94038,1,4,0:0:0:0:
320,192,94038,1,2,0:0:0:0:
448,192,94038,128,0,94192:0:0:0:0:
192,192,94192,1,2,0:0:0:0:
320,192,94192,1,0,0:0:0:0:
64,192,94346,1,8,0:0:0:0:
192,192,94346,1,0,0:0:0:0:
64,192,94500,128,2,94653:0:0:0:0:
448,192,94500,1,0,0:0:0:0:
320,192,94653,1,0,0:0:0:0:
192,192,94807,1,8,0:0:0:0:
448,192,94807,128,0,94961:0:0:0:0:
320,192,94961,128,0,95115:0:0:0:0:
64,192,95115,1,2,0:0:0:0:
192,192,95115,128,0,95192:0:0:0:0:
448,192,95192,128,0,95269:0:0:0:0:
64,192,95269,128,0,95346:0:0:0:0:
192,192,95423,1,2,0:0:0:0:
320,192,95423,128,0,95576:0:0:0:0:
64,192,95576,128,8,95730:0:0:0:0:
448,192,95576,1,0,0:0:0:0:
192,192,95730,128,2,95884:0:0:0:0:
320,192,95730,1,0,0:0:0:0:
320,192,95884,128,2,96038:0:0:0:0:
448,192,95884,1,0,0:0:0:0:
64,192,96038,1,8,0:0:0:0:
192,192,96038,1,0,0:0:0:0:
448,192,96115,1,0,0:0:0:0:
320,192,96192,1,0,0:0:0:0:
192,192,96269,1,0,0:0:0:0:
64,192,96346,1,2,0:0:0:0:
448,192,96346,1,0,0:0:0:0:
320,192,96423,1,0,0:0:0:0:
192,192,96500,1,0,0:0:0:0:
320,192,96576,1,0,0:0:0:0:
64,192,96653,1,2,0:0:0:0:
192,192,96653,1,0,0:0:0:0:
320,192,96730,1,0,0:0:0:0:
64,192,96807,1,8,0:0:0:0:
448,192,96807,1,0,0:0:0:0:
192,192,96884,1,0,0:0:0:0:
320,192,96961,1,2,0:0:0:0:
448,192,96961,1,0,0:0:0:0:
192,192,97038,1,0,0:0:0:0:
64,192,97115,1,2,0:0:0:0:
448,192,97115,1,0,0:0:0:0:
320,192,97192,1,0,0:0:0:0:
64,192,97269,1,8,0:0:0:0:
192,192,97269,1,0,0:0:0:0:
320,192,97346,1,0,0:0:0:0:
64,192,97423,1,2,0:0:0:0:
448,192,97423,1,0,0:0:0:0:
192,192,97500,1,0,0:0:0:0:
320,192,97576,1,2,0:0:0:0:
448,192,97576,1,0,0:0:0:0:
192,192,97653,1,0,0:0:0:0:
64,192,97730,1,4,0:0:0:0:
320,192,97730,1,2,0:0:0:0:
448,192,97730,1,0,0:0:0:0:
64,192,97884,1,4,0:0:0:0:
192,192,97884,1,2,0:0:0:0:
320,192,97884,1,0,0:0:0:0:
64,192,98192,1,4,0:0:0:0:
192,192,98192,1,2,0:0:0:0:
448,192,98192,1,0,0:0:0:0:
64,192,98500,1,4,0:0:0:0:
320,192,98500,1,2,0:0:0:0:
448,192,98500,1,0,0:0:0:0:
192,192,98807,1,4,0:0:0:0:
320,192,98807,1,2,0:0:0:0:
448,192,98807,1,0,0:0:0:0:
64,192,98961,1,2,0:0:0:0:
192,192,98961,128,0,99038:0:0:0:0:
320,192,99038,1,2,0:0:0:0:
448,192,99038,128,0,99115:0:0:0:0:
64,192,99115,128,2,99192:0:0:0:0:
192,192,99115,1,0,0:0:0:0:
320,192,99192,128,2,99269:0:0:0:0:
448,192,99192,1,0,0:0:0:0:
64,192,99269,1,8,0:0:0:0:
192,192,99269,128,4,99423:0:0:0:0:
320,192,99423,1,2,0:0:0:0:
448,192,99423,128,0,99576:0:0:0:0:
64,192,99576,128,0,99730:0:0:0:0:
320,192,99730,128,8,99884:0:0:0:0:
448,192,99730,128,0,99884:0:0:0:0:
64,192,99884,128,0,100038:0:0:0:0:
192,192,99884,128,0,100038:0:0:0:0:
320,192,100038,128,2,100192:0:0:0:0:
448,192,100038,128,0,100192:0:0:0:0:
64,192,100192,1,0,0:0:0:0:
320,192,100346,1,2,0:0:0:0:
448,192,100346,1,0,0:0:0:0:
320,192,100423,1,2,0:0:0:0:
448,192,100423,1,0,0:0:0:0:
64,192,100500,1,8,0:0:0:0:
192,192,100500,128,0,100653:0:0:0:0:
320,192,100653,128,2,100807:0:0:0:0:
448,192,100653,1,0,0:0:0:0:
64,192,100807,1,8,0:0:0:0:
448,192,100807,128,0,100961:0:0:0:0:
64,192,100961,128,2,101115:0:0:0:0:
192,192,100961,128,0,101115:0:0:0:0:
320,192,101115,128,8,101269:0:0:0:0:
448,192,101115,128,0,101269:0:0:0:0:
64,192,101269,128,2,101423:0:0:0:0:
192,192,101269,128,0,101423:0:0:0:0:
320,192,101423,1,8,0:0:0:0:
448,192,101423,1,4,0:0:0:0:
192,192,101500,1,0,0:0:0:0:
320,192,101576,1,2,0:0:0:0:
448,192,101576,1,0,0:0:0:0:
64,192,101653,1,2,0:0:0:0:
192,192,101653,1,0,0:0:0:0:
320,192,101730,1,2,0:0:0:0:
448,192,101730,1,0,0:0:0:0:
64,192,101807,1,0,0:0:0:0:
192,192,101884,1,8,0:0:0:0:
448,192,101884,1,0,0:0:0:0:
320,192,101961,1,0,0:0:0:0:
64,192,102038,1,2,0:0:0:0:
192,192,102038,1,0,0:0:0:0:
320,192,102115,1,2,0:0:0:0:
448,192,102115,1,0,0:0:0:0:
64,192,102192,1,8,0:0:0:0:
192,192,102192,1,2,0:0:0:0:
320,192,102269,1,2,0:0:0:0:
448,192,102269,1,0,0:0:0:0:
64,192,102346,1,8,0:0:0:0:
192,192,102346,1,2,0:0:0:0:
320,192,102423,1,2,0:0:0:0:
448,192,102423,1,0,0:0:0:0:
64,192,102500,1,2,0:0:0:0:
192,192,102500,1,0,0:0:0:0:
320,192,102576,1,2,0:0:0:0:
64,192,102653,1,8,0:0:0:0:
192,192,102653,1,4,0:0:0:0:
448,192,102653,1,0,0:0:0:0:
320,192,102730,1,2,0:0:0:0:
64,192,102807,1,2,0:0:0:0:
448,192,102807,1,0,0:0:0:0:
192,192,102884,1,2,0:0:0:0:
64,192,102961,1,8,0:0:0:0:
320,192,102961,1,2,0:0:0:0:
448,192,102961,1,0,0:0:0:0:
192,192,103038,1,2,0:0:0:0:
320,192,103115,1,2,0:0:0:0:
448,192,103115,1,0,0:0:0:0:
64,192,103192,1,2,0:0:0:0:
192,192,103192,1,0,0:0:0:0:
320,192,103269,128,8,103346:0:0:0:0:
448,192,103269,1,0,0:0:0:0:
64,192,103346,1,8,0:0:0:0:
192,192,103346,128,0,103423:0:0:0:0:
320,192,103423,128,8,103500:0:0:0:0:
448,192,103423,1,0,0:0:0:0:
64,192,103500,1,8,0:0:0:0:
192,192,103500,128,0,103576:0:0:0:0:
320,192,103576,1,2,0:0:0:0:
448,192,103576,128,0,103653:0:0:0:0:
64,192,103653,128,2,103730:0:0:0:0:
192,192,103653,1,0,0:0:0:0:
320,192,103730,1,2,0:0:0:0:
448,192,103730,128,0,103807:0:0:0:0:
64,192,103807,128,2,103884:0:0:0:0:
192,192,103807,1,0,0:0:0:0:
320,192,103884,1,4,0:0:0:0:
448,192,103884,128,2,105115:0:0:0:0:
192,192,104038,1,0,0:0:0:0:
320,192,104115,1,0,0:0:0:0:
64,192,104192,1,0,0:0:0:0:
64,192,104500,1,0,0:0:0:70:low clap.wav
192,192,104500,1,0,0:0:0:0:
320,192,104653,1,0,0:0:0:0:
64,192,104807,1,0,0:0:0:0:
64,192,104961,1,0,0:0:0:0:
192,192,105115,128,0,106346:0:0:0:0:
320,192,105115,1,0,0:0:0:0:
64,192,105269,1,0,0:0:0:0:
320,192,105346,1,0,0:0:0:0:
448,192,105423,1,0,0:0:0:0:
320,192,105576,1,0,0:0:0:0:
64,192,105730,1,0,0:0:0:70:low clap.wav
448,192,105730,1,0,0:0:0:0:
448,192,105884,1,0,0:0:0:0:
64,192,106038,1,0,0:0:0:0:
320,192,106192,128,0,106346:0:0:0:0:
64,192,106346,128,0,107576:0:0:0:0:
448,192,106346,1,0,0:0:0:0:
192,192,106500,1,0,0:0:0:0:
320,192,106576,1,0,0:0:0:0:
448,192,106653,1,0,0:0:0:0:
320,192,106807,1,0,0:0:0:0:
192,192,106961,1,0,0:0:0:70:low clap.wav
448,192,106961,1,0,0:0:0:0:
320,192,107115,1,0,0:0:0:0:
192,192,107269,1,0,0:0:0:0:
320,192,107346,1,0,0:0:0:0:
192,192,107423,1,0,0:0:0:70:low clap.wav
448,192,107423,1,0,0:0:0:0:
320,192,107576,1,0,0:0:0:0:
448,192,107576,128,0,108807:0:0:0:0:
64,192,107730,1,0,0:0:0:70:low clap.wav
192,192,107730,1,0,0:0:0:0:
320,192,107884,1,0,0:0:0:0:
64,192,108038,1,0,0:0:0:0:
192,192,108115,1,0,0:0:0:0:
64,192,108192,1,0,0:0:0:70:low clap.wav
320,192,108192,1,0,0:0:0:0:
192,192,108346,1,0,0:0:0:0:
64,192,108500,1,0,0:0:0:0:
320,192,108653,1,0,0:0:0:0:
320,192,108730,1,0,0:0:0:0:
64,192,108807,128,0,110038:0:0:0:0:
192,192,108807,1,0,0:0:0:0:
448,192,108961,1,0,0:0:0:0:
320,192,109038,1,0,0:0:0:0:
192,192,109115,1,0,0:0:0:0:
320,192,109269,1,0,0:0:0:0:
320,192,109423,1,0,0:0:0:70:low clap.wav
448,192,109423,1,0,0:0:0:0:
192,192,109576,1,0,0:0:0:0:
448,192,109730,1,0,0:0:0:0:
448,192,109884,1,0,0:0:0:0:
192,192,110038,128,0,111269:0:0:0:0:
320,192,110038,1,0,0:0:0:0:
448,192,110192,1,0,0:0:0:0:
64,192,110269,1,0,0:0:0:0:
320,192,110346,1,0,0:0:0:0:
448,192,110500,1,0,0:0:0:0:
64,192,110653,1,0,0:0:0:70:low clap.wav
320,192,110653,1,0,0:0:0:0:
64,192,110807,1,0,0:0:0:0:
448,192,110961,1,0,0:0:0:0:
320,192,111038,1,0,0:0:0:0:
64,192,111115,128,0,111269:0:0:0:0:
320,192,111269,128,0,112500:0:0:0:0:
448,192,111269,1,0,0:0:0:0:
64,192,111423,1,0,0:0:0:0:
192,192,111500,1,0,0:0:0:0:
448,192,111576,1,0,0:0:0:0:
192,192,111730,1,0,0:0:0:0:
64,192,111884,128,0,112038:0:0:0:70:low clap.wav
448,192,111884,1,0,0:0:0:0:
192,192,112038,128,0,112192:0:0:0:0:
448,192,112192,128,0,112346:0:0:0:0:
64,192,112346,128,0,112500:0:0:0:60:low clap.wav
192,192,112500,1,0,0:0:0:60:low clap.wav
448,192,112500,128,0,113730:0:0:0:0:
320,192,112653,1,0,0:0:0:0:
320,192,112807,1,0,0:0:0:0:
192,192,112884,1,0,0:0:0:0:
64,192,112961,1,0,0:0:0:70:low clap.wav
192,192,113115,128,0,113269:0:0:0:70:low clap.wav
64,192,113269,128,0,113423:0:0:0:70:low clap.wav
320,192,113423,128,0,113576:0:0:0:70:low clap.wav
192,192,113576,128,0,113730:0:0:0:70:low clap.wav
