osu file format v14

[General]
AudioFilename: audio.mp3
AudioLeadIn: 0
PreviewTime: 26482
Countdown: 1
SampleSet: Soft
StackLeniency: 0.3
Mode: 0
LetterboxInBreaks: 0
WidescreenStoryboard: 0

[Editor]
DistanceSpacing: 3.1
BeatDivisor: 4
GridSize: 8
TimelineZoom: 1.499999

[Metadata]
Title:Spaceship
TitleUnicode:Spaceship
Artist:AREA21
ArtistUnicode:AREA21
Creator:[ IWeenox ]
Version:Space
Source:
Tags:18+ trap nation EDM electro music
BeatmapID:1475672
BeatmapSetID:696700

[Difficulty]
HPDrainRate:5
CircleSize:4
OverallDifficulty:6
ApproachRate:9
SliderMultiplier:1.7
SliderTickRate:1

[Events]
//Background and Video events
0,0,"wallhaven-273777.jpg",0,0
//Break Periods
//Storyboard Layer 0 (Background)
//Storyboard Layer 1 (Fail)
//Storyboard Layer 2 (Pass)
//Storyboard Layer 3 (Foreground)
//Storyboard Layer 4 (Overlay)
//Storyboard Sound Samples

[TimingPoints]
1624,400,4,2,2,40,1,0
2724,-100,4,2,2,5,0,0
2824,-100,4,2,2,40,0,0
3124,-100,4,2,2,5,0,0
3224,-100,4,2,2,40,0,0
4324,-100,4,2,2,5,0,0
4424,-100,4,2,2,40,0,0
4724,-100,4,2,2,5,0,0
4824,-100,4,2,2,40,0,0
5924,-100,4,2,2,5,0,0
6024,-100,4,2,2,40,0,0
6324,-100,4,2,2,5,0,0
6424,-100,4,2,2,40,0,0
7524,-100,4,2,2,5,0,0
7624,-100,4,2,2,40,0,0
7924,-100,4,2,2,5,0,0
8024,-100,4,2,2,40,0,0
9124,-100,4,2,2,5,0,0
9224,-100,4,2,2,40,0,0
9524,-100,4,2,2,5,0,0
9624,-100,4,2,2,40,0,0
10724,-100,4,2,2,5,0,0
10824,-100,4,2,2,40,0,0
11124,-100,4,2,2,5,0,0
11224,-133.333333333333,4,2,2,40,0,0
11624,-133.333333333333,4,2,2,5,0,0
11824,-133.333333333333,4,2,2,40,0,0
12224,-133.333333333333,4,2,2,5,0,0
12424,-133.333333333333,4,2,2,40,0,0
12724,-133.333333333333,4,2,2,5,0,0
12824,-133.333333333333,4,2,2,40,0,0
13224,-133.333333333333,4,2,2,5,0,0
13424,-133.333333333333,4,2,2,40,0,0
13824,-133.333333333333,4,2,2,5,0,0
14024,-133.333333333333,4,2,2,40,0,0
14324,-133.333333333333,4,2,2,5,0,0
14424,-100,4,2,2,45,0,0
20824,-100,4,2,2,50,0,0
24024,-100,4,2,2,55,0,0
25524,-100,4,2,2,5,0,0
25624,-100,4,2,2,50,0,0
27224,-57.1428571428571,4,1,2,70,0,1
27324,-57.1428571428571,4,1,2,5,0,1
27424,-57.1428571428571,4,1,2,70,0,1
27524,-57.1428571428571,4,1,2,5,0,1
27624,-57.1428571428571,4,1,2,70,0,1
27724,-57.1428571428571,4,1,2,5,0,1
27824,-57.1428571428571,4,1,2,70,0,1
28024,-125,4,1,2,70,0,1
28824,-57.1428571428571,4,1,2,70,0,1
28924,-57.1428571428571,4,1,2,5,0,1
29024,-57.1428571428571,4,1,2,70,0,1
29124,-57.1428571428571,4,1,2,5,0,1
29224,-57.1428571428571,4,1,2,70,0,1
29324,-57.1428571428571,4,1,2,5,0,1
29424,-57.1428571428571,4,1,2,70,0,1
29524,-57.1428571428571,4,1,2,5,0,1
29624,-57.1428571428571,4,1,2,70,0,1
29724,-57.1428571428571,4,1,2,5,0,1
29824,-57.1428571428571,4,1,2,70,0,1
29924,-57.1428571428571,4,1,2,5,0,1
30024,-57.1428571428571,4,1,2,70,0,1
30124,-57.1428571428571,4,1,2,5,0,1
30224,-57.1428571428571,4,1,2,70,0,1
30324,-57.1428571428571,4,1,2,5,0,1
30424,-57.1428571428571,4,1,2,70,0,1
30524,-57.1428571428571,4,1,2,5,0,1
30624,-57.1428571428571,4,1,2,70,0,1
30724,-57.1428571428571,4,1,2,5,0,1
30824,-57.1428571428571,4,1,2,70,0,1
30924,-57.1428571428571,4,1,2,5,0,1
31024,-57.1428571428571,4,1,2,70,0,1
31224,-76.9230769230769,4,1,2,70,0,1
31624,-57.1428571428571,4,1,2,70,0,1
31724,-57.1428571428571,4,1,2,5,0,1
31824,-57.1428571428571,4,1,2,70,0,1
31924,-57.1428571428571,4,1,2,5,0,1
32024,-125,4,1,2,60,0,0
32424,-125,4,1,2,5,0,0
32624,-153.846153846154,4,1,2,60,0,0
33024,-125,4,1,2,5,0,0
33224,-200,4,1,2,60,0,0
33424,-125,4,1,2,5,0,0
33624,-57.1428571428571,4,1,2,70,0,1
33724,-57.1428571428571,4,1,2,5,0,1
33824,-57.1428571428571,4,1,2,70,0,1
33924,-57.1428571428571,4,1,2,5,0,1
34024,-57.1428571428571,4,1,2,70,0,1
34124,-57.1428571428571,4,1,2,5,0,1
34224,-57.1428571428571,4,1,2,70,0,1
34424,-125,4,1,2,70,0,1
34824,-125,4,1,2,5,0,1
35224,-57.1428571428571,4,1,2,70,0,1
35324,-57.1428571428571,4,1,2,5,0,1
35424,-57.1428571428571,4,1,2,70,0,1
35524,-57.1428571428571,4,1,2,5,0,1
35624,-57.1428571428571,4,1,2,70,0,1
35724,-57.1428571428571,4,1,2,5,0,1
35824,-57.1428571428571,4,1,2,70,0,1
35924,-57.1428571428571,4,1,2,5,0,1
36024,-57.1428571428571,4,1,2,70,0,1
36124,-57.1428571428571,4,1,2,5,0,1
36224,-57.1428571428571,4,1,2,70,0,1
36324,-57.1428571428571,4,1,2,5,0,1
36424,-57.1428571428571,4,1,2,70,0,1
36524,-57.1428571428571,4,1,2,5,0,1
36624,-57.1428571428571,4,1,2,70,0,1
36724,-57.1428571428571,4,1,2,5,0,1
36824,-57.1428571428571,4,1,2,70,0,1
36924,-57.1428571428571,4,1,2,5,0,1
37024,-57.1428571428571,4,1,2,70,0,1
37124,-57.1428571428571,4,1,2,5,0,1
37224,-57.1428571428571,4,1,2,70,0,1
37324,-57.1428571428571,4,1,2,5,0,1
37424,-57.1428571428571,4,1,2,70,0,1
37624,-76.9230769230769,4,1,2,70,0,1
38024,-57.1428571428571,4,1,2,70,0,1
38124,-57.1428571428571,4,1,2,5,0,1
38224,-57.1428571428571,4,1,2,70,0,1
38324,-57.1428571428571,4,1,2,5,0,1
38424,-125,4,1,2,60,0,0
38824,-125,4,1,2,5,0,0
39024,-153.846153846154,4,1,2,60,0,0
39424,-125,4,1,2,5,0,0
39624,-200,4,1,2,60,0,0
39824,-125,4,1,2,5,0,0
40024,-57.1428571428571,4,1,2,70,0,1
40124,-57.1428571428571,4,1,2,5,0,1
40224,-57.1428571428571,4,1,2,70,0,1
40324,-57.1428571428571,4,1,2,5,0,1
40424,-83.3333333333333,4,1,2,70,0,1
40624,-83.3333333333333,4,1,2,5,0,1
40824,-125,4,1,2,70,0,1
41224,-125,4,1,2,70,0,1
41624,-57.1428571428571,4,1,2,70,0,1
41724,-57.1428571428571,4,1,2,5,0,1
41824,-57.1428571428571,4,1,2,70,0,1
41924,-57.1428571428571,4,1,2,5,0,1
42024,-57.1428571428571,4,1,2,70,0,1
42124,-57.1428571428571,4,1,2,5,0,1
42224,-57.1428571428571,4,1,2,70,0,1
42324,-57.1428571428571,4,1,2,5,0,1
42424,-57.1428571428571,4,1,2,70,0,1
42524,-57.1428571428571,4,1,2,5,0,1
42624,-57.1428571428571,4,1,2,70,0,1
42724,-57.1428571428571,4,1,2,5,0,1
42824,-57.1428571428571,4,1,2,70,0,1
42924,-57.1428571428571,4,1,2,5,0,1
43024,-57.1428571428571,4,1,2,70,0,1
43124,-57.1428571428571,4,1,2,5,0,1
43224,-66.6666666666667,4,1,2,70,0,1
44024,-57.1428571428571,4,1,2,70,0,1
44124,-57.1428571428571,4,1,2,5,0,1
44224,-57.1428571428571,4,1,2,70,0,1
44324,-57.1428571428571,4,1,2,5,0,1
44424,-57.1428571428571,4,1,2,70,0,1
44524,-57.1428571428571,4,1,2,5,0,1
44624,-57.1428571428571,4,1,2,70,0,1
44724,-57.1428571428571,4,1,2,5,0,1
44824,-125,4,1,2,70,0,0
45224,-125,4,1,2,5,0,0
45424,-125,4,1,2,60,0,0
45624,-100,4,1,2,60,0,0
46824,-83.3333333333333,4,1,2,60,0,0
47224,-125,4,1,2,60,0,0
47524,-125,4,1,2,5,0,0
47624,-83.3333333333333,4,1,2,60,0,0
47924,-83.3333333333333,4,1,2,5,0,0
48024,-57.1428571428571,4,1,2,70,0,1
48124,-57.1428571428571,4,1,2,5,0,1
48224,-57.1428571428571,4,1,2,70,0,1
48324,-57.1428571428571,4,1,2,5,0,1
48424,-57.1428571428571,4,1,2,70,0,1
48524,-57.1428571428571,4,1,2,5,0,1
48624,-57.1428571428571,4,1,2,70,0,1
48724,-57.1428571428571,4,1,2,5,0,1
48824,-57.1428571428571,4,1,2,70,0,1
48924,-57.1428571428571,4,1,2,5,0,1
49024,-57.1428571428571,4,1,2,70,0,1
49124,-57.1428571428571,4,1,2,5,0,1
49224,-57.1428571428571,4,1,2,70,0,1
49324,-57.1428571428571,4,1,2,5,0,1
49424,-57.1428571428571,4,1,2,70,0,1
49524,-57.1428571428571,4,1,2,5,0,1
49624,-57.1428571428571,4,1,2,70,0,1
49724,-57.1428571428571,4,1,2,5,0,1
49824,-57.1428571428571,4,1,2,70,0,1
49924,-57.1428571428571,4,1,2,5,0,1
50024,-57.1428571428571,4,1,2,70,0,1
50124,-57.1428571428571,4,1,2,5,0,1
50224,-57.1428571428571,4,1,2,70,0,1
50324,-57.1428571428571,4,1,2,5,0,1
50424,-57.1428571428571,4,1,2,70,0,1
50524,-57.1428571428571,4,1,2,5,0,1
50624,-57.1428571428571,4,1,2,70,0,1
50824,-83.3333333333333,4,1,2,70,0,1
51224,-125,4,1,2,70,0,1
51624,-125,4,1,2,5,0,1
51824,-125,4,1,2,70,0,1
52024,-166.666666666667,4,1,2,70,0,1
52824,-166.666666666667,4,2,2,50,0,0
54424,-90.9090909090909,4,2,2,50,0,0
56824,-66.6666666666667,4,2,2,50,0,0
56924,-66.6666666666667,4,2,2,5,0,0
57024,-66.6666666666667,4,2,2,50,0,0
57124,-66.6666666666667,4,2,2,5,0,0
57224,-66.6666666666667,4,2,2,50,0,0
57324,-66.6666666666667,4,2,2,5,0,0
57424,-66.6666666666667,4,2,2,50,0,0
57524,-66.6666666666667,4,2,2,5,0,0
57624,-90.9090909090909,4,2,2,50,0,0
64224,-90.9090909090909,4,2,2,5,0,0
64624,-90.9090909090909,4,2,2,50,0,0
64824,-90.9090909090909,4,2,2,5,0,0
65224,-90.9090909090909,4,2,2,50,0,0
65424,-90.9090909090909,4,2,2,5,0,0
65624,-90.9090909090909,4,2,2,50,0,0
71624,-66.6666666666667,4,2,2,50,0,0
71724,-66.6666666666667,4,2,2,5,0,0
71824,-66.6666666666667,4,2,2,50,0,0
71924,-66.6666666666667,4,2,2,5,0,0
72024,-90.9090909090909,4,2,2,50,0,0
75424,-90.9090909090909,4,2,2,5,0,0
75824,-90.9090909090909,4,2,2,50,0,0
76024,-90.9090909090909,4,2,2,5,0,0
76424,-90.9090909090909,4,2,2,50,0,0
76624,-90.9090909090909,4,2,2,5,0,0
76824,-90.9090909090909,4,2,2,50,0,0
77024,-90.9090909090909,4,2,2,5,0,0
77424,-90.9090909090909,4,2,2,50,0,0
77624,-90.9090909090909,4,2,2,5,0,0
78024,-90.9090909090909,4,2,2,50,0,0
78324,-90.9090909090909,4,2,2,5,0,0
78424,-90.9090909090909,4,2,2,55,0,0
79524,-90.9090909090909,4,2,2,5,0,0
79624,-90.9090909090909,4,2,2,55,0,0
84024,-142.857142857143,4,2,2,55,0,0
84424,-111.111111111111,4,2,2,55,0,0
84824,-90.9090909090909,4,2,2,60,0,0
88024,-90.9090909090909,4,2,2,65,0,0
89524,-90.9090909090909,4,2,2,5,0,0
89624,-90.9090909090909,4,2,2,29,0,0
90424,-90.9090909090909,4,1,0,50,0,0
91224,-57.1428571428571,4,1,2,70,0,1
91324,-57.1428571428571,4,1,2,5,0,1
91424,-57.1428571428571,4,1,2,70,0,1
91524,-57.1428571428571,4,1,2,5,0,1
91624,-57.1428571428571,4,1,2,70,0,1
91724,-57.1428571428571,4,1,2,5,0,1
91824,-57.1428571428571,4,1,2,70,0,1
92024,-125,4,1,2,70,0,1
92424,-125,4,1,2,5,0,1
92824,-57.1428571428571,4,1,2,70,0,1
92924,-57.1428571428571,4,1,2,5,0,1
93024,-57.1428571428571,4,1,2,70,0,1
93124,-57.1428571428571,4,1,2,5,0,1
93224,-57.1428571428571,4,1,2,70,0,1
93324,-57.1428571428571,4,1,2,5,0,1
93424,-57.1428571428571,4,1,2,70,0,1
93524,-57.1428571428571,4,1,2,5,0,1
93624,-57.1428571428571,4,1,2,70,0,1
93724,-57.1428571428571,4,1,2,5,0,1
93824,-57.1428571428571,4,1,2,70,0,1
93924,-57.1428571428571,4,1,2,5,0,1
94024,-57.1428571428571,4,1,2,70,0,1
94124,-57.1428571428571,4,1,2,5,0,1
94224,-57.1428571428571,4,1,2,70,0,1
94324,-57.1428571428571,4,1,2,5,0,1
94424,-57.1428571428571,4,1,2,70,0,1
94524,-57.1428571428571,4,1,2,5,0,1
94624,-57.1428571428571,4,1,2,70,0,1
94724,-57.1428571428571,4,1,2,5,0,1
94824,-57.1428571428571,4,1,2,70,0,1
94924,-57.1428571428571,4,1,2,5,0,1
95024,-57.1428571428571,4,1,2,70,0,1
95224,-76.9230769230769,4,1,2,70,0,1
95624,-57.1428571428571,4,1,2,70,0,1
95724,-57.1428571428571,4,1,2,5,0,1
95824,-57.1428571428571,4,1,2,70,0,1
95924,-57.1428571428571,4,1,2,5,0,1
96024,-125,4,1,2,60,0,0
96424,-125,4,1,2,5,0,0
96624,-153.846153846154,4,1,2,60,0,0
97024,-125,4,1,2,5,0,0
97224,-200,4,1,2,60,0,0
97424,-125,4,1,2,5,0,0
97624,-57.1428571428571,4,1,2,70,0,1
97724,-57.1428571428571,4,1,2,5,0,1
97824,-57.1428571428571,4,1,2,70,0,1
97924,-57.1428571428571,4,1,2,5,0,1
98024,-57.1428571428571,4,1,2,70,0,1
98124,-57.1428571428571,4,1,2,5,0,1
98224,-57.1428571428571,4,1,2,70,0,1
98424,-125,4,1,2,70,0,1
98824,-125,4,1,2,5,0,1
99224,-57.1428571428571,4,1,2,70,0,1
99324,-57.1428571428571,4,1,2,5,0,1
99424,-57.1428571428571,4,1,2,70,0,1
99524,-57.1428571428571,4,1,2,5,0,1
99624,-57.1428571428571,4,1,2,70,0,1
99724,-57.1428571428571,4,1,2,5,0,1
99824,-57.1428571428571,4,1,2,70,0,1
99924,-57.1428571428571,4,1,2,5,0,1
100024,-57.1428571428571,4,1,2,70,0,1
100124,-57.1428571428571,4,1,2,5,0,1
100224,-57.1428571428571,4,1,2,70,0,1
100324,-57.1428571428571,4,1,2,5,0,1
100424,-57.1428571428571,4,1,2,70,0,1
100524,-57.1428571428571,4,1,2,5,0,1
100624,-57.1428571428571,4,1,2,70,0,1
100724,-57.1428571428571,4,1,2,5,0,1
100824,-57.1428571428571,4,1,2,70,0,1
100924,-57.1428571428571,4,1,2,5,0,1
101024,-57.1428571428571,4,1,2,70,0,1
101124,-57.1428571428571,4,1,2,5,0,1
101224,-57.1428571428571,4,1,2,70,0,1
101324,-57.1428571428571,4,1,2,5,0,1
101424,-57.1428571428571,4,1,2,70,0,1
101624,-76.9230769230769,4,1,2,70,0,1
102024,-57.1428571428571,4,1,2,70,0,1
102124,-57.1428571428571,4,1,2,5,0,1
102224,-57.1428571428571,4,1,2,70,0,1
102324,-57.1428571428571,4,1,2,5,0,1
102424,-125,4,1,2,60,0,0
102824,-125,4,1,2,5,0,0
103024,-125,4,1,2,60,0,0
103424,-125,4,1,2,5,0,0
103624,-125,4,1,2,60,0,0
103824,-125,4,1,2,5,0,0
104024,-57.1428571428571,4,1,2,70,0,1
104124,-57.1428571428571,4,1,2,5,0,1
104224,-57.1428571428571,4,1,2,70,0,1
104324,-57.1428571428571,4,1,2,5,0,1
104424,-83.3333333333333,4,1,2,70,0,1
104624,-83.3333333333333,4,1,2,5,0,1
104824,-125,4,1,2,70,0,1
105224,-125,4,1,2,70,0,1
105624,-57.1428571428571,4,1,2,70,0,1
105724,-57.1428571428571,4,1,2,5,0,1
105824,-57.1428571428571,4,1,2,70,0,1
105924,-57.1428571428571,4,1,2,5,0,1
106024,-57.1428571428571,4,1,2,70,0,1
106124,-57.1428571428571,4,1,2,5,0,1
106224,-57.1428571428571,4,1,2,70,0,1
106324,-57.1428571428571,4,1,2,5,0,1
106424,-57.1428571428571,4,1,2,70,0,1
106524,-57.1428571428571,4,1,2,5,0,1
106624,-57.1428571428571,4,1,2,70,0,1
106724,-57.1428571428571,4,1,2,5,0,1
106824,-57.1428571428571,4,1,2,70,0,1
106924,-57.1428571428571,4,1,2,5,0,1
107024,-57.1428571428571,4,1,2,70,0,1
107124,-57.1428571428571,4,1,2,5,0,1
107224,-66.6666666666667,4,1,2,70,0,1
108024,-57.1428571428571,4,1,2,70,0,1
108124,-57.1428571428571,4,1,2,5,0,1
108224,-57.1428571428571,4,1,2,70,0,1
108324,-57.1428571428571,4,1,2,5,0,1
108424,-57.1428571428571,4,1,2,70,0,1
108524,-57.1428571428571,4,1,2,5,0,1
108624,-57.1428571428571,4,1,2,70,0,1
108724,-57.1428571428571,4,1,2,5,0,1
108824,-125,4,1,2,60,0,0
109224,-125,4,1,2,5,0,0
109424,-125,4,1,2,60,0,0
109624,-100,4,1,2,60,0,0
110024,-100,4,1,2,70,0,0
110424,-57.1428571428571,4,1,2,70,0,1
110524,-57.1428571428571,4,1,2,5,0,1
110624,-57.1428571428571,4,1,2,70,0,1
110724,-57.1428571428571,4,1,2,5,0,1
110824,-57.1428571428571,4,1,2,70,0,1
110924,-57.1428571428571,4,1,2,5,0,1
111024,-57.1428571428571,4,1,2,70,0,1
111124,-57.1428571428571,4,1,2,5,0,1
111224,-76.9230769230769,4,1,2,70,0,1
112024,-57.1428571428571,4,1,2,70,0,1
112124,-57.1428571428571,4,1,2,5,0,1
112224,-57.1428571428571,4,1,2,70,0,1
112324,-57.1428571428571,4,1,2,5,0,1
112424,-57.1428571428571,4,1,2,70,0,1
112524,-57.1428571428571,4,1,2,5,0,1
112624,-57.1428571428571,4,1,2,70,0,1
112724,-57.1428571428571,4,1,2,5,0,1
112824,-57.1428571428571,4,1,2,70,0,1
112924,-57.1428571428571,4,1,2,5,0,1
113024,-57.1428571428571,4,1,2,70,0,1
113124,-57.1428571428571,4,1,2,5,0,1
113224,-57.1428571428571,4,1,2,70,0,1
113324,-57.1428571428571,4,1,2,5,0,1
113424,-57.1428571428571,4,1,2,70,0,1
113524,-57.1428571428571,4,1,2,5,0,1
113624,-57.1428571428571,4,1,2,70,0,1
113724,-57.1428571428571,4,1,2,5,0,1
113824,-57.1428571428571,4,1,2,70,0,1
113924,-57.1428571428571,4,1,2,5,0,1
114024,-57.1428571428571,4,1,2,70,0,1
114124,-57.1428571428571,4,1,2,5,0,1
114224,-57.1428571428571,4,1,2,70,0,1
114324,-57.1428571428571,4,1,2,5,0,1
114424,-57.1428571428571,4,1,2,70,0,1
114524,-57.1428571428571,4,1,2,5,0,1
114624,-57.1428571428571,4,1,2,70,0,1
114824,-83.3333333333333,4,1,2,60,0,0
115224,-125,4,1,2,60,0,0
115624,-125,4,1,2,5,0,0
115824,-125,4,1,2,60,0,0
116024,-166.666666666667,4,1,2,60,0,0
116824,-166.666666666667,4,1,2,60,0,0

[HitObjects]
120,184,1624,5,2,0:0:0:0:
120,184,2024,5,8,0:0:0:0:
120,184,2224,2,0,B|197:222|255:175|255:175|217:188|183:176,1,212.5,2|0,0:0|0:0,0:0:0:0:
184,51,2824,2,0,L|189:178,1,127.5,10|0,0:0|0:0,0:0:0:0:
288,96,3224,1,2,0:0:0:0:
288,96,3624,5,8,0:0:0:0:
288,96,3824,2,0,P|336:200|255:263,1,212.5,2|0,0:0|0:0,0:0:0:0:
160,262,4424,2,0,P|224:238|280:263,1,127.5,10|0,0:0|0:0,0:0:0:0:
220,323,4824,1,2,0:0:0:0:
220,323,5224,5,8,0:0:0:0:
220,323,5424,2,0,B|306:345|306:345|382:326|382:326|338:321,1,212.5,2|0,0:0|0:0,0:0:0:0:
318,206,6024,2,0,P|304:260|338:322,1,127.5,10|0,0:0|0:0,0:0:0:0:
392,253,6424,1,2,0:0:0:0:
392,253,6824,5,8,0:0:0:0:
392,253,7024,2,0,B|424:197|392:141|392:141|360:85|392:29,1,212.5,2|0,0:0|0:0,0:0:0:0:
509,57,7624,2,0,L|370:49,1,127.5,10|0,0:0|0:0,0:0:0:0:
253,41,8024,1,2,0:0:0:0:
253,41,8424,5,8,0:0:0:0:
253,41,8624,2,0,B|167:49|149:119|149:119|180:145|227:135,1,212.5,2|0,0:0|0:0,0:0:0:0:
333,148,9224,2,0,P|291:121|206:147,1,127.5,10|0,0:0|0:0,0:0:0:0:
269,202,9624,1,2,0:0:0:0:
269,202,10024,5,8,0:0:0:0:
269,202,10224,2,0,B|229:218|197:202|197:202|205:242|181:274|181:274|147:261|109:274,1,212.5,2|0,0:0|0:0,0:0:0:0:
5,257,10824,2,0,P|77:287|133:257,1,127.5,10|0,0:0|0:0,0:0:0:0:
64,76,11224,6,0,L|71:203,1,127.500004863739,2|8,0:0|0:0,0:0:0:0:
136,48,11824,2,0,L|143:175,1,127.500004863739,2|0,0:0|0:0,0:0:0:0:
148,270,12424,6,0,L|141:161,1,95.6250036478044,10|0,0:0|0:0,0:0:0:0:
232,48,12824,6,0,L|224:175,1,127.500004863739,2|8,0:0|0:0,0:0:0:0:
305,76,13424,2,0,L|297:203,1,127.500004863739,2|0,0:0|0:0,0:0:0:0:
292,298,14024,6,0,L|298:189,1,95.6250036478044,10|0,0:0|0:0,0:0:0:0:
392,207,14424,6,0,L|386:302,1,85,2|0,0:0|0:0,0:0:0:0:
480,272,14824,1,8,0:0:0:0:
449,155,15024,2,0,P|402:131|352:140,1,85,2|0,0:0|0:0,0:0:0:0:
272,160,15424,1,0,0:0:0:0:
172,133,15624,2,0,L|181:49,1,85,10|0,0:0|0:0,0:0:0:0:
272,160,16024,2,0,B|263:239|263:239|280:280|280:280|272:360,1,170,2|8,0:0|0:0,0:0:0:0:
176,200,16624,6,0,L|186:115,1,85,2|0,0:0|0:0,0:0:0:0:
272,160,17024,1,0,0:0:0:0:
196,280,17224,2,0,P|147:277|114:255,1,85,10|0,0:0|0:0,0:0:0:0:
80,104,17624,2,0,P|105:144|106:185,1,85,10|0,0:0|0:0,0:0:0:0:
24,167,18024,1,8,0:0:0:0:
11,33,18224,2,0,L|195:49,1,170,2|0,0:0|0:0,0:0:0:0:
288,160,18824,6,0,P|248:149|212:96,1,85,10|0,0:0|0:0,0:0:0:0:
302,0,19224,2,0,L|286:96,1,85,2|0,0:0|0:0,0:0:0:0:
264,232,19624,1,8,0:0:0:0:
392,192,19824,2,0,L|378:108,1,85,2|0,0:0|0:0,0:0:0:0:
288,160,20224,1,0,0:0:0:0:
464,264,20424,2,0,L|477:180,1,85,10|0,0:0|0:0,0:0:0:0:
368,280,20824,5,6,0:0:0:0:
291,314,21224,1,12,0:0:0:0:
179,215,21624,5,4,0:0:0:0:
264,232,22024,1,14,0:0:0:0:
291,314,22424,1,6,0:0:0:0:
406,185,22824,5,12,0:0:0:0:
348,250,23224,1,4,0:0:0:0:
264,232,23624,1,14,0:0:0:0:
304,56,24024,5,6,0:0:0:0:
355,251,24224,1,4,0:0:0:0:
360,128,24424,5,12,0:0:0:0:
316,322,24624,1,6,0:0:0:0:
488,224,24824,5,4,0:0:0:0:
180,214,25024,1,4,0:0:0:0:
360,128,25224,6,0,B|374:159|360:192|360:192|344:224|360:264,1,127.5,10|0,0:0|0:0,0:0:0:0:
355,251,25624,1,2,0:0:0:0:
120,152,26424,6,0,L|296:160,1,170
198,9,27224,2,0,P|190:57|222:121,1,74.3750007092953,10|0,0:0|0:0,0:0:0:0:
368,56,27424,2,0,L|223:49,1,74.3750007092953,2|0,0:0|0:0,0:0:0:0:
287,232,27624,2,0,P|295:184|263:120,1,74.3750007092953,2|0,0:0|0:0,0:0:0:0:
195,81,27824,5,10,0:0:0:0:
218,269,28024,2,0,P|250:301|354:269,1,136,6|0,0:0|0:0,0:0:0:0:
289,159,28824,6,0,L|286:234,1,74.3750007092953,10|0,0:0|0:0,0:0:0:0:
398,168,29024,2,0,L|394:93,1,74.3750007092953,2|0,0:0|0:0,0:0:0:0:
256,112,29224,2,0,L|252:186,1,74.3750007092953,2|0,0:0|0:0,0:0:0:0:
432,120,29424,2,0,L|428:45,1,74.3750007092953,2|0,0:0|0:0,0:0:0:0:
208,40,29624,6,0,P|168:48|109:10,1,74.3750007092953,6|0,0:0|0:0,0:0:0:0:
24,128,29824,2,0,P|64:125|111:73,1,74.3750007092953,2|0,0:0|0:0,0:0:0:0:
184,230,30024,2,0,P|145:216|114:155,1,74.3750007092953,2|0,0:0|0:0,0:0:0:0:
264,200,30224,2,0,L|256:288,1,74.3750007092953,2|0,0:0|0:0,0:0:0:0:
360,368,30424,6,0,L|353:293,1,74.3750007092953,10|0,0:0|0:0,0:0:0:0:
336,136,30624,2,0,L|342:210,1,74.3750007092953,2|0,0:0|0:0,0:0:0:0:
400,350,30824,2,0,L|393:275,1,74.3750007092953,2|0,0:0|0:0,0:0:0:0:
376,120,31024,1,10,0:0:0:0:
291,277,31224,6,0,P|354:294|420:235,1,110.499994941712,6|8,0:0|0:0,0:0:0:0:
240,208,31624,6,0,P|204:199|168:208,1,74.3750007092953,2|0,0:0|0:0,0:0:0:0:
88,240,31824,2,0,P|123:248|159:239,1,74.3750007092953,2|0,0:0|0:0,0:0:0:0:
8,128,32024,6,0,L|14:263,1,136,10|0,0:0|0:0,0:0:0:0:
93,350,32624,2,0,L|86:214,1,110.499994941712,2|0,0:0|0:0,0:0:0:0:
5,85,33224,2,0,L|7:144,1,42.5,2|0,0:0|0:0,0:0:0:0:
232,64,33624,6,0,L|152:64,1,74.3750007092953,10|0,0:0|0:0,0:0:0:0:
224,192,33824,2,0,L|298:192,1,74.3750007092953,2|0,0:0|0:0,0:0:0:0:
306,64,34024,2,0,L|226:64,1,74.3750007092953,2|0,0:0|0:0,0:0:0:0:
224,192,34224,5,8,0:0:0:0:
380,50,34424,2,0,B|282:35|282:35|314:75,1,136,6|0,0:0|0:0,0:0:0:0:
432,313,35224,6,0,P|443:266|407:208,1,74.3750007092953,10|0,0:0|0:0,0:0:0:0:
360,129,35424,2,0,P|353:165|364:200,1,74.3750007092953,2|0,0:0|0:0,0:0:0:0:
505,160,35624,2,0,L|417:160,1,74.3750007092953,2|0,0:0|0:0,0:0:0:0:
291,271,35824,2,0,L|365:271,1,74.3750007092953,2|0,0:0|0:0,0:0:0:0:
162,80,36024,6,0,P|152:121|193:186,1,74.3750007092953,6|0,0:0|0:0,0:0:0:0:
210,296,36224,2,0,P|220:255|179:190,1,74.3750007092953,2|0,0:0|0:0,0:0:0:0:
135,318,36424,2,0,P|151:346|187:370,1,74.3750007092953,2|0,0:0|0:0,0:0:0:0:
290,200,36624,2,0,P|269:169|238:149,1,74.3750007092953,2|0,0:0|0:0,0:0:0:0:
58,224,36824,6,0,L|146:224,1,74.3750007092953,10|0,0:0|0:0,0:0:0:0:
364,200,37024,2,0,L|276:200,1,74.3750007092953,2|0,0:0|0:0,0:0:0:0:
85,151,37224,2,0,L|173:151,1,74.3750007092953,2|0,0:0|0:0,0:0:0:0:
212,224,37424,1,10,0:0:0:0:
8,160,37624,6,0,P|24:102|82:73,1,110.499994941712,6|8,0:0|0:0,0:0:0:0:
312,149,38024,2,0,L|224:149,1,74.3750007092953,2|0,0:0|0:0,0:0:0:0:
160,112,38224,2,0,L|256:112,1,74.3750007092953,2|0,0:0|0:0,0:0:0:0:
367,81,38424,6,0,P|399:145|359:225,1,136,10|0,0:0|0:0,0:0:0:0:
384,307,39024,2,0,P|367:242|398:184,1,110.499994941712,2|0,0:0|0:0,0:0:0:0:
487,258,39624,2,0,L|429:251,1,42.5,10|0,0:0|0:0,0:0:0:0:
188,112,40024,6,0,P|224:104|260:113,1,74.3750007092953,10|0,0:0|0:0,0:0:0:0:
261,261,40225,2,0,P|261:223|277:190,1,74.3750007092953,2|0,0:0|0:0,0:0:0:0:
444,252,40424,6,0,L|342:240,1,101.999996887207,6|8,0:0|0:0,0:0:0:0:
352,160,40824,2,0,L|487:175,1,136,2|4,0:0|0:0,0:0:0:0:
115,264,41624,6,0,B|77:273|77:273|42:263,1,74.3750007092953,10|0,0:0|0:0,0:0:0:0:
179,128,41824,2,0,B|217:119|217:119|251:128,1,74.3750007092953,2|0,0:0|0:0,0:0:0:0:
100,167,42024,2,0,P|90:128|98:92,1,74.3750007092953,6|0,0:0|0:0,0:0:0:0:
195,228,42224,2,0,P|204:266|196:302,1,74.3750007092953,10|0,0:0|0:0,0:0:0:0:
48,344,42424,6,0,L|122:344,1,74.3750007092953,2|0,0:0|0:0,0:0:0:0:
271,299,42624,2,0,L|196:299,1,74.3750007092953,10|0,0:0|0:0,0:0:0:0:
347,336,42824,2,0,P|355:304|323:232,1,74.3750007092953,6|0,0:0|0:0,0:0:0:0:
195,155,43024,2,0,P|187:187|219:259,1,74.3750007092953,2|0,0:0|0:0,0:0:0:0:
400,192,43224,6,0,L|272:192,2,127.500004863739,10|2|0,0:0|0:0|0:0,0:0:0:0:
240,64,44024,6,0,L|128:64,1,74.3750007092953,6|0,0:0|0:0,0:0:0:0:
24,136,44224,2,0,L|98:136,1,74.3750007092953,10|0,0:0|0:0,0:0:0:0:
256,88,44424,2,0,L|181:88,1,74.3750007092953,6|0,0:0|0:0,0:0:0:0:
40,168,44624,2,0,L|114:168,1,74.3750007092953,6|0,0:0|0:0,0:0:0:0:
272,248,44824,6,0,P|201:268|149:228,1,136,10|0,0:0|0:0,0:0:0:0:
218,191,45424,1,2,0:0:0:0:
405,285,45624,2,0,P|316:302|270:217,1,170,6|6,0:0|0:0,0:0:0:0:
362,129,46424,1,8,0:0:0:0:
349,231,46824,2,0,L|365:111,1,101.999996887207,4|8,0:0|0:0,0:0:0:0:
451,231,47224,6,0,L|339:231,1,102,2|0,0:0|0:0,0:0:0:0:
196,231,47624,2,0,L|380:231,1,152.999995330811,6|0,0:0|0:0,0:0:0:0:
128,272,48024,6,0,P|117:240|142:174,1,74.3750007092953,10|0,0:0|0:0,0:0:0:0:
208,80,48224,2,0,P|216:112|200:176,1,74.3750007092953,2|0,0:0|0:0,0:0:0:0:
46,168,48424,2,0,P|65:140|130:119,1,74.3750007092953,6|0,0:0|0:0,0:0:0:0:
287,184,48624,2,0,P|268:212|203:233,1,74.3750007092953,10|0,0:0|0:0,0:0:0:0:
213,5,48824,6,0,L|205:117,1,74.3750007092953,2|0,0:0|0:0,0:0:0:0:
99,120,49024,2,0,L|104:45,1,74.3750007092953,10|0,0:0|0:0,0:0:0:0:
314,39,49224,2,0,L|306:151,1,74.3750007092953,10|0,0:0|0:0,0:0:0:0:
202,153,49424,2,0,L|207:78,1,74.3750007092953,2|0,0:0|0:0,0:0:0:0:
362,184,49624,6,0,L|287:184,1,74.3750007092953,10|0,0:0|0:0,0:0:0:0:
287,284,49824,2,0,L|375:284,1,74.3750007092953,2|0,0:0|0:0,0:0:0:0:
448,192,50024,2,0,P|438:145|387:102,1,74.3750007092953,2|0,0:0|0:0,0:0:0:0:
202,153,50224,2,0,P|197:189|208:226,1,74.3750007092953,10|0,0:0|0:0,0:0:0:0:
287,358,50424,6,0,L|287:246,1,74.3750007092953,6|0,0:0|0:0,0:0:0:0:
287,184,50624,1,8,0:0:0:0:
464,344,50824,6,0,P|415:358|368:340,1,101.999996887207,6|6,0:0|0:0,0:0:0:0:
389,197,51224,2,0,P|445:221|420:277,1,136,10|0,0:0|0:0,0:0:0:0:
287,283,51824,1,2,0:0:0:0:
389,197,52024,2,0,L|504:208,1,101.999996887207,2|6,0:0|0:0,0:0:0:0:
448,104,52824,5,2,0:0:0:0:
448,104,53424,1,2,0:0:0:0:
448,104,54024,5,2,0:0:0:0:
368,48,54224,1,0,0:0:0:0:
288,104,54424,2,0,P|232:120|192:103,1,93.5000028533936,2|0,0:0|0:0,0:0:0:0:
241,45,54824,1,0,0:0:0:0:
302,190,55024,2,0,L|286:286,2,93.5000028533936,2|0|0,0:0|0:0|0:0,0:0:0:0:
216,224,55624,2,0,L|200:320,1,93.5000028533936,2|0,0:0|0:0,0:0:0:0:
40,240,56024,6,0,L|132:255,1,93.5000028533936,2|0,0:0|0:0,0:0:0:0:
72,328,56424,1,0,0:0:0:0:
96,168,56624,1,2,0:0:0:0:
200,316,56824,6,0,L|216:396,1,63.7500024318696
264,264,57024,2,0,L|280:344,1,63.7500024318696
328,212,57224,2,0,L|344:292,1,63.7500024318696,2|0,0:0|0:0,0:0:0:0:
392,160,57424,2,0,L|408:240,1,63.7500024318696
418,84,57624,6,0,P|362:84|314:140,2,93.5000028533936,2|0|0,0:0|0:0|0:0,0:0:0:0:
472,144,58224,2,0,L|492:247,1,93.5000028533936,2|0,0:0|0:0,0:0:0:0:
432,320,58624,1,0,0:0:0:0:
340,274,58824,2,0,P|284:266|228:306,1,93.5000028533936,2|0,0:0|0:0,0:0:0:0:
216,200,59224,6,0,P|250:155|244:87,1,93.5000028533936,2|0,0:0|0:0,0:0:0:0:
171,128,59624,1,0,0:0:0:0:
136,216,59824,2,0,L|168:320,2,93.5000028533936
208,366,60424,2,0,P|160:381|104:350,1,93.5000028533936,2|0,0:0|0:0,0:0:0:0:
32,224,60824,6,0,P|68:258|70:326,1,93.5000028533936,2|0,0:0|0:0,0:0:0:0:
0,294,61224,1,0,0:0:0:0:
8,144,61424,2,0,L|120:152,1,93.5000028533936,2|0,0:0|0:0,0:0:0:0:
184,152,61824,1,0,0:0:0:0:
232,83,62024,2,0,P|185:68|136:83,1,93.5000028533936,2|0,0:0|0:0,0:0:0:0:
248,272,62424,6,0,L|254:178,1,93.5000028533936,2|0,0:0|0:0,0:0:0:0:
160,216,62824,1,0,0:0:0:0:
328,224,63024,2,0,L|440:232,2,93.5000028533936,2|0|0,0:0|0:0|0:0,0:0:0:0:
485,182,63624,2,0,P|501:238|465:299,1,93.5000028533936,2|0,0:0|0:0,0:0:0:0:
368,152,64024,6,0,P|358:106|374:63,1,93.5000028533936,2|0,0:0|0:0,0:0:0:0:
384,168,64624,2,0,P|386:121|412:84,1,93.5000028533936,2|0,0:0|0:0,0:0:0:0:
385,201,65224,2,0,P|399:157|435:128,1,93.5000028533936,2|0,0:0|0:0,0:0:0:0:
491,271,65624,5,2,0:0:0:0:
464,201,65824,1,0,0:0:0:0:
359,271,66024,1,8,0:0:0:0:
385,201,66224,1,2,0:0:0:0:
405,336,66424,2,0,P|357:352|303:327,1,93.5000028533936
157,273,66824,2,0,P|208:256|262:281,1,93.5000028533936,10|0,0:0|0:0,0:0:0:0:
205,333,67224,5,2,0:0:0:0:
128,344,67424,1,0,0:0:0:0:
80,262,67624,1,8,0:0:0:0:
157,273,67824,1,2,0:0:0:0:
216,184,68024,2,0,L|328:192,1,93.5000028533936
424,96,68424,2,0,L|330:102,1,93.5000028533936,10|0,0:0|0:0,0:0:0:0:
354,258,68824,6,0,P|386:218|384:157,1,93.5000028533936,2|0,0:0|0:0,0:0:0:0:
309,190,69224,1,8,0:0:0:0:
296,312,69424,2,0,P|344:336|392:328,2,93.5000028533936,2|0|0,0:0|0:0|0:0,0:0:0:0:
224,224,70024,2,0,L|248:104,1,93.5000028533936,10|0,0:0|0:0,0:0:0:0:
368,136,70424,5,2,0:0:0:0:
309,190,70624,1,0,0:0:0:0:
279,62,70824,1,8,0:0:0:0:
242,132,71024,1,2,0:0:0:0:
360,56,71224,2,0,L|456:56,1,93.5000028533936
456,208,71624,6,0,L|432:136,1,63.7500024318696,10|0,0:0|0:0,0:0:0:0:
368,184,71824,2,0,L|392:256,1,63.7500024318696
320,280,72024,6,0,L|286:179,2,93.5000028533936,2|0|8,0:0|0:0|0:0,0:0:0:0:
344,368,72624,1,2,0:0:0:0:
224,328,72824,2,0,L|130:344,1,93.5000028533936
128,216,73224,2,0,L|221:232,1,93.5000028533936,10|0,0:0|0:0,0:0:0:0:
224,328,73624,5,2,0:0:0:0:
240,152,73824,1,0,0:0:0:0:
376,208,74024,1,8,0:0:0:0:
220,231,74224,1,2,0:0:0:0:
208,72,74424,2,0,L|328:88,1,93.5000028533936
472,72,74824,2,0,L|352:88,1,93.5000028533936,10|0,0:0|0:0,0:0:0:0:
192,112,75224,6,0,L|320:128,1,93.5000028533936,2|0,0:0|0:0,0:0:0:0:
192,136,75824,2,0,L|320:152,1,93.5000028533936,2|0,0:0|0:0,0:0:0:0:
192,160,76424,2,0,L|320:176,1,93.5000028533936,10|0,0:0|0:0,0:0:0:0:
480,232,76824,6,0,B|456:232|456:232|432:240|432:240|408:232|408:232|376:232,1,93.5000028533936,2|0,0:0|0:0,0:0:0:0:
480,256,77424,2,0,B|456:256|456:256|432:264|432:264|408:256|408:256|376:256,1,93.5000028533936,2|0,0:0|0:0,0:0:0:0:
504,288,78024,2,0,B|471:288|471:288|438:298|438:298|406:288|406:288|362:288,1,140.25000428009,10|0,0:0|0:0,0:0:0:0:
320,288,78424,5,6,0:0:0:0:
144,288,78624,1,0,0:0:0:0:
216,135,78824,5,12,0:0:0:0:
216,343,79024,1,2,0:0:0:0:
7,285,79224,2,0,B|46:268|78:284|78:284|110:300|150:284,1,140.25000428009,4|0,0:0|0:0,0:0:0:0:
176,272,79624,5,14,0:0:0:0:
48,96,79824,1,0,0:0:0:0:
216,135,80024,5,6,0:0:0:0:
8,176,80224,1,0,0:0:0:0:
216,135,80424,5,12,0:0:0:0:
128,183,80624,1,2,0:0:0:0:
176,272,80824,2,0,P|219:287|264:276,1,93.5000028533936,4|2,0:0|0:0,0:0:0:0:
296,112,81224,2,0,P|295:180|341:223,1,93.5000028533936,12|0,0:0|0:0,0:0:0:0:
376,352,81624,6,0,L|368:216,1,93.5000028533936,6|0,0:0|0:0,0:0:0:0:
456,216,82024,1,12,0:0:0:0:
472,304,82224,1,2,0:0:0:0:
376,352,82424,2,0,L|282:352,1,93.5000028533936,4|0,0:0|0:0,0:0:0:0:
144,288,82824,2,0,P|184:264|259:286,1,93.5000028533936,14|0,0:0|0:0,0:0:0:0:
202,340,83224,5,6,0:0:0:0:
80,336,83424,1,0,0:0:0:0:
104,144,83624,1,12,0:0:0:0:
144,288,83824,1,2,0:0:0:0:
37,185,84024,5,4,0:0:0:0:
33,156,84124,1,0,0:0:0:0:
50,132,84224,1,4,0:0:0:0:
79,127,84324,1,4,0:0:0:0:
103,143,84424,1,14,0:0:0:0:
133,166,84524,1,0,0:0:0:0:
170,175,84624,1,4,0:0:0:0:
207,169,84724,1,0,0:0:0:0:
238,147,84824,6,0,P|216:96|232:40,2,93.5000028533936,6|0|12,0:0|0:0|0:0,0:0:0:0:
328,176,85424,1,2,0:0:0:0:
386,91,85624,2,0,L|282:91,1,93.5000028533936,4|0,0:0|0:0,0:0:0:0:
459,122,86024,2,0,P|462:73|442:34,1,93.5000028533936,14|0,0:0|0:0,0:0:0:0:
386,91,86424,5,6,0:0:0:0:
392,272,86624,1,0,0:0:0:0:
480,184,86824,5,12,0:0:0:0:
272,216,87024,1,2,0:0:0:0:
376,360,87224,6,0,L|472:344,1,93.5000028533936,4|0,0:0|0:0,0:0:0:0:
468,344,87624,1,14,0:0:0:0:
176,88,88024,5,6,0:0:0:0:
200,296,88224,1,4,0:0:0:0:
232,24,88424,5,12,0:0:0:0:
140,235,88624,1,6,0:0:0:0:
328,216,88824,5,4,0:0:0:0:
16,240,89024,1,4,0:0:0:0:
231,24,89224,6,0,P|291:23|270:79,1,140.25000428009,14|0,0:0|0:0,0:0:0:0:
270,78,89624,1,2,0:0:0:0:
120,152,90424,6,0,B|168:168|168:168|216:152|216:152|264:168|264:168|328:152,1,187.000005706787
54,110,91224,2,0,P|43:159|70:214,1,74.3750007092953,10|0,0:0|0:0,0:0:0:0:
146,309,91424,2,0,P|151:272|140:237,1,74.3750007092953,2|0,0:0|0:0,0:0:0:0:
0,274,91624,2,0,L|104:282,1,74.3750007092953,2|0,0:0|0:0,0:0:0:0:
120,152,91824,5,10,0:0:0:0:
98,367,92024,2,0,P|130:383|218:335,1,136,6|0,0:0|0:0,0:0:0:0:
280,168,92824,6,0,P|271:201|279:241,1,74.3750007092953,10|0,0:0|0:0,0:0:0:0:
409,111,93024,2,0,P|417:75|408:40,1,74.3750007092953,2|0,0:0|0:0,0:0:0:0:
274,89,93224,2,0,P|238:98|211:123,1,74.3750007092953,2|0,0:0|0:0,0:0:0:0:
414,195,93424,2,0,P|449:185|476:160,1,74.3750007092953,2|0,0:0|0:0,0:0:0:0:
192,200,93624,6,0,L|88:200,1,74.3750007092953,6|0,0:0|0:0,0:0:0:0:
56,80,93824,2,0,L|160:80,1,74.3750007092953,2|0,0:0|0:0,0:0:0:0:
152,224,94024,2,0,L|64:224,1,74.3750007092953,2|0,0:0|0:0,0:0:0:0:
95,56,94224,2,0,L|170:56,1,74.3750007092953,2|0,0:0|0:0,0:0:0:0:
278,239,94424,6,0,L|285:314,1,74.3750007092953,10|0,0:0|0:0,0:0:0:0:
407,269,94624,2,0,L|414:194,1,74.3750007092953,2|0,0:0|0:0,0:0:0:0:
271,164,94824,2,0,L|278:239,1,74.3750007092953,2|0,0:0|0:0,0:0:0:0:
419,119,95024,1,10,0:0:0:0:
224,64,95224,6,0,L|237:210,1,110.499994941712,6|8,0:0|0:0,0:0:0:0:
160,312,95624,6,0,B|120:320|120:320|80:312,1,74.3750007092953,2|0,0:0|0:0,0:0:0:0:
8,272,95824,2,0,B|48:264|48:264|88:272,1,74.3750007092953,2|0,0:0|0:0,0:0:0:0:
296,320,96024,6,0,L|139:312,1,136,10|0,0:0|0:0,0:0:0:0:
233,174,96624,2,0,L|359:167,1,110.499994941712,2|0,0:0|0:0,0:0:0:0:
338,322,97224,2,0,L|281:319,1,42.5,2|0,0:0|0:0,0:0:0:0:
301,74,97624,6,0,L|309:162,1,74.3750007092953,10|0,0:0|0:0,0:0:0:0:
392,192,97824,2,0,L|384:104,1,74.3750007092953,2|0,0:0|0:0,0:0:0:0:
233,174,98024,2,0,L|239:248,1,74.3750007092953,2|0,0:0|0:0,0:0:0:0:
385,117,98224,5,8,0:0:0:0:
179,114,98424,2,0,B|152:128|116:112|116:112|82:98|48:112,1,136,6|0,0:0|0:0,0:0:0:0:
219,258,99224,6,0,P|227:294|216:330,1,74.3750007092953,10|0,0:0|0:0,0:0:0:0:
79,249,99424,2,0,P|72:213|83:178,1,74.3750007092953,2|0,0:0|0:0,0:0:0:0:
294,252,99624,2,0,L|220:259,1,74.3750007092953,2|0,0:0|0:0,0:0:0:0:
82,177,99824,2,0,L|157:171,1,74.3750007092953,2|0,0:0|0:0,0:0:0:0:
224,48,100024,6,0,P|214:89|255:154,1,74.3750007092953,6|0,0:0|0:0,0:0:0:0:
362,291,100224,2,0,P|372:250|331:185,1,74.3750007092953,2|0,0:0|0:0,0:0:0:0:
145,328,100424,2,0,P|186:338|251:297,1,74.3750007092953,2|0,0:0|0:0,0:0:0:0:
402,152,100624,2,0,P|361:142|296:183,1,74.3750007092953,2|0,0:0|0:0,0:0:0:0:
79,249,100824,6,0,L|167:249,1,74.3750007092953,10|0,0:0|0:0,0:0:0:0:
362,291,101024,2,0,L|274:291,1,74.3750007092953,2|0,0:0|0:0,0:0:0:0:
128,168,101224,2,0,L|216:168,1,74.3750007092953,2|0,0:0|0:0,0:0:0:0:
216,330,101424,1,10,0:0:0:0:
109,97,101624,6,0,L|221:97,1,110.499994941712,6|8,0:0|0:0,0:0:0:0:
473,148,102024,2,0,P|437:158|401:151,1,74.3750007092953,2|0,0:0|0:0,0:0:0:0:
296,72,102224,2,0,P|331:61|367:68,1,74.3750007092953,2|0,0:0|0:0,0:0:0:0:
323,203,102424,6,0,L|304:343,1,136,10|0,0:0|0:0,0:0:0:0:
192,160,103024,2,0,L|216:304,1,136,2|0,0:0|0:0,0:0:0:0:
335,135,103624,2,0,L|317:233,1,68,2|0,0:0|0:0,0:0:0:0:
167,99,104024,6,0,P|203:91|239:100,1,74.3750007092953,10|0,0:0|0:0,0:0:0:0:
114,155,104224,2,0,P|94:123|90:87,1,74.3750007092953,2|0,0:0|0:0,0:0:0:0:
202,168,104424,2,0,L|178:312,1,101.999996887207,6|8,0:0|0:0,0:0:0:0:
264,360,104824,2,0,L|286:225,1,136,2|4,0:0|0:0,0:0:0:0:
112,232,105624,6,0,P|72:240|32:224,1,74.3750007092953,10|0,0:0|0:0,0:0:0:0:
238,99,105824,2,0,P|278:91|318:107,1,74.3750007092953,2|0,0:0|0:0,0:0:0:0:
81,165,106024,2,0,P|94:126|127:99,1,74.3750007092953,6|0,0:0|0:0,0:0:0:0:
271,166,106224,2,0,P|262:201|237:228,1,74.3750007092953,10|0,0:0|0:0,0:0:0:0:
80,32,106424,6,0,L|154:32,1,74.3750007092953,2|0,0:0|0:0,0:0:0:0:
345,166,106624,2,0,L|270:166,1,74.3750007092953,10|0,0:0|0:0,0:0:0:0:
304,352,106824,2,0,P|312:320|280:248,1,74.3750007092953,6|0,0:0|0:0,0:0:0:0:
192,128,107024,2,0,P|184:160|216:232,1,74.3750007092953,2|0,0:0|0:0,0:0:0:0:
470,171,107224,6,0,B|406:157|406:157|310:171,2,127.500004863739,10|2|0,0:0|0:0|0:0,0:0:0:0:
235,316,108024,6,0,B|200:328|200:328|128:312,1,74.3750007092953,6|0,0:0|0:0,0:0:0:0:
48,232,108224,2,0,B|83:220|83:220|155:236,1,74.3750007092953,10|0,0:0|0:0,0:0:0:0:
240,344,108424,2,0,B|205:356|205:356|133:340,1,74.3750007092953,6|0,0:0|0:0,0:0:0:0:
43,204,108624,2,0,B|78:192|78:192|150:208,1,74.3750007092953,6|0,0:0|0:0,0:0:0:0:
376,248,108824,6,0,P|307:275|243:227,1,136,10|0,0:0|0:0,0:0:0:0:
316,193,109424,1,2,0:0:0:0:
493,268,109624,2,0,P|445:308|378:228,1,170,6|6,0:0|0:0,0:0:0:0:
408,32,110424,6,0,L|394:105,1,74.3750007092953,10|0,0:0|0:0,0:0:0:0:
362,321,110624,2,0,L|375:247,1,74.3750007092953,2|0,0:0|0:0,0:0:0:0:
240,80,110824,2,0,L|253:153,1,74.3750007092953,6|0,0:0|0:0,0:0:0:0:
286,369,111024,2,0,L|272:295,1,74.3750007092953,10|0,0:0|0:0,0:0:0:0:
155,152,111224,2,0,B|187:104|251:88|355:120|291:184|251:152,1,220.999989883423,2|6,0:0|0:0,0:0:0:0:
64,248,112024,6,0,P|57:284|68:319,1,74.3750007092953,10|0,0:0|0:0,0:0:0:0:
155,152,112224,2,0,P|161:115|150:80,1,74.3750007092953,2|0,0:0|0:0,0:0:0:0:
134,278,112424,2,0,L|230:278,1,74.3750007092953,6|0,0:0|0:0,0:0:0:0:
326,152,112624,2,0,L|218:153,1,74.3750007092953,10|0,0:0|0:0,0:0:0:0:
397,182,112824,6,0,P|401:145|390:110,1,74.3750007092953,2|0,0:0|0:0,0:0:0:0:
289,232,113024,2,0,P|284:268|296:304,1,74.3750007092953,10|0,0:0|0:0,0:0:0:0:
461,84,113224,2,0,P|441:52|410:33,1,74.3750007092953,6|0,0:0|0:0,0:0:0:0:
363,262,113424,2,0,P|384:296|413:312,1,74.3750007092953,2|0,0:0|0:0,0:0:0:0:
326,152,113624,6,0,L|251:152,1,74.3750007092953,10|0,0:0|0:0,0:0:0:0:
75,80,113824,2,0,L|150:80,1,74.3750007092953,2|0,0:0|0:0,0:0:0:0:
392,112,114024,2,0,P|402:155|389:194,1,74.3750007092953,2|0,0:0|0:0,0:0:0:0:
216,312,114224,2,0,P|206:269|219:230,1,74.3750007092953,10|0,0:0|0:0,0:0:0:0:
335,33,114424,6,0,L|409:33,1,74.3750007092953,6|0,0:0|0:0,0:0:0:0:
394,183,114624,1,8,0:0:0:0:
213,240,114824,6,0,B|189:248|189:248|160:240|160:240|133:248|133:248|101:240,1,101.999996887207,6|4,0:0|0:0,0:0:0:0:
94,317,115224,2,0,B|129:326|129:326|162:317|162:317|196:326|196:326|225:317,1,136,10|0,0:0|0:0,0:0:0:0:
160,240,115824,1,6,0:0:0:0:
160,138,116024,2,0,L|160:242,1,101.999996887207,6|6,0:0|0:0,0:0:0:0:
160,240,116824,5,2,0:0:0:0:
