osu file format v14

[General]
AudioFilename: okdad.mp3
AudioLeadIn: 2000
PreviewTime: 12436
Countdown: 0
SampleSet: None
StackLeniency: 0.7
Mode: 3
LetterboxInBreaks: 0
SpecialStyle: 0
WidescreenStoryboard: 1

[Editor]
DistanceSpacing: 1
BeatDivisor: 2
GridSize: 4
TimelineZoom: 2.1

[Metadata]
Title:Future Son
TitleUnicode:Future Son
Artist:ARCIEN
ArtistUnicode:ARCIEN
Creator:FruityEnLoops
Version:Easy
Source:
Tags:
BeatmapID:1371600
BeatmapSetID:647453

[Difficulty]
HPDrainRate:6
CircleSize:4
OverallDifficulty:6.5
ApproachRate:2
SliderMultiplier:1.1
SliderTickRate:1

[Events]
//Background and Video events
0,0,"stolenbackground.jpg",0,0
//Break Periods
//Storyboard Layer 0 (Background)
//Storyboard Layer 1 (Fail)
//Storyboard Layer 2 (Pass)
//Storyboard Layer 3 (Foreground)
//Storyboard Sound Samples

[TimingPoints]
33,400,4,3,1,100,1,0

[Colours]
Combo1 : 0,62,62
Combo2 : 215,255,174
Combo3 : 0,102,51
Combo4 : 245,255,179

[HitObjects]
448,192,33,128,0,1233:0:0:0:0:
320,192,1233,128,0,3233:0:0:0:0:
192,192,3233,128,0,4433:0:0:0:0:
448,192,4433,128,0,6433:0:0:0:0:
192,192,6433,128,0,7633:0:0:0:0:
320,192,7633,128,0,9633:0:0:0:0:
64,192,9633,128,0,10833:0:0:0:0:
448,192,10833,128,0,12833:0:0:0:0:
192,192,12833,1,0,0:0:0:0:
320,192,13033,1,0,0:0:0:0:
448,192,13233,1,0,0:0:0:0:
64,192,13433,1,0,0:0:0:0:
448,192,13633,128,0,14033:0:0:0:0:
192,192,14033,1,0,0:0:0:0:
64,192,14233,1,0,0:0:0:0:
192,192,14433,1,0,0:0:0:0:
320,192,14633,1,0,0:0:0:0:
448,192,14833,1,0,0:0:0:0:
320,192,15033,1,0,0:0:0:0:
192,192,15233,128,0,15633:0:0:0:0:
320,192,15633,128,0,16033:0:0:0:0:
192,192,16033,1,0,0:0:0:0:
64,192,16233,1,0,0:0:0:0:
192,192,16433,1,0,0:0:0:0:
320,192,16633,1,0,0:0:0:0:
448,192,16833,128,0,17233:0:0:0:0:
320,192,17233,1,0,0:0:0:0:
192,192,17433,1,0,0:0:0:0:
64,192,17633,1,0,0:0:0:0:
192,192,17833,1,0,0:0:0:0:
320,192,18033,1,0,0:0:0:0:
448,192,18233,1,0,0:0:0:0:
320,192,18433,128,0,18833:0:0:0:0:
192,192,18833,128,0,19233:0:0:0:0:
448,192,19233,1,0,0:0:0:0:
320,192,19433,1,0,0:0:0:0:
64,192,19633,1,0,0:0:0:0:
448,192,19833,1,0,0:0:0:0:
320,192,20033,128,0,20433:0:0:0:0:
192,192,20433,1,0,0:0:0:0:
64,192,20633,1,0,0:0:0:0:
448,192,20833,1,0,0:0:0:0:
320,192,21033,1,0,0:0:0:0:
192,192,21233,1,0,0:0:0:0:
64,192,21433,1,0,0:0:0:0:
448,192,21633,1,0,0:0:0:0:
320,192,21633,1,0,0:0:0:0:
192,192,22033,128,0,22433:0:0:0:0:
320,192,22433,1,0,0:0:0:0:
448,192,22633,1,0,0:0:0:0:
64,192,22833,1,0,0:0:0:0:
192,192,23033,1,0,0:0:0:0:
320,192,23233,128,0,23633:0:0:0:0:
448,192,23633,128,0,24833:0:0:0:0:
192,192,24833,1,0,0:0:0:0:
320,192,25033,1,0,0:0:0:0:
192,192,25233,1,0,0:0:0:0:
320,192,25433,1,0,0:0:0:0:
448,192,25633,1,0,0:0:0:0:
320,192,25833,1,0,0:0:0:0:
192,192,26033,1,0,0:0:0:0:
64,192,26233,1,0,0:0:0:0:
192,192,26433,128,0,26833:0:0:0:0:
320,192,26833,1,0,0:0:0:0:
448,192,27033,1,0,0:0:0:0:
320,192,27233,1,0,0:0:0:0:
192,192,27433,1,0,0:0:0:0:
64,192,27633,1,0,0:0:0:0:
192,192,27833,1,0,0:0:0:0:
320,192,28033,128,0,28433:0:0:0:0:
192,192,28433,128,0,28833:0:0:0:0:
320,192,28833,1,0,0:0:0:0:
64,192,29033,1,0,0:0:0:0:
448,192,29233,1,0,0:0:0:0:
192,192,29433,1,0,0:0:0:0:
320,192,29633,128,0,30033:0:0:0:0:
64,192,30033,1,0,0:0:0:0:
320,192,30233,1,0,0:0:0:0:
192,192,30433,1,0,0:0:0:0:
448,192,30633,1,0,0:0:0:0:
64,192,30833,1,0,0:0:0:0:
448,192,31033,1,0,0:0:0:0:
320,192,31233,128,0,31633:0:0:0:0:
192,192,31633,128,0,32033:0:0:0:0:
320,192,32033,1,0,0:0:0:0:
448,192,32233,1,0,0:0:0:0:
192,192,32433,1,0,0:0:0:0:
64,192,32633,1,0,0:0:0:0:
320,192,32833,128,0,33233:0:0:0:0:
192,192,33233,1,0,0:0:0:0:
64,192,33433,1,0,0:0:0:0:
448,192,33633,1,0,0:0:0:0:
320,192,33833,1,0,0:0:0:0:
64,192,34033,1,0,0:0:0:0:
192,192,34233,1,0,0:0:0:0:
320,192,34433,1,0,0:0:0:0:
448,192,34433,1,0,0:0:0:0:
192,192,34833,128,0,35233:0:0:0:0:
320,192,35233,128,0,35833:0:0:0:0:
64,192,35833,128,0,36433:0:0:0:0:
192,192,35833,1,0,0:0:0:0:
320,192,36433,128,0,38433:0:0:0:0:
192,192,36433,1,0,0:0:0:0:
448,192,37633,1,0,0:0:0:0:
192,192,37833,1,0,0:0:0:0:
448,192,38033,1,0,0:0:0:0:
192,192,38233,1,0,0:0:0:0:
64,192,38433,1,0,0:0:0:0:
192,192,38633,1,0,0:0:0:0:
320,192,38833,1,0,0:0:0:0:
448,192,39033,1,0,0:0:0:0:
320,192,39233,128,0,39633:0:0:0:0:
64,192,39633,1,0,0:0:0:0:
192,192,39833,1,0,0:0:0:0:
320,192,40033,1,0,0:0:0:0:
320,192,40233,1,0,0:0:0:0:
64,192,40433,1,0,0:0:0:0:
192,192,40633,1,0,0:0:0:0:
320,192,40833,128,0,41233:0:0:0:0:
448,192,41233,128,0,41633:0:0:0:0:
320,192,41633,1,0,0:0:0:0:
192,192,41833,1,0,0:0:0:0:
448,192,42033,1,0,0:0:0:0:
320,192,42233,1,0,0:0:0:0:
192,192,42433,128,0,42833:0:0:0:0:
64,192,42833,1,0,0:0:0:0:
192,192,43033,1,0,0:0:0:0:
320,192,43233,1,0,0:0:0:0:
192,192,43433,1,0,0:0:0:0:
320,192,43633,1,0,0:0:0:0:
448,192,43833,1,0,0:0:0:0:
64,192,44033,128,0,44433:0:0:0:0:
448,192,44433,128,0,44833:0:0:0:0:
192,192,44833,1,0,0:0:0:0:
64,192,45033,1,0,0:0:0:0:
320,192,45233,1,0,0:0:0:0:
448,192,45433,1,0,0:0:0:0:
192,192,45633,128,0,46033:0:0:0:0:
448,192,46033,1,0,0:0:0:0:
320,192,46233,1,0,0:0:0:0:
64,192,46433,1,0,0:0:0:0:
192,192,46633,1,0,0:0:0:0:
320,192,46833,1,0,0:0:0:0:
448,192,47033,1,0,0:0:0:0:
320,192,47233,1,0,0:0:0:0:
192,192,47233,1,0,0:0:0:0:
64,192,47633,128,0,48033:0:0:0:0:
448,192,47633,128,0,48033:0:0:0:0:
192,192,48033,128,0,48633:0:0:0:0:
64,192,48633,128,0,49233:0:0:0:0:
320,192,48633,1,0,0:0:0:0:
192,192,49233,128,0,51233:0:0:0:0:
320,192,49233,1,0,0:0:0:0:
320,192,50433,1,0,0:0:0:0:
64,192,50633,1,0,0:0:0:0:
320,192,50833,1,0,0:0:0:0:
64,192,51033,1,0,0:0:0:0:
320,192,51233,1,0,0:0:0:0:
448,192,51433,1,0,0:0:0:0:
320,192,51633,1,0,0:0:0:0:
192,192,51833,1,0,0:0:0:0:
64,192,52033,128,0,52433:0:0:0:0:
448,192,52433,1,0,0:0:0:0:
320,192,52633,1,0,0:0:0:0:
192,192,52833,1,0,0:0:0:0:
64,192,53033,1,0,0:0:0:0:
192,192,53233,1,0,0:0:0:0:
320,192,53433,1,0,0:0:0:0:
448,192,53633,128,0,54033:0:0:0:0:
320,192,54033,128,0,54433:0:0:0:0:
192,192,54433,1,0,0:0:0:0:
320,192,54633,1,0,0:0:0:0:
448,192,54833,1,0,0:0:0:0:
320,192,55033,1,0,0:0:0:0:
192,192,55233,128,0,55633:0:0:0:0:
64,192,55633,1,0,0:0:0:0:
192,192,55833,1,0,0:0:0:0:
320,192,56033,1,0,0:0:0:0:
192,192,56233,1,0,0:0:0:0:
64,192,56433,1,0,0:0:0:0:
192,192,56633,1,0,0:0:0:0:
320,192,56833,128,0,57233:0:0:0:0:
192,192,57233,128,0,57633:0:0:0:0:
448,192,57633,1,0,0:0:0:0:
320,192,57833,1,0,0:0:0:0:
448,192,58033,1,0,0:0:0:0:
192,192,58233,1,0,0:0:0:0:
448,192,58433,128,0,58833:0:0:0:0:
192,192,58833,1,0,0:0:0:0:
64,192,59033,1,0,0:0:0:0:
192,192,59233,1,0,0:0:0:0:
64,192,59433,1,0,0:0:0:0:
320,192,59633,1,0,0:0:0:0:
64,192,59833,1,0,0:0:0:0:
192,192,60033,128,0,60433:0:0:0:0:
64,192,60433,128,0,60833:0:0:0:0:
320,192,60833,128,0,61433:0:0:0:0:
448,192,61433,128,0,62033:0:0:0:0:
320,192,62033,128,0,64033:0:0:0:0:
448,192,63233,1,0,0:0:0:0:
192,192,63433,1,0,0:0:0:0:
448,192,63633,1,0,0:0:0:0:
192,192,63833,1,0,0:0:0:0:
64,192,64033,128,0,67233:0:0:0:0:
448,192,64033,128,0,67233:0:0:0:0:
