osu file format v14

[General]
AudioFilename: audio.mp3
AudioLeadIn: 0
PreviewTime: 9356
Countdown: 0
SampleSet: Soft
StackLeniency: 0.7
Mode: 3
LetterboxInBreaks: 0
SpecialStyle: 0
WidescreenStoryboard: 0

[Editor]
DistanceSpacing: 0.9
BeatDivisor: 12
GridSize: 4
TimelineZoom: 2.899999

[Metadata]
Title:Future Son
TitleUnicode:Future Son
Artist:ARCIEN
ArtistUnicode:ARCIEN
Creator:AncuL
Version:GOD DAMN IT, OKAY DAD
Source:
Tags:edm electronic dance music bass
BeatmapID:1634002
BeatmapSetID:777881

[Difficulty]
HPDrainRate:8.5
CircleSize:4
OverallDifficulty:8.7
ApproachRate:5
SliderMultiplier:1.4
SliderTickRate:1

[Events]
//Background and Video events
0,0,"Konachan.com_-_198887_animal_barefoot_blonde_hair_bloodborne_doll_fish_flowers_goth-loli_hat_headdre (2).jpg",0,0
//Break Periods
//Storyboard Layer 0 (Background)
//Storyboard Layer 1 (Fail)
//Storyboard Layer 2 (Pass)
//Storyboard Layer 3 (Foreground)
//Storyboard Sound Samples

[TimingPoints]
23,400,4,2,1,60,1,0

[HitObjects]
320,192,23,5,4,0:0:0:95:
448,192,23,1,0,0:0:0:0:
192,192,23,1,0,0:0:0:0:
64,192,23,1,0,0:0:0:0:
64,192,148,1,0,0:0:0:0:
320,192,198,128,0,1223:0:0:0:0:
448,192,1223,1,0,0:0:0:0:
192,192,1256,1,0,0:0:0:0:
64,192,1289,128,0,3223:0:0:0:0:
448,192,3223,1,0,0:0:0:0:
192,192,3256,1,0,0:0:0:0:
320,192,3289,128,0,4423:0:0:0:0:
448,192,4423,1,0,0:0:0:0:
64,192,4456,1,0,0:0:0:0:
192,192,4489,128,0,6423:0:0:0:0:
320,192,6423,1,0,0:0:0:0:
192,192,6473,1,0,0:0:0:0:
64,192,6548,1,0,0:0:0:0:
448,192,6598,128,0,7623:0:0:0:0:
64,192,7623,1,0,0:0:0:0:
192,192,7656,1,0,0:0:0:0:
320,192,7689,128,0,9623:0:0:0:0:
448,192,9623,1,0,0:0:0:0:
192,192,9656,1,0,0:0:0:0:
64,192,9689,128,0,10823:0:0:0:0:
448,192,10823,1,0,0:0:0:0:
192,192,10856,1,0,0:0:0:0:
320,192,10889,128,0,11623:0:0:0:0:
192,192,11623,1,0,0:0:0:0:
320,192,11689,1,0,0:0:0:0:
448,192,11756,1,0,0:0:0:0:
64,192,11823,1,0,0:0:0:0:
192,192,11889,1,0,0:0:0:0:
320,192,11956,1,0,0:0:0:0:
64,192,12023,1,0,0:0:0:0:
320,192,12089,1,0,0:0:0:0:
448,192,12156,1,0,0:0:0:0:
64,192,12223,1,0,0:0:0:0:
320,192,12289,1,0,0:0:0:0:
64,192,12356,1,0,0:0:0:0:
192,192,12423,1,0,0:0:0:0:
448,192,12489,1,0,0:0:0:0:
192,192,12556,1,0,0:0:0:0:
64,192,12623,1,0,0:0:0:0:
448,192,12689,1,0,0:0:0:0:
320,192,12756,1,0,0:0:0:0:
448,192,12823,5,0,0:0:0:95:Kick.wav
192,192,12823,1,4,0:0:0:95:
64,192,12823,1,0,0:0:0:0:
320,192,12889,1,0,0:0:0:0:
64,192,12956,1,0,0:0:0:0:
448,192,13023,1,0,0:0:0:0:
320,192,13023,1,0,0:0:0:0:
192,192,13089,1,0,0:0:0:0:
448,192,13156,1,0,0:0:0:0:
64,192,13223,1,0,0:0:0:0:
320,192,13223,1,0,0:0:0:0:
192,192,13289,1,0,0:0:0:0:
320,192,13356,1,0,0:0:0:0:
192,192,13423,1,0,0:0:0:0:
448,192,13423,1,0,0:0:0:0:
64,192,13489,1,0,0:0:0:0:
320,192,13556,1,0,0:0:0:0:
192,192,13623,1,0,0:0:0:85:Snare.wav
448,192,13623,1,0,0:0:0:0:
64,192,13623,1,0,0:0:0:0:
320,192,13723,1,0,0:0:0:0:
192,192,13823,1,0,0:0:0:0:
192,192,13923,1,0,0:0:0:0:
64,192,14023,1,4,0:0:0:95:
320,192,14023,1,0,0:0:0:95:Kick.wav
448,192,14023,1,0,0:0:0:0:
192,192,14089,1,0,0:0:0:0:
448,192,14156,1,0,0:0:0:0:
64,192,14223,1,0,0:0:0:0:
192,192,14223,1,0,0:0:0:0:
320,192,14289,1,0,0:0:0:0:
64,192,14356,1,0,0:0:0:0:
448,192,14423,1,0,0:0:0:0:
192,192,14423,1,0,0:0:0:0:
320,192,14489,1,0,0:0:0:0:
192,192,14556,1,0,0:0:0:0:
64,192,14623,1,0,0:0:0:0:
320,192,14623,1,0,0:0:0:0:
448,192,14689,1,0,0:0:0:0:
192,192,14756,1,0,0:0:0:0:
64,192,14823,1,0,0:0:0:0:
320,192,14823,1,0,0:0:0:0:
448,192,14889,1,0,0:0:0:0:
64,192,14956,1,0,0:0:0:0:
448,192,15023,1,0,0:0:0:0:
192,192,15023,1,0,0:0:0:0:
320,192,15089,1,0,0:0:0:0:
64,192,15156,1,0,0:0:0:0:
320,192,15223,1,0,0:0:0:85:Snare.wav
448,192,15223,1,0,0:0:0:0:
192,192,15223,1,0,0:0:0:0:
448,192,15356,1,0,0:0:0:0:
64,192,15356,1,0,0:0:0:0:
64,192,15489,1,0,0:0:0:0:
448,192,15489,1,0,0:0:0:0:
64,192,15623,128,0,15723:0:0:0:0:
320,192,15623,128,0,15723:0:0:0:0:
192,192,15823,128,0,15923:0:0:0:0:
448,192,15823,128,0,15923:0:0:0:0:
448,192,16023,1,4,0:0:0:95:
64,192,16023,1,0,0:0:0:95:Kick.wav
192,192,16023,1,0,0:0:0:0:
320,192,16089,1,0,0:0:0:0:
192,192,16156,1,0,0:0:0:0:
448,192,16223,1,0,0:0:0:0:
320,192,16223,1,0,0:0:0:0:
64,192,16289,1,0,0:0:0:0:
448,192,16356,1,0,0:0:0:0:
320,192,16423,1,0,0:0:0:0:
192,192,16423,1,0,0:0:0:0:
64,192,16489,1,0,0:0:0:0:
320,192,16556,1,0,0:0:0:0:
64,192,16623,1,0,0:0:0:0:
448,192,16623,1,0,0:0:0:0:
192,192,16689,1,0,0:0:0:0:
320,192,16756,1,0,0:0:0:0:
448,192,16823,1,0,0:0:0:85:Snare.wav
64,192,16823,1,0,0:0:0:0:
192,192,16823,1,0,0:0:0:0:
320,192,16923,1,0,0:0:0:0:
192,192,17023,1,0,0:0:0:0:
192,192,17123,1,0,0:0:0:0:
320,192,17223,1,4,0:0:0:95:
64,192,17223,1,0,0:0:0:95:Kick.wav
448,192,17223,1,0,0:0:0:0:
192,192,17289,1,0,0:0:0:0:
320,192,17356,1,0,0:0:0:0:
448,192,17423,1,0,0:0:0:0:
64,192,17423,1,0,0:0:0:0:
320,192,17489,1,0,0:0:0:0:
64,192,17556,1,0,0:0:0:0:
320,192,17623,1,0,0:0:0:0:
192,192,17623,1,0,0:0:0:0:
448,192,17689,1,0,0:0:0:0:
192,192,17756,1,0,0:0:0:0:
448,192,17823,1,0,0:0:0:0:
64,192,17823,1,0,0:0:0:0:
320,192,17889,1,0,0:0:0:0:
64,192,17956,1,0,0:0:0:0:
192,192,18023,1,0,0:0:0:0:
448,192,18023,1,0,0:0:0:0:
320,192,18089,1,0,0:0:0:0:
192,192,18156,1,0,0:0:0:0:
320,192,18223,1,0,0:0:0:0:
64,192,18223,1,0,0:0:0:0:
448,192,18289,1,0,0:0:0:0:
192,192,18356,1,0,0:0:0:0:
64,192,18423,1,0,0:0:0:85:Snare.wav
320,192,18423,1,0,0:0:0:0:
448,192,18423,128,0,18556:0:0:0:0:
64,192,18556,1,0,0:0:0:0:
448,192,18623,1,0,0:0:0:0:
320,192,18623,128,0,18756:0:0:0:0:
64,192,18689,1,0,0:0:0:0:
192,192,18823,128,0,18923:0:0:0:0:
320,192,18823,128,0,18923:0:0:0:0:
64,192,19023,128,0,19123:0:0:0:0:
192,192,19023,128,0,19123:0:0:0:0:
448,192,19223,1,4,0:0:0:95:
320,192,19223,1,0,0:0:0:95:Kick.wav
64,192,19223,1,0,0:0:0:0:
192,192,19289,1,0,0:0:0:0:
448,192,19356,1,0,0:0:0:0:
64,192,19423,1,0,0:0:0:0:
192,192,19423,1,0,0:0:0:0:
320,192,19489,1,0,0:0:0:0:
64,192,19556,1,0,0:0:0:0:
192,192,19623,1,0,0:0:0:0:
448,192,19623,1,0,0:0:0:0:
320,192,19689,1,0,0:0:0:0:
192,192,19756,1,0,0:0:0:0:
64,192,19823,1,0,0:0:0:0:
320,192,19823,1,0,0:0:0:0:
448,192,19889,1,0,0:0:0:0:
192,192,19956,1,0,0:0:0:0:
320,192,20023,1,0,0:0:0:85:Snare.wav
64,192,20023,1,0,0:0:0:0:
448,192,20023,1,0,0:0:0:0:
192,192,20123,1,0,0:0:0:0:
320,192,20223,1,0,0:0:0:95:Kick.wav
64,192,20223,1,0,0:0:0:0:
320,192,20323,1,0,0:0:0:0:
64,192,20423,1,4,0:0:0:95:
448,192,20423,1,0,0:0:0:95:Kick.wav
192,192,20423,1,0,0:0:0:0:
320,192,20489,1,0,0:0:0:0:
64,192,20556,1,0,0:0:0:0:
320,192,20623,1,0,0:0:0:0:
192,192,20623,1,0,0:0:0:0:
448,192,20689,1,0,0:0:0:0:
192,192,20756,1,0,0:0:0:0:
320,192,20823,1,0,0:0:0:0:
64,192,20823,1,0,0:0:0:0:
448,192,20889,1,0,0:0:0:0:
64,192,20956,1,0,0:0:0:0:
448,192,21023,1,0,0:0:0:0:
320,192,21023,1,0,0:0:0:0:
192,192,21089,1,0,0:0:0:0:
320,192,21156,1,0,0:0:0:0:
64,192,21223,1,0,0:0:0:0:
448,192,21223,1,0,0:0:0:0:
192,192,21289,1,0,0:0:0:0:
448,192,21356,1,0,0:0:0:0:
64,192,21423,1,0,0:0:0:0:
320,192,21423,1,0,0:0:0:0:
192,192,21489,1,0,0:0:0:0:
448,192,21556,1,0,0:0:0:0:
320,192,21623,1,0,0:0:0:85:Snare.wav
192,192,21623,1,0,0:0:0:0:
64,192,21623,1,0,0:0:0:0:
448,192,21756,1,0,0:0:0:0:
64,192,21756,1,0,0:0:0:0:
64,192,21889,1,0,0:0:0:0:
448,192,21889,1,0,0:0:0:0:
448,192,22023,128,0,22123:0:0:0:0:
192,192,22023,128,0,22123:0:0:0:0:
320,192,22023,128,0,22123:0:0:0:0:
64,192,22223,128,0,22323:0:0:0:0:
192,192,22223,128,0,22323:0:0:0:0:
448,192,22423,1,4,0:0:0:95:
320,192,22423,1,0,0:0:0:95:Kick.wav
64,192,22423,1,0,0:0:0:0:
192,192,22489,1,0,0:0:0:0:
320,192,22556,1,0,0:0:0:0:
192,192,22623,1,0,0:0:0:0:
64,192,22623,1,0,0:0:0:0:
448,192,22689,1,0,0:0:0:0:
64,192,22756,1,0,0:0:0:0:
320,192,22823,1,0,0:0:0:0:
192,192,22823,1,0,0:0:0:0:
448,192,22889,1,0,0:0:0:0:
192,192,22956,1,0,0:0:0:0:
64,192,23023,1,0,0:0:0:0:
448,192,23023,1,0,0:0:0:0:
320,192,23089,1,0,0:0:0:0:
192,192,23156,1,0,0:0:0:0:
64,192,23223,1,0,0:0:0:85:Snare.wav
448,192,23223,1,0,0:0:0:0:
320,192,23223,1,0,0:0:0:0:
192,192,23323,1,0,0:0:0:0:
448,192,23423,1,0,0:0:0:0:
448,192,23523,1,0,0:0:0:0:
320,192,23623,1,4,0:0:0:95:
192,192,23623,1,0,0:0:0:95:Kick.wav
64,192,23623,1,0,0:0:0:0:
448,192,23689,1,0,0:0:0:0:
320,192,23756,1,0,0:0:0:0:
192,192,23823,1,0,0:0:0:0:
64,192,23823,1,0,0:0:0:0:
448,192,23889,1,0,0:0:0:0:
64,192,23956,1,0,0:0:0:0:
320,192,24023,1,0,0:0:0:0:
192,192,24023,1,0,0:0:0:0:
448,192,24089,1,0,0:0:0:0:
320,192,24156,1,0,0:0:0:0:
448,192,24223,1,0,0:0:0:0:
64,192,24223,1,0,0:0:0:0:
192,192,24289,1,0,0:0:0:0:
64,192,24356,1,0,0:0:0:0:
320,192,24423,1,0,0:0:0:0:
448,192,24423,1,0,0:0:0:0:
192,192,24489,1,0,0:0:0:0:
448,192,24556,1,0,0:0:0:0:
192,192,24623,1,0,0:0:0:0:
64,192,24623,1,0,0:0:0:0:
320,192,24689,1,0,0:0:0:0:
448,192,24756,1,0,0:0:0:0:
64,192,24823,1,0,0:0:0:85:Snare.wav
320,192,24823,1,0,0:0:0:0:
192,192,24823,128,0,24956:0:0:0:0:
320,192,24956,1,0,0:0:0:0:
64,192,25023,128,0,25156:0:0:0:0:
192,192,25023,1,0,0:0:0:0:
320,192,25089,1,0,0:0:0:0:
448,192,25223,128,0,25323:0:0:0:0:
64,192,25223,128,0,25323:0:0:0:0:
192,192,25423,128,0,25523:0:0:0:0:
448,192,25423,128,0,25523:0:0:0:0:
448,192,25623,1,0,0:0:0:95:Kick.wav
320,192,25623,1,4,0:0:0:95:
192,192,25623,1,0,0:0:0:0:
64,192,25689,1,0,0:0:0:0:
320,192,25756,1,0,0:0:0:0:
64,192,25823,1,0,0:0:0:0:
448,192,25823,1,0,0:0:0:0:
192,192,25889,1,0,0:0:0:0:
448,192,25956,1,0,0:0:0:0:
320,192,26023,1,0,0:0:0:0:
64,192,26023,1,0,0:0:0:0:
192,192,26089,1,0,0:0:0:0:
320,192,26156,1,0,0:0:0:0:
192,192,26223,1,0,0:0:0:0:
64,192,26223,1,0,0:0:0:0:
448,192,26289,1,0,0:0:0:0:
64,192,26356,1,0,0:0:0:0:
192,192,26423,1,0,0:0:0:85:Snare.wav
320,192,26423,1,0,0:0:0:0:
448,192,26423,1,0,0:0:0:0:
64,192,26523,1,0,0:0:0:0:
320,192,26623,1,0,0:0:0:0:
320,192,26723,1,0,0:0:0:0:
448,192,26823,1,4,0:0:0:95:
192,192,26823,1,0,0:0:0:95:Kick.wav
64,192,26823,1,0,0:0:0:0:
320,192,26889,1,0,0:0:0:0:
64,192,26956,1,0,0:0:0:0:
320,192,27023,1,0,0:0:0:0:
192,192,27023,1,0,0:0:0:0:
448,192,27089,1,0,0:0:0:0:
192,192,27156,1,0,0:0:0:0:
64,192,27223,1,0,0:0:0:0:
320,192,27223,1,0,0:0:0:0:
448,192,27289,1,0,0:0:0:0:
64,192,27356,1,0,0:0:0:0:
448,192,27423,1,0,0:0:0:0:
320,192,27423,1,0,0:0:0:0:
192,192,27489,1,0,0:0:0:0:
320,192,27556,1,0,0:0:0:0:
64,192,27623,1,0,0:0:0:0:
448,192,27623,1,0,0:0:0:0:
192,192,27689,1,0,0:0:0:0:
64,192,27756,1,0,0:0:0:0:
192,192,27823,1,0,0:0:0:0:
320,192,27823,1,0,0:0:0:0:
448,192,27889,1,0,0:0:0:0:
320,192,27956,1,0,0:0:0:0:
192,192,28023,1,0,0:0:0:85:Snare.wav
448,192,28023,1,0,0:0:0:0:
64,192,28023,1,0,0:0:0:0:
320,192,28156,1,0,0:0:0:0:
64,192,28156,1,0,0:0:0:0:
64,192,28289,1,0,0:0:0:0:
320,192,28289,1,0,0:0:0:0:
320,192,28423,128,0,28523:0:0:0:0:
192,192,28423,128,0,28523:0:0:0:0:
448,192,28623,128,0,28723:0:0:0:0:
192,192,28623,128,0,28723:0:0:0:0:
320,192,28823,1,4,0:0:0:95:
448,192,28823,1,0,0:0:0:95:Kick.wav
64,192,28823,1,0,0:0:0:0:
192,192,28889,1,0,0:0:0:0:
448,192,28956,1,0,0:0:0:0:
192,192,29023,1,0,0:0:0:0:
320,192,29023,1,0,0:0:0:0:
64,192,29089,1,0,0:0:0:0:
320,192,29156,1,0,0:0:0:0:
448,192,29223,1,0,0:0:0:0:
192,192,29223,1,0,0:0:0:0:
64,192,29289,1,0,0:0:0:0:
320,192,29356,1,0,0:0:0:0:
64,192,29423,1,0,0:0:0:0:
448,192,29423,1,0,0:0:0:0:
192,192,29489,1,0,0:0:0:0:
448,192,29556,1,0,0:0:0:0:
320,192,29623,1,0,0:0:0:85:Snare.wav
64,192,29623,1,0,0:0:0:0:
192,192,29623,1,0,0:0:0:0:
448,192,29723,1,0,0:0:0:0:
64,192,29823,1,0,0:0:0:0:
64,192,29923,1,0,0:0:0:0:
192,192,30023,1,4,0:0:0:95:
320,192,30023,1,0,0:0:0:95:Kick.wav
448,192,30023,1,0,0:0:0:0:
64,192,30089,1,0,0:0:0:0:
320,192,30156,1,0,0:0:0:0:
64,192,30223,1,0,0:0:0:0:
192,192,30223,1,0,0:0:0:0:
448,192,30289,1,0,0:0:0:0:
192,192,30356,1,0,0:0:0:0:
320,192,30423,1,0,0:0:0:0:
64,192,30423,1,0,0:0:0:0:
448,192,30489,1,0,0:0:0:0:
320,192,30556,1,0,0:0:0:0:
448,192,30623,1,0,0:0:0:0:
64,192,30623,1,0,0:0:0:0:
192,192,30689,1,0,0:0:0:0:
64,192,30756,1,0,0:0:0:0:
320,192,30823,1,0,0:0:0:0:
448,192,30823,1,0,0:0:0:0:
192,192,30889,1,0,0:0:0:0:
320,192,30956,1,0,0:0:0:0:
64,192,31023,1,0,0:0:0:0:
192,192,31023,1,0,0:0:0:0:
448,192,31089,1,0,0:0:0:0:
64,192,31156,1,0,0:0:0:0:
192,192,31223,1,0,0:0:0:85:Snare.wav
448,192,31223,1,0,0:0:0:0:
320,192,31223,128,0,31356:0:0:0:0:
192,192,31356,1,0,0:0:0:0:
448,192,31423,128,0,31556:0:0:0:0:
320,192,31423,1,0,0:0:0:0:
192,192,31489,1,0,0:0:0:0:
64,192,31623,128,0,31723:0:0:0:0:
448,192,31623,128,0,31723:0:0:0:0:
64,192,31823,128,0,31923:0:0:0:0:
320,192,31823,128,0,31923:0:0:0:0:
448,192,32023,1,4,0:0:0:95:
320,192,32023,1,0,0:0:0:95:Kick.wav
64,192,32023,1,0,0:0:0:0:
192,192,32089,1,0,0:0:0:0:
64,192,32156,1,0,0:0:0:0:
448,192,32223,1,0,0:0:0:0:
192,192,32223,1,0,0:0:0:0:
320,192,32289,1,0,0:0:0:0:
448,192,32356,1,0,0:0:0:0:
192,192,32423,1,0,0:0:0:0:
64,192,32423,1,0,0:0:0:0:
320,192,32489,1,0,0:0:0:0:
192,192,32556,1,0,0:0:0:0:
320,192,32623,1,0,0:0:0:0:
448,192,32623,1,0,0:0:0:0:
64,192,32689,1,0,0:0:0:0:
448,192,32756,1,0,0:0:0:0:
320,192,32823,1,0,0:0:0:85:Snare.wav
192,192,32823,1,0,0:0:0:0:
64,192,32823,1,0,0:0:0:0:
448,192,32923,1,0,0:0:0:0:
192,192,33023,1,0,0:0:0:95:Kick.wav
320,192,33023,1,0,0:0:0:0:
192,192,33123,1,0,0:0:0:0:
320,192,33223,1,4,0:0:0:95:
64,192,33223,1,0,0:0:0:95:Kick.wav
448,192,33223,1,0,0:0:0:0:
192,192,33289,1,0,0:0:0:0:
320,192,33356,1,0,0:0:0:0:
192,192,33423,1,0,0:0:0:0:
448,192,33423,1,0,0:0:0:0:
64,192,33489,1,0,0:0:0:0:
448,192,33556,1,0,0:0:0:0:
320,192,33623,1,0,0:0:0:0:
192,192,33623,1,0,0:0:0:0:
64,192,33689,1,0,0:0:0:0:
320,192,33756,1,0,0:0:0:0:
64,192,33823,1,0,0:0:0:0:
192,192,33823,1,0,0:0:0:0:
448,192,33889,1,0,0:0:0:0:
192,192,33956,1,0,0:0:0:0:
64,192,34023,1,0,0:0:0:0:
448,192,34023,1,0,0:0:0:0:
320,192,34089,1,0,0:0:0:0:
64,192,34156,1,0,0:0:0:0:
192,192,34223,1,0,0:0:0:0:
448,192,34223,1,0,0:0:0:0:
320,192,34289,1,0,0:0:0:0:
64,192,34356,1,0,0:0:0:0:
448,192,34423,1,0,0:0:0:85:Snare.wav
192,192,34423,1,0,0:0:0:0:
320,192,34423,1,0,0:0:0:0:
448,192,34556,1,0,0:0:0:0:
64,192,34556,1,0,0:0:0:0:
448,192,34689,1,0,0:0:0:0:
64,192,34689,1,0,0:0:0:0:
64,192,34823,128,0,34923:0:0:0:0:
320,192,34823,128,0,34923:0:0:0:0:
192,192,34923,128,0,35123:0:0:0:0:
320,192,35023,128,0,35123:0:0:0:0:
448,192,35023,128,0,35123:0:0:0:0:
320,192,35223,1,4,0:0:0:95:
448,192,35223,1,0,0:0:0:95:Kick.wav
192,192,35223,1,0,0:0:0:0:
64,192,35289,1,0,0:0:0:0:
320,192,35356,1,0,0:0:0:0:
192,192,35423,1,0,0:0:0:0:
64,192,35423,1,0,0:0:0:0:
448,192,35489,1,0,0:0:0:0:
192,192,35556,1,0,0:0:0:0:
320,192,35623,1,0,0:0:0:0:
64,192,35623,1,0,0:0:0:0:
448,192,35689,1,0,0:0:0:0:
192,192,35756,1,0,0:0:0:0:
448,192,35823,1,0,0:0:0:0:
320,192,35823,1,0,0:0:0:0:
64,192,35889,1,0,0:0:0:0:
320,192,35956,1,0,0:0:0:0:
448,192,36023,1,0,0:0:0:85:Snare.wav
192,192,36023,1,0,0:0:0:0:
64,192,36023,1,0,0:0:0:0:
320,192,36123,1,0,0:0:0:0:
64,192,36223,1,0,0:0:0:0:
64,192,36323,1,0,0:0:0:0:
192,192,36423,1,4,0:0:0:95:
320,192,36423,1,0,0:0:0:95:Kick.wav
448,192,36423,1,0,0:0:0:0:
64,192,36489,1,0,0:0:0:0:
320,192,36556,1,0,0:0:0:0:
64,192,36623,1,0,0:0:0:0:
192,192,36623,1,0,0:0:0:0:
448,192,36689,1,0,0:0:0:0:
192,192,36756,1,0,0:0:0:0:
320,192,36823,1,0,0:0:0:0:
64,192,36823,1,0,0:0:0:0:
448,192,36889,1,0,0:0:0:0:
64,192,36956,1,0,0:0:0:0:
448,192,37023,1,0,0:0:0:0:
192,192,37023,1,0,0:0:0:0:
320,192,37089,1,0,0:0:0:0:
192,192,37156,1,0,0:0:0:0:
64,192,37223,1,0,0:0:0:0:
448,192,37223,1,0,0:0:0:0:
320,192,37289,1,0,0:0:0:0:
64,192,37356,1,0,0:0:0:0:
320,192,37423,1,0,0:0:0:0:
448,192,37423,1,0,0:0:0:0:
192,192,37489,1,0,0:0:0:0:
448,192,37556,1,0,0:0:0:0:
192,192,37623,1,0,0:0:0:85:Snare.wav
64,192,37623,1,0,0:0:0:0:
320,192,37623,128,0,37756:0:0:0:0:
64,192,37756,1,0,0:0:0:0:
448,192,37823,128,0,37956:0:0:0:0:
320,192,37823,1,0,0:0:0:0:
64,192,37889,1,0,0:0:0:0:
192,192,38023,128,0,38123:0:0:0:0:
448,192,38023,128,0,38123:0:0:0:0:
320,192,38223,128,0,38323:0:0:0:0:
192,192,38223,128,0,38323:0:0:0:0:
448,192,38423,1,0,0:0:0:95:Kick.wav
192,192,38423,1,4,0:0:0:95:
64,192,38423,1,0,0:0:0:0:
192,192,38523,1,0,0:0:0:0:
320,192,38623,1,0,0:0:0:0:
448,192,38623,1,0,0:0:0:0:
64,192,38723,1,0,0:0:0:0:
320,192,38823,1,0,0:0:0:0:
448,192,38823,1,0,0:0:0:0:
192,192,38923,1,0,0:0:0:0:
320,192,39023,1,0,0:0:0:0:
448,192,39023,1,0,0:0:0:0:
192,192,39123,1,0,0:0:0:0:
64,192,39223,1,0,0:0:0:85:Snare.wav
320,192,39223,1,0,0:0:0:0:
448,192,39223,1,0,0:0:0:0:
192,192,39323,1,0,0:0:0:0:
320,192,39423,1,0,0:0:0:0:
320,192,39523,1,0,0:0:0:0:
192,192,39623,1,4,0:0:0:95:
448,192,39623,1,0,0:0:0:95:Kick.wav
64,192,39623,1,0,0:0:0:0:
64,192,39723,1,0,0:0:0:0:
192,192,39823,1,0,0:0:0:0:
448,192,39823,1,0,0:0:0:0:
320,192,39923,1,0,0:0:0:0:
192,192,40023,1,0,0:0:0:0:
448,192,40023,1,0,0:0:0:0:
64,192,40123,1,0,0:0:0:0:
192,192,40223,1,0,0:0:0:0:
448,192,40223,1,0,0:0:0:0:
64,192,40323,1,0,0:0:0:0:
192,192,40423,1,0,0:0:0:0:
448,192,40423,1,0,0:0:0:0:
64,192,40523,1,0,0:0:0:0:
192,192,40623,1,0,0:0:0:0:
448,192,40623,1,0,0:0:0:0:
320,192,40723,1,0,0:0:0:0:
192,192,40823,1,0,0:0:0:85:Snare.wav
64,192,40823,1,0,0:0:0:0:
448,192,40823,128,0,41223:0:0:0:0:
64,192,40956,1,0,0:0:0:0:
64,192,41089,1,0,0:0:0:0:
320,192,41223,128,0,41323:0:0:0:0:
192,192,41223,128,0,41323:0:0:0:0:
448,192,41423,128,0,41523:0:0:0:0:
320,192,41423,128,0,41523:0:0:0:0:
64,192,41623,1,4,0:0:0:95:
320,192,41623,1,0,0:0:0:95:Kick.wav
448,192,41623,1,0,0:0:0:0:
320,192,41723,1,0,0:0:0:0:
192,192,41823,1,0,0:0:0:0:
64,192,41823,1,0,0:0:0:0:
448,192,41923,1,0,0:0:0:0:
192,192,42023,1,0,0:0:0:0:
64,192,42023,1,0,0:0:0:0:
320,192,42123,1,0,0:0:0:0:
192,192,42223,1,0,0:0:0:0:
64,192,42223,1,0,0:0:0:0:
320,192,42323,1,0,0:0:0:0:
448,192,42423,1,0,0:0:0:85:Snare.wav
192,192,42423,1,0,0:0:0:0:
64,192,42423,1,0,0:0:0:0:
320,192,42523,1,0,0:0:0:0:
192,192,42623,1,0,0:0:0:0:
192,192,42723,1,0,0:0:0:0:
64,192,42823,1,4,0:0:0:95:
320,192,42823,1,0,0:0:0:95:Kick.wav
448,192,42823,1,0,0:0:0:0:
320,192,42923,1,0,0:0:0:0:
448,192,43023,1,0,0:0:0:0:
64,192,43023,1,0,0:0:0:0:
192,192,43123,1,0,0:0:0:0:
448,192,43223,1,0,0:0:0:0:
64,192,43223,1,0,0:0:0:0:
320,192,43323,1,0,0:0:0:0:
448,192,43423,1,0,0:0:0:0:
64,192,43423,1,0,0:0:0:0:
320,192,43523,1,0,0:0:0:0:
448,192,43623,1,0,0:0:0:0:
64,192,43623,1,0,0:0:0:0:
320,192,43723,1,0,0:0:0:0:
448,192,43823,1,0,0:0:0:0:
64,192,43823,1,0,0:0:0:0:
192,192,43923,1,0,0:0:0:0:
448,192,44023,1,0,0:0:0:85:Snare.wav
320,192,44023,1,0,0:0:0:0:
64,192,44023,128,0,44156:0:0:0:0:
448,192,44156,1,0,0:0:0:0:
192,192,44223,128,0,44356:0:0:0:0:
64,192,44223,1,0,0:0:0:0:
448,192,44289,1,0,0:0:0:0:
320,192,44423,128,0,44523:0:0:0:0:
192,192,44423,128,0,44523:0:0:0:0:
64,192,44623,128,0,44723:0:0:0:0:
320,192,44623,128,0,44723:0:0:0:0:
448,192,44823,1,4,0:0:0:95:
192,192,44823,1,0,0:0:0:95:Kick.wav
64,192,44823,1,0,0:0:0:0:
448,192,44923,1,0,0:0:0:0:
320,192,45023,1,0,0:0:0:0:
192,192,45023,1,0,0:0:0:0:
64,192,45123,1,0,0:0:0:0:
192,192,45223,1,0,0:0:0:0:
320,192,45223,1,0,0:0:0:0:
448,192,45323,1,0,0:0:0:0:
192,192,45423,1,0,0:0:0:0:
320,192,45423,1,0,0:0:0:0:
448,192,45523,1,0,0:0:0:0:
320,192,45623,1,0,0:0:0:85:Snare.wav
192,192,45623,1,0,0:0:0:0:
64,192,45623,1,0,0:0:0:0:
448,192,45723,1,0,0:0:0:0:
192,192,45823,1,0,0:0:0:95:Kick.wav
64,192,45823,1,0,0:0:0:0:
64,192,45923,1,0,0:0:0:0:
192,192,46023,1,4,0:0:0:95:
320,192,46023,1,0,0:0:0:95:Kick.wav
448,192,46023,1,0,0:0:0:0:
448,192,46123,1,0,0:0:0:0:
320,192,46223,1,0,0:0:0:0:
64,192,46223,1,0,0:0:0:0:
192,192,46323,1,0,0:0:0:0:
320,192,46423,1,0,0:0:0:0:
64,192,46423,1,0,0:0:0:0:
448,192,46523,1,0,0:0:0:0:
320,192,46623,1,0,0:0:0:0:
64,192,46623,1,0,0:0:0:0:
448,192,46723,1,0,0:0:0:0:
320,192,46823,1,0,0:0:0:0:
64,192,46823,1,0,0:0:0:0:
448,192,46923,1,0,0:0:0:0:
320,192,47023,1,0,0:0:0:0:
64,192,47023,1,0,0:0:0:0:
192,192,47123,1,0,0:0:0:0:
320,192,47223,1,0,0:0:0:85:Snare.wav
448,192,47223,1,0,0:0:0:0:
64,192,47223,1,0,0:0:0:0:
192,192,47356,1,0,0:0:0:0:
64,192,47356,1,0,0:0:0:0:
64,192,47489,1,0,0:0:0:0:
192,192,47489,1,0,0:0:0:0:
320,192,47623,128,0,47723:0:0:0:0:
192,192,47623,128,0,47723:0:0:0:0:
448,192,47623,1,0,0:0:0:0:
448,192,47823,128,0,47923:0:0:0:0:
320,192,47823,128,0,47923:0:0:0:0:
320,192,48023,1,4,0:0:0:95:
64,192,48023,1,0,0:0:0:95:Kick.wav
192,192,48023,128,0,48623:0:0:0:0:
320,192,48123,1,0,0:0:0:0:
448,192,48223,1,0,0:0:0:0:
64,192,48223,1,0,0:0:0:0:
320,192,48323,1,0,0:0:0:0:
448,192,48423,1,0,0:0:0:0:
64,192,48423,1,0,0:0:0:0:
320,192,48523,1,0,0:0:0:0:
64,192,48623,1,0,0:0:0:0:
448,192,48623,128,0,49223:0:0:0:0:
64,192,48723,1,0,0:0:0:0:
192,192,48823,1,0,0:0:0:85:Snare.wav
320,192,48823,1,0,0:0:0:0:
64,192,48923,1,0,0:0:0:0:
320,192,49023,1,0,0:0:0:0:
192,192,49123,1,0,0:0:0:0:
64,192,49223,128,4,50423:0:0:0:95:
320,192,49223,1,0,0:0:0:95:Kick.wav
192,192,49223,1,0,0:0:0:0:
320,192,49323,1,0,0:0:0:0:
192,192,49423,1,0,0:0:0:0:
448,192,49423,1,0,0:0:0:0:
320,192,49523,1,0,0:0:0:0:
192,192,49623,1,0,0:0:0:0:
448,192,49623,1,0,0:0:0:0:
320,192,49723,1,0,0:0:0:0:
192,192,49823,1,0,0:0:0:0:
448,192,49823,1,0,0:0:0:0:
320,192,49923,1,0,0:0:0:0:
192,192,50023,1,0,0:0:0:0:
448,192,50023,1,0,0:0:0:0:
320,192,50123,1,0,0:0:0:0:
192,192,50223,1,0,0:0:0:0:
448,192,50223,1,0,0:0:0:0:
320,192,50323,1,0,0:0:0:0:
192,192,50423,1,0,0:0:0:85:Snare.wav
320,192,50423,1,0,0:0:0:0:
448,192,50423,128,0,50556:0:0:0:0:
64,192,50556,1,0,0:0:0:0:
320,192,50623,128,0,50756:0:0:0:0:
448,192,50623,1,0,0:0:0:0:
64,192,50689,1,0,0:0:0:0:
64,192,50823,128,0,50923:0:0:0:0:
320,192,50823,128,0,50923:0:0:0:0:
192,192,51023,128,0,51123:0:0:0:0:
448,192,51023,128,0,51123:0:0:0:0:
320,192,51223,1,0,0:0:0:95:Kick.wav
192,192,51223,1,4,0:0:0:95:
64,192,51223,1,0,0:0:0:0:
192,192,51323,1,0,0:0:0:0:
320,192,51423,1,0,0:0:0:0:
448,192,51423,1,0,0:0:0:0:
64,192,51523,1,0,0:0:0:0:
320,192,51623,1,0,0:0:0:0:
448,192,51623,1,0,0:0:0:0:
192,192,51723,1,0,0:0:0:0:
320,192,51823,1,0,0:0:0:0:
448,192,51823,1,0,0:0:0:0:
192,192,51923,1,0,0:0:0:0:
64,192,52023,1,0,0:0:0:85:Snare.wav
320,192,52023,1,0,0:0:0:0:
448,192,52023,1,0,0:0:0:0:
192,192,52123,1,0,0:0:0:0:
320,192,52223,1,0,0:0:0:0:
320,192,52323,1,0,0:0:0:0:
448,192,52423,1,4,0:0:0:95:
192,192,52423,1,0,0:0:0:95:Kick.wav
64,192,52423,1,0,0:0:0:0:
192,192,52523,1,0,0:0:0:0:
64,192,52623,1,0,0:0:0:0:
320,192,52623,1,0,0:0:0:0:
448,192,52723,1,0,0:0:0:0:
64,192,52823,1,0,0:0:0:0:
320,192,52823,1,0,0:0:0:0:
192,192,52923,1,0,0:0:0:0:
64,192,53023,1,0,0:0:0:0:
320,192,53023,1,0,0:0:0:0:
192,192,53123,1,0,0:0:0:0:
64,192,53223,1,0,0:0:0:0:
320,192,53223,1,0,0:0:0:0:
192,192,53323,1,0,0:0:0:0:
64,192,53423,1,0,0:0:0:0:
320,192,53423,1,0,0:0:0:0:
448,192,53523,1,0,0:0:0:0:
320,192,53623,1,0,0:0:0:85:Snare.wav
192,192,53623,1,0,0:0:0:0:
64,192,53623,1,0,0:0:0:0:
192,192,53756,1,0,0:0:0:0:
448,192,53756,1,0,0:0:0:0:
448,192,53889,1,0,0:0:0:0:
64,192,53889,1,0,0:0:0:0:
64,192,54023,128,0,54123:0:0:0:0:
320,192,54023,128,0,54123:0:0:0:0:
448,192,54223,128,0,54323:0:0:0:0:
320,192,54223,128,0,54323:0:0:0:0:
320,192,54423,1,4,0:0:0:95:
192,192,54423,1,0,0:0:0:95:Kick.wav
64,192,54423,1,0,0:0:0:0:
320,192,54523,1,0,0:0:0:0:
64,192,54623,1,0,0:0:0:0:
448,192,54623,1,0,0:0:0:0:
192,192,54723,1,0,0:0:0:0:
64,192,54823,1,0,0:0:0:0:
448,192,54823,1,0,0:0:0:0:
320,192,54923,1,0,0:0:0:0:
64,192,55023,1,0,0:0:0:0:
448,192,55023,1,0,0:0:0:0:
320,192,55123,1,0,0:0:0:0:
192,192,55223,1,0,0:0:0:85:Snare.wav
64,192,55223,1,0,0:0:0:0:
448,192,55223,1,0,0:0:0:0:
320,192,55323,1,0,0:0:0:0:
64,192,55423,1,0,0:0:0:0:
64,192,55523,1,0,0:0:0:0:
192,192,55623,1,4,0:0:0:95:
320,192,55623,1,0,0:0:0:95:Kick.wav
448,192,55623,1,0,0:0:0:0:
320,192,55723,1,0,0:0:0:0:
64,192,55823,1,0,0:0:0:0:
192,192,55823,1,0,0:0:0:0:
448,192,55923,1,0,0:0:0:0:
192,192,56023,1,0,0:0:0:0:
64,192,56023,1,0,0:0:0:0:
320,192,56123,1,0,0:0:0:0:
64,192,56223,1,0,0:0:0:0:
192,192,56223,1,0,0:0:0:0:
320,192,56323,1,0,0:0:0:0:
192,192,56423,1,0,0:0:0:0:
64,192,56423,1,0,0:0:0:0:
320,192,56523,1,0,0:0:0:0:
64,192,56623,1,0,0:0:0:0:
192,192,56623,1,0,0:0:0:0:
448,192,56723,1,0,0:0:0:0:
192,192,56823,1,0,0:0:0:85:Snare.wav
320,192,56823,1,0,0:0:0:0:
64,192,56823,128,0,56956:0:0:0:0:
320,192,56956,1,0,0:0:0:0:
192,192,57023,128,0,57156:0:0:0:0:
64,192,57023,1,0,0:0:0:0:
320,192,57089,1,0,0:0:0:0:
448,192,57223,128,0,57323:0:0:0:0:
192,192,57223,128,0,57323:0:0:0:0:
64,192,57423,128,0,57523:0:0:0:0:
448,192,57423,128,0,57523:0:0:0:0:
448,192,57623,1,4,0:0:0:95:
320,192,57623,1,0,0:0:0:95:Kick.wav
64,192,57623,1,0,0:0:0:0:
64,192,57723,1,0,0:0:0:0:
448,192,57823,1,0,0:0:0:0:
192,192,57823,1,0,0:0:0:0:
320,192,57923,1,0,0:0:0:0:
192,192,58023,1,0,0:0:0:0:
448,192,58023,1,0,0:0:0:0:
64,192,58123,1,0,0:0:0:0:
192,192,58223,1,0,0:0:0:0:
448,192,58223,1,0,0:0:0:0:
64,192,58323,1,0,0:0:0:0:
320,192,58423,1,0,0:0:0:85:Snare.wav
192,192,58423,1,0,0:0:0:0:
448,192,58423,1,0,0:0:0:0:
64,192,58523,1,0,0:0:0:0:
448,192,58623,1,0,0:0:0:95:Kick.wav
320,192,58623,1,0,0:0:0:0:
320,192,58723,1,0,0:0:0:0:
448,192,58823,1,4,0:0:0:95:
192,192,58823,1,0,0:0:0:95:Kick.wav
64,192,58823,1,0,0:0:0:0:
64,192,58923,1,0,0:0:0:0:
320,192,59023,1,0,0:0:0:0:
192,192,59023,1,0,0:0:0:0:
448,192,59123,1,0,0:0:0:0:
192,192,59223,1,0,0:0:0:0:
320,192,59223,1,0,0:0:0:0:
64,192,59323,1,0,0:0:0:0:
320,192,59423,1,0,0:0:0:0:
192,192,59423,1,0,0:0:0:0:
64,192,59523,1,0,0:0:0:0:
320,192,59623,1,0,0:0:0:0:
192,192,59623,1,0,0:0:0:0:
64,192,59723,1,0,0:0:0:0:
320,192,59823,1,0,0:0:0:0:
192,192,59823,1,0,0:0:0:0:
448,192,59923,1,0,0:0:0:0:
192,192,60023,1,0,0:0:0:85:Snare.wav
320,192,60023,1,0,0:0:0:0:
64,192,60023,1,0,0:0:0:0:
448,192,60156,1,0,0:0:0:0:
64,192,60156,1,0,0:0:0:0:
448,192,60289,1,0,0:0:0:0:
64,192,60289,1,0,0:0:0:0:
192,192,60423,128,0,60523:0:0:0:0:
448,192,60423,128,0,60523:0:0:0:0:
192,192,60623,128,0,60723:0:0:0:0:
320,192,60623,128,0,60723:0:0:0:0:
192,192,60823,128,4,61423:0:0:0:95:
448,192,60823,1,0,0:0:0:95:Kick.wav
64,192,60823,1,0,0:0:0:0:
448,192,60923,1,0,0:0:0:0:
320,192,61023,1,0,0:0:0:0:
64,192,61023,1,0,0:0:0:0:
448,192,61123,1,0,0:0:0:0:
320,192,61223,1,0,0:0:0:0:
64,192,61223,1,0,0:0:0:0:
448,192,61323,1,0,0:0:0:0:
320,192,61423,128,0,62023:0:0:0:0:
64,192,61423,1,0,0:0:0:0:
64,192,61523,1,0,0:0:0:0:
192,192,61623,1,0,0:0:0:85:Snare.wav
448,192,61623,1,0,0:0:0:0:
64,192,61723,1,0,0:0:0:0:
448,192,61823,1,0,0:0:0:0:
192,192,61923,1,0,0:0:0:0:
64,192,62023,128,4,63223:0:0:0:95:
192,192,62023,1,0,0:0:0:95:Kick.wav
448,192,62023,1,0,0:0:0:0:
448,192,62123,1,0,0:0:0:0:
320,192,62223,1,0,0:0:0:0:
192,192,62223,1,0,0:0:0:0:
448,192,62323,1,0,0:0:0:0:
320,192,62423,1,0,0:0:0:0:
192,192,62423,1,0,0:0:0:0:
448,192,62523,1,0,0:0:0:0:
320,192,62623,1,0,0:0:0:0:
192,192,62623,1,0,0:0:0:0:
448,192,62723,1,0,0:0:0:0:
320,192,62823,1,0,0:0:0:0:
192,192,62823,1,0,0:0:0:0:
448,192,62923,1,0,0:0:0:0:
320,192,63023,1,0,0:0:0:0:
192,192,63023,1,0,0:0:0:0:
448,192,63123,1,0,0:0:0:0:
448,192,63223,1,0,0:0:0:85:Snare.wav
192,192,63223,1,0,0:0:0:0:
320,192,63223,128,0,63356:0:0:0:0:
64,192,63356,1,0,0:0:0:0:
448,192,63423,128,0,63556:0:0:0:0:
320,192,63423,1,0,0:0:0:0:
64,192,63489,1,0,0:0:0:0:
64,192,63623,128,0,63723:0:0:0:0:
448,192,63623,128,0,63723:0:0:0:0:
320,192,63823,128,0,63923:0:0:0:0:
192,192,63823,128,0,63923:0:0:0:0:
448,192,64023,1,4,0:0:0:95:
192,192,64023,1,0,0:0:0:0:
64,192,64023,1,0,0:0:0:0:
320,192,64023,1,0,0:0:0:95:Kick.wav
