osu file format v14

[General]
AudioFilename: audio.mp3
AudioLeadIn: 0
PreviewTime: 64275
Countdown: 0
SampleSet: Soft
StackLeniency: 0.3
Mode: 0
LetterboxInBreaks: 0
WidescreenStoryboard: 1

[Editor]
DistanceSpacing: 0.5
BeatDivisor: 4
GridSize: 4
TimelineZoom: 1.4

[Metadata]
Title:Tomedonai Shiosai ni Bokutachi wa Nani wo Utau Darou ka (TV Size)
TitleUnicode:とめどない潮騒に僕たちは何を歌うだろうか (TV Size)
Artist:ARCANA PROJECT
ArtistUnicode:ARCANA PROJECT
Creator:EmPao
Version:lealu's Insane
Source:白い砂のアクアトープ
Tags:Shiroisuna no Akuatopu The two girls met in the ruins of damaged dream The Aquatope on White Sand J-Pop JPop Pop Japanese Anime summer 2021 Opening op2 P.A.Works Progressive Animation Works Ito Miku 伊藤美來 Misakino Kukuru 海咲野くくる Aida Rikako 逢田梨香子 Miyazawa Fuka 宮沢風花 Usa Sakurano 桜野羽咲 Aozora Sorano 空野青空 Shion Aida 相田詩音 Hana Hanamiya 花宮ハナ Hikari Amano 天野ひかる [_TNTlealu_] tntlealu Silent Rock ms0543724
BeatmapID:3263514
BeatmapSetID:1592501

[Difficulty]
HPDrainRate:5.5
CircleSize:4
OverallDifficulty:7.5
ApproachRate:9
SliderMultiplier:1.9
SliderTickRate:1

[Events]
//Background and Video events
0,0,"bg.jpg",0,0
Video,729,"video.avi"
//Break Periods
//Storyboard Layer 0 (Background)
//Storyboard Layer 1 (Fail)
//Storyboard Layer 2 (Pass)
//Storyboard Layer 3 (Foreground)
//Storyboard Layer 4 (Overlay)
//Storyboard Sound Samples

[TimingPoints]
1168,365.853658536585,4,2,11,40,1,0
1350,-200,4,2,11,40,0,0
2265,-125,4,2,11,40,0,0
2631,-166.666666666667,4,2,95,45,0,0
2654,-166.666666666667,4,2,11,40,0,0
3180,-166.666666666667,4,2,92,40,0,0
3203,-166.666666666667,4,2,11,40,0,0
3546,-166.666666666667,4,2,95,40,0,0
3568,-166.666666666667,4,2,11,40,0,0
4003,-166.666666666667,4,2,11,5,0,0
4094,-166.666666666667,4,2,97,40,0,0
4117,-166.666666666667,4,2,11,40,0,0
4826,-166.666666666667,4,2,95,40,0,0
4849,-166.666666666667,4,2,11,40,0,0
5192,-166.666666666667,4,2,94,40,0,0
5215,-166.666666666667,4,2,11,40,0,0
5558,-166.666666666667,4,2,95,40,0,0
5581,-166.666666666667,4,2,11,40,0,0
6107,-166.666666666667,4,2,92,40,0,0
6129,-166.666666666667,4,2,11,40,0,0
6472,-166.666666666667,4,2,95,40,0,0
6495,-166.666666666667,4,2,11,40,0,0
6930,-166.666666666667,4,2,11,5,0,0
7021,-166.666666666667,4,2,95,50,0,0
7044,-166.666666666667,4,2,11,50,0,0
7570,-166.666666666667,4,2,99,60,0,0
7593,-166.666666666667,4,2,11,50,0,0
8119,-166.666666666667,4,2,95,50,0,0
8142,-166.666666666667,4,2,11,50,0,0
8942,-166.666666666667,4,2,11,5,0,0
9033,-166.666666666667,4,2,95,50,0,0
9056,-166.666666666667,4,2,11,50,0,0
9948,-166.666666666667,4,2,92,50,0,0
9971,-166.666666666667,4,2,11,50,0,0
10405,-166.666666666667,4,2,11,5,0,0
10497,-166.666666666667,4,2,92,50,0,0
10520,-166.666666666667,4,2,11,50,0,0
10680,-166.666666666667,4,2,90,50,0,0
10771,-166.666666666667,4,2,11,5,0,0
10863,-166.666666666667,4,2,11,50,0,0
11411,-166.666666666667,4,2,95,60,0,0
11434,-166.666666666667,4,2,11,60,0,0
11777,-166.666666666667,4,2,97,65,0,0
11800,-166.666666666667,4,2,11,65,0,0
12143,-125,4,2,98,70,0,0
12166,-125,4,2,11,70,0,0
12509,-125,4,2,91,75,0,0
12532,-125,4,2,11,75,0,0
12875,-125,4,2,12,70,0,0
13607,375,4,2,12,50,1,0
13794,-100,4,2,12,70,0,0
13982,-125,4,2,12,70,0,0
14357,389.61038961039,4,2,11,50,1,0
14746,365.853658536585,4,2,11,70,1,0
15294,344.827586206897,4,2,11,75,1,0
15811,-125,4,2,12,75,0,0
15983,384.615384615385,4,2,12,75,1,0
16167,365.853658536585,5,2,12,80,1,0
16167,-83.3333333333333,4,2,12,80,0,0
16532,-100,5,2,12,90,0,0
16533,-83.3333333333333,4,2,12,90,0,0
16715,-100,4,2,12,90,0,0
16898,-100,4,2,12,85,0,0
17264,365.853658536585,4,2,12,80,1,0
18727,-100,4,2,12,80,0,0
19093,-83.3333333333333,4,2,12,80,0,0
19459,-83.3333333333333,4,2,12,90,0,0
19642,-100,4,2,12,90,0,0
19824,-100,4,2,12,85,0,0
21654,-100,4,2,12,85,0,0
22020,-83.3333333333333,4,2,12,80,0,0
22385,-83.3333333333333,4,2,12,90,0,0
22568,-100,4,2,12,90,0,0
22751,-100,4,2,12,85,0,0
24398,365.853658536585,4,2,12,85,1,0
26593,-166.666666666667,4,2,12,85,0,0
27507,365.853658536585,4,2,12,80,1,0
27532,-166.666666666667,4,2,12,80,0,0
28055,-125,4,2,13,60,0,0
37385,-125,4,2,11,60,0,0
37567,-125,4,2,13,65,0,0
37570,-125,4,2,13,65,0,0
37751,-125,4,2,12,70,0,0
38482,-100,4,2,12,70,0,0
40586,-100,4,2,12,60,0,0
40677,-100,4,2,12,70,0,0
47446,-100,4,2,12,60,0,0
47628,-100,4,2,12,70,0,0
51653,-100,4,2,12,60,0,0
52019,-100,4,2,12,55,0,0
52110,-100,4,2,12,60,0,0
52202,-100,4,2,12,65,0,0
52293,-100,4,2,12,70,0,0
52385,-100,4,3,14,65,0,0
57509,-100,4,3,14,65,0,0
57872,-100,4,3,14,70,0,0
58055,-100,4,3,12,60,0,0
58238,-100,4,2,12,70,0,0
61348,-100,4,2,22,75,0,0
61714,-100,4,2,12,70,0,0
61897,-100,4,2,22,75,0,0
62263,-100,4,2,12,70,0,0
62446,-100,4,2,12,75,0,0
62628,-100,4,2,12,70,0,0
62811,-100,4,2,12,40,0,0
62994,-100,4,2,12,50,0,0
63177,-100,4,2,12,60,0,0
63360,-100,4,2,12,70,0,0
64275,-100,4,2,11,60,0,0
65555,-90.9090909090909,4,2,22,85,0,1
65578,-90.9090909090909,4,2,12,85,0,1
65921,-76.9230769230769,4,2,12,85,0,1
66287,-76.9230769230769,4,2,11,85,0,1
66310,-76.9230769230769,4,2,12,85,0,1
66470,-90.9090909090909,4,2,12,85,0,1
68848,-76.9230769230769,4,2,12,85,0,1
69214,-76.9230769230769,4,2,11,85,0,1
69237,-76.9230769230769,4,2,12,85,0,1
69397,-90.9090909090909,4,2,12,85,0,1
77217,-90.9090909090909,4,2,12,85,0,0
77263,-90.9090909090909,4,2,95,85,0,1
77285,-90.9090909090909,4,2,12,85,0,1
77628,-76.9230769230769,4,2,12,85,0,1
77994,-76.9230769230769,4,2,92,85,0,1
78017,-76.9230769230769,4,2,12,85,0,1
78726,-90.9090909090909,4,2,95,85,0,1
78749,-90.9090909090909,4,2,12,85,0,1
80007,-90.9090909090909,4,2,90,85,0,1
80029,-90.9090909090909,4,2,12,85,0,1
80189,-90.9090909090909,4,2,92,85,0,1
80212,-90.9090909090909,4,2,12,85,0,1
80555,-76.9230769230769,4,2,12,85,0,1
80922,-76.9230769230769,4,2,91,85,0,1
80944,-76.9230769230769,4,2,12,85,0,1
81104,-90.9090909090909,4,2,12,85,0,1
81653,-90.9090909090909,4,2,98,85,0,1
81676,-90.9090909090909,4,2,12,85,0,1
86409,-90.9090909090909,4,2,12,70,0,1
86500,-90.9090909090909,4,2,12,60,0,1
86775,-90.9090909090909,4,2,12,70,0,1
87141,-90.9090909090909,4,2,12,80,0,1
87506,-142.857142857143,4,2,12,70,0,0
88238,-142.857142857143,4,2,11,60,0,0
89244,-142.857142857143,4,2,11,50,0,0
90067,-142.857142857143,4,2,11,5,0,0

[Colours]
Combo1 : 149,255,255
Combo2 : 180,110,110
Combo3 : 80,160,255
Combo4 : 255,170,130

[HitObjects]
123,76,1350,6,0,P|168:83|197:120,1,95,2|0,0:0|0:0,0:0:0:0:
209,203,1899,1,2,0:0:0:0:
115,237,2082,1,2,0:0:0:0:
57,181,2265,2,0,P|87:156|135:157,1,76,2|0,0:0|0:0,0:0:0:0:
209,203,2631,6,0,B|252:195|277:162|276:118|276:118|357:107|391:137|403:181|403:181|354:175|351:133,1,341.999989562989,2|0,0:0|0:0,0:0:0:0:
353,145,4094,1,2,0:0:0:0:
353,145,4826,2,0,L|342:206,2,56.9999982604981,2|0|2,0:0|0:0|0:0,0:0:0:0:
409,53,5558,6,0,B|270:26|299:155|137:103,1,284.999991302491,2|0,0:0|0:0,0:0:0:0:
141,104,7021,1,2,0:0:0:0:
141,104,7387,6,0,L|127:183,1,56.9999982604981,2|2,0:0|0:0,0:0:0:0:
49,237,7753,2,0,L|35:158,1,56.9999982604981,2|0,0:0|0:0,0:0:0:0:
25,95,8119,1,2,0:0:0:0:
25,95,8302,1,2,0:0:0:0:
131,160,8485,6,0,B|168:147|189:105|189:105|237:157|236:244|173:283|173:283|189:241|176:202,1,341.999989562989,2|2,0:3|0:0,0:0:0:0:
100,270,9948,2,0,B|65:268|32:304|32:304|113:313|94:372|189:362,1,227.999993041992,2|2,0:0|0:0,0:0:0:0:
166,363,11228,1,2,0:0:0:0:
166,363,11411,6,0,L|158:292,1,56.9999982604981,2|0,0:0|0:0,0:0:0:0:
270,203,11777,2,0,L|262:274,1,56.9999982604981,2|0,0:0|0:0,0:0:0:0:
309,347,12143,6,0,P|270:354|234:339,1,76,2|0,0:0|0:0,0:0:0:0:
155,164,12509,2,0,P|179:192|186:229,1,76,2|0,0:0|0:0,0:0:0:0:
70,330,12875,6,0,B|50:318|12:324|12:324|52:273|118:262|161:308,1,228,6|2,3:2|0:0,0:0:0:0:
240,361,13607,5,6,3:2:0:0:
256,192,13700,12,8,15638,0:0:0:0:
158,190,15811,5,4,3:0:0:0:
158,190,15983,1,0,3:0:0:0:
298,20,16167,6,0,P|249:50|156:203,1,227.999993041992,14|0,0:1|3:0,0:0:0:0:
299,300,16715,2,0,P|270:254|229:241,1,95,2|8,3:2|0:0,0:0:0:0:
281,383,17081,2,0,P|345:373|366:248,1,190,2|2,3:2|3:2,0:0:0:0:
296,105,17629,1,8,0:0:0:0:
193,150,17812,2,0,P|182:96|210:42,1,95,2|0,3:2|0:0,0:0:0:0:
55,186,18178,2,0,B|174:181|98:262|264:242,1,190,2|2,3:2|0:3,0:0:0:0:
375,156,18727,5,4,3:0:0:0:
375,156,18910,1,0,3:0:0:0:
321,364,19093,6,0,P|311:297|375:156,1,227.999993041992,14|0,0:1|3:0,0:0:0:0:
232,23,19642,2,0,P|254:67|246:125,1,95,2|8,3:2|0:0,0:0:0:0:
102,223,20007,2,0,P|92:133|168:86,1,190,2|2,3:2|3:2,0:0:0:0:
339,59,20556,1,8,0:0:0:0:
248,201,20739,2,0,P|237:147|265:93,1,95,2|0,3:2|0:0,0:0:0:0:
375,156,21105,1,2,3:2:0:0:
298,277,21288,1,8,0:0:0:0:
250,110,21471,1,8,0:0:0:0:
250,110,21562,1,8,0:0:0:0:
250,110,21654,5,4,3:0:0:0:
298,277,21837,1,0,3:0:0:0:
387,88,22020,6,0,P|329:61|242:174,1,227.999993041992,14|0,0:1|3:0,0:0:0:0:
225,328,22568,2,0,P|253:291|298:277,1,95,2|8,3:2|0:0,0:0:0:0:
432,350,22934,2,0,P|342:355|297:277,1,190,2|2,3:2|3:2,0:0:0:0:
338,123,23483,1,8,0:0:0:0:
382,282,23666,2,0,P|393:228|365:174,1,95,8|0,0:0|3:0,0:0:0:0:
204,95,24032,1,8,0:0:0:0:
175,131,24123,1,8,0:0:0:0:
182,176,24215,1,8,0:3:0:0:
221,201,24306,1,8,0:3:0:0:
266,189,24398,5,6,3:2:0:0:
442,72,24580,2,0,L|434:129,2,47.5,2|8|0,0:0|0:0|3:0,0:0:0:0:
371,239,24946,1,8,0:0:0:0:
289,115,25129,2,0,B|200:84|210:215|106:167,1,190,4|8,3:2|0:0,0:0:0:0:
101,156,25587,1,8,0:0:0:0:
91,126,25678,1,8,0:3:0:0:
94,94,25769,1,8,0:3:0:0:
111,67,25861,5,6,3:2:0:0:
274,200,26044,1,8,0:0:0:0:
274,200,26135,1,8,0:0:0:0:
274,200,26227,1,2,3:2:0:0:
206,100,26410,1,8,0:0:0:0:
216,265,26593,6,0,B|277:308|338:252|338:252|359:279|359:279|413:221|492:258,1,285,6|4,3:2|3:1,0:0:0:0:
334,108,28055,6,0,P|266:148|275:213,1,152,8|2,0:0|0:0,0:0:0:0:
354,280,28604,1,0,0:0:0:0:
354,280,28787,1,2,3:2:0:0:
200,331,28970,6,0,B|172:303|128:313|128:313|175:273|231:276|271:311,1,227.999993041992,0|8,3:0|0:0,0:0:0:0:
266,307,29885,2,0,L|278:210,1,76,2|0,0:0|0:0,0:0:0:0:
287,136,30250,1,2,3:2:0:0:
266,307,30433,6,0,B|144:272|188:378|38:333,1,228,0|8,0:0|0:0,0:0:0:0:
214,196,31348,2,0,P|181:213|150:235,1,76,0|2,0:0|0:0,0:0:0:0:
50,336,31714,1,0,3:0:0:0:
73,208,31897,6,0,P|37:240|57:342,1,152,2|2,3:2|0:0,0:0:0:0:
152,279,32446,2,0,P|188:247|168:145,1,152,8|2,0:0|3:2,0:0:0:0:
98,94,32994,1,0,0:0:0:0:
98,94,33177,1,2,3:2:0:0:
152,279,33360,6,0,B|210:216|297:241|297:241|264:281|284:319,1,228,2|8,3:2|0:0,0:0:0:0:
374,297,34092,2,0,P|387:244|373:210,1,76,2|0,0:0|0:0,0:0:0:0:
319,109,34458,1,2,0:0:0:0:
319,109,34641,1,0,3:2:0:0:
299,243,34824,6,0,P|279:179|331:101,1,152,2|2,3:2|0:0,0:0:0:0:
374,297,35372,2,0,P|310:322|241:384,1,152,8|2,0:0|0:0,0:0:0:0:
169,340,35921,2,0,P|148:303|114:282,1,76,2|0,0:0|3:0,0:0:0:0:
199,133,36287,6,0,P|149:190|71:175,1,152,2|2,3:2|0:0,0:0:0:0:
207,41,36836,2,0,P|274:74|280:153,1,152,8|2,0:0|0:0,0:0:0:0:
264,253,37385,1,2,0:3:0:0:
264,253,37567,1,0,3:0:0:0:
371,156,37750,6,0,L|351:255,1,76,8|0,0:0|3:0,0:0:0:0:
188,346,38116,2,0,L|172:271,1,76,8|0,0:0|3:0,0:0:0:0:
100,137,38482,2,0,P|152:133|187:159,1,95,8|8,0:0|0:0,0:0:0:0:
302,311,38848,1,2,3:2:0:0:
276,286,38939,1,8,0:0:0:0:
264,253,39031,1,8,0:0:0:0:
267,218,39122,1,8,0:0:0:0:
285,187,39214,6,0,B|368:182|333:246|444:243,1,142.5,6|0,3:2|0:0,0:0:0:0:
432,238,39580,1,8,0:0:0:0:
232,116,39763,2,0,P|205:155|195:201,1,95,2|2,3:2|0:0,0:0:0:0:
302,311,40128,1,0,3:0:0:0:
88,357,40311,2,0,P|97:298|83:256,1,95,8|2,0:0|0:0,0:0:0:0:
77,244,40586,1,8,0:0:0:0:
77,244,40677,5,2,3:2:0:0:
234,300,40860,1,0,3:0:0:0:
138,161,41043,1,8,0:0:0:0:
234,300,41226,2,0,P|196:357|91:328,1,190,0|2,3:0|3:2,0:0:0:0:
138,161,41775,2,0,P|156:212|152:268,1,95,8|2,0:0|0:0,0:0:0:0:
92,330,42141,5,2,3:2:0:0:
92,330,42324,1,0,3:0:0:0:
59,228,42507,1,8,0:0:0:0:
237,191,42689,2,0,B|134:170|161:252|50:226,1,190,2|2,3:2|3:2,0:0:0:0:
79,48,43238,2,0,P|97:86|92:146,1,95,8|2,0:0|0:0,0:0:0:0:
210,277,43604,6,0,P|174:247|168:182,1,95,2|0,3:2|3:0,0:0:0:0:
271,135,43970,2,0,P|307:165|313:230,1,95,8|0,0:0|3:0,0:0:0:0:
118,277,44336,6,0,P|128:231|164:201,1,95,2|0,0:0|3:0,0:0:0:0:
364,135,44702,2,0,P|353:180|317:210,1,95,8|8,0:0|0:0,0:0:0:0:
294,215,44976,1,8,0:0:0:0:
294,215,45067,5,6,3:2:0:0:
337,63,45250,1,2,3:2:0:0:
418,229,45433,1,8,0:0:0:0:
337,63,45616,2,0,P|241:44|193:122,1,190,2|2,3:0|3:2,0:0:0:0:
281,225,46165,1,8,0:0:0:0:
384,163,46348,1,8,0:3:0:0:
384,163,46439,1,8,0:3:0:0:
384,163,46531,5,4,3:1:0:0:
218,270,46714,1,2,0:0:0:0:
230,119,46897,1,8,0:0:0:0:
296,300,47080,2,0,P|255:355|143:307,1,190,6|8,3:2|0:0,0:0:0:0:
148,308,47537,1,8,0:0:0:0:
148,308,47628,1,10,3:2:0:0:
262,185,47811,1,8,0:0:0:0:
110,60,47994,6,0,L|96:211,1,142.5,6|0,3:2|0:0,0:0:0:0:
102,230,48360,1,8,0:0:0:0:
358,99,48543,6,0,B|276:77|260:169|163:124,1,190,6|2,3:2|3:2,0:0:0:0:
339,297,49092,6,0,B|302:264|302:209|326:179|326:179|330:218|364:257,1,190,8|2,0:0|0:0,0:0:0:0:
422,175,49641,1,0,3:2:0:0:
504,307,49824,2,0,P|457:308|422:278,1,95,8|0,0:0|0:0,0:0:0:0:
346,234,50189,5,0,3:0:0:0:
454,155,50372,1,0,3:0:0:0:
358,99,50555,1,8,0:0:0:0:
422,278,50738,1,2,0:0:0:0:
280,155,50921,6,0,P|223:151|181:183,1,95,2|8,3:2|0:3,0:0:0:0:
202,309,51287,2,0,P|259:313|301:281,1,95,8|8,0:0|0:3,0:0:0:0:
312,282,51561,1,8,0:0:0:0:
312,282,51653,1,8,0:3:0:0:
142,245,51836,1,8,0:0:0:0:
126,262,51927,1,8,0:0:0:0:
116,284,52019,1,8,3:2:0:0:
113,308,52110,1,8,0:0:0:0:
117,331,52202,1,8,0:0:0:0:
127,352,52293,1,8,0:0:0:0:
143,370,52385,5,6,0:2:0:0:
33,253,52567,1,0,0:0:0:0:
33,253,52659,1,0,0:0:0:0:
33,253,52750,1,2,0:2:0:0:
202,309,52933,1,10,0:2:0:0:
46,353,53116,2,0,P|19:352|-10:340,2,47.5,0|0|0,0:0|0:0|0:0,0:0:0:0:
144,210,53482,1,0,0:0:0:0:
273,366,53665,1,0,0:0:0:0:
286,321,53757,1,0,0:0:0:0:
277,275,53848,5,8,0:2:0:0:
150,313,54031,1,2,0:2:0:0:
150,313,54122,1,0,0:0:0:0:
150,313,54214,6,0,P|95:302|65:264,1,95,0|10,0:0|0:2,0:0:0:0:
231,157,54580,2,0,P|224:187|221:276,1,95,2|2,0:2|0:2,0:0:0:0:
347,99,54946,1,2,0:2:0:0:
231,157,55128,1,2,0:2:0:0:
159,34,55311,5,10,0:2:0:0:
236,162,55494,1,0,0:0:0:0:
236,162,55586,1,0,0:0:0:0:
236,162,55677,1,2,0:2:0:0:
360,14,55860,1,10,0:2:0:0:
332,193,56043,2,0,L|327:252,2,47.5,0|0|0,0:0|0:0|0:0,0:0:0:0:
247,56,56409,5,2,0:2:0:0:
427,129,56592,1,0,0:0:0:0:
360,14,56775,1,10,0:2:0:0:
332,193,56958,1,10,0:2:0:0:
247,56,57141,5,2,0:2:0:0:
239,196,57324,1,10,0:2:0:0:
224,239,57415,1,8,0:2:0:0:
190,272,57507,1,8,0:2:0:0:
144,281,57598,1,8,0:2:0:0:
99,267,57689,5,8,0:0:0:0:
124,270,57781,1,8,0:0:0:0:
144,281,57872,1,8,0:0:0:0:
161,298,57964,1,8,0:0:0:0:
173,318,58055,1,0,0:0:0:0:
178,341,58147,1,0,0:0:0:0:
180,364,58238,6,0,B|289:393|264:302|374:329,1,190,6|2,3:2|3:2,0:0:0:0:
440,174,58787,1,2,0:3:0:0:
456,369,58970,1,2,3:2:0:0:
456,369,59061,1,8,0:0:0:0:
344,217,59244,1,8,0:0:0:0:
344,217,59336,5,2,3:2:0:0:
309,224,59427,1,8,0:0:0:0:
274,232,59519,1,8,0:0:0:0:
239,239,59610,1,8,0:0:0:0:
204,247,59702,6,0,P|188:201|207:142,1,95,8|8,0:3|0:3,0:0:0:0:
370,342,60067,2,0,L|270:323,1,95,2|0,3:2|0:0,0:0:0:0:
201,73,60433,6,0,P|151:90|131:156,1,95,2|8,3:2|0:0,0:0:0:0:
102,352,60799,1,2,3:2:0:0:
125,346,60891,1,8,0:0:0:0:
148,340,60982,1,8,0:0:0:0:
171,335,61074,1,8,0:0:0:0:
194,329,61165,1,6,3:2:0:0:
336,194,61348,5,8,0:0:0:0:
336,194,61531,1,8,0:0:0:0:
272,378,61714,1,0,3:0:0:0:
400,324,61897,5,8,0:0:0:0:
238,229,62080,1,8,0:0:0:0:
435,160,62263,1,0,3:0:0:0:
238,62,62446,6,0,P|202:106|202:148,1,95,12|0,0:0|3:0,0:0:0:0:
336,194,62811,5,8,0:0:0:0:
467,119,62994,1,8,0:0:0:0:
320,86,63177,1,8,0:0:0:0:
468,228,63360,1,8,3:2:0:0:
318,336,63543,6,0,P|316:305|298:275,1,47.5,8|8,0:0|0:0,0:0:0:0:
193,140,63726,2,0,P|178:165|174:200,1,47.5,8|8,0:0|0:3,0:0:0:0:
192,382,63909,2,0,P|209:358|224:323,1,47.5,2|0,0:0|3:0,0:0:0:0:
308,131,64092,5,8,0:0:0:0:
478,33,65555,5,6,3:2:0:0:
478,33,65738,1,0,3:0:0:0:
425,254,65921,6,0,P|407:155|483:29,1,246.999988693238,8|2,0:0|3:0,0:0:0:0:
335,145,66470,2,0,P|292:165|236:160,1,104.500003189087,0|8,3:0|0:0,0:0:0:0:
111,64,66836,1,2,0:0:0:0:
157,204,67019,1,2,3:2:0:0:
278,82,67202,5,2,0:0:0:0:
353,175,67385,1,8,0:0:0:0:
353,175,67567,1,2,0:0:0:0:
286,6,67750,6,0,P|233:15|205:72,1,104.500003189087,2|2,3:2|3:2,0:0:0:0:
273,162,68116,2,0,P|326:153|354:96,1,104.500003189087,8|2,0:0|0:0,0:0:0:0:
229,327,68482,5,2,3:2:0:0:
229,327,68665,1,0,0:0:0:0:
93,149,68848,6,0,P|171:184|226:343,1,246.999988693238,8|2,0:0|3:0,0:0:0:0:
374,183,69397,2,0,P|384:229|368:282,1,104.500003189087,0|8,3:0|0:0,0:0:0:0:
314,344,69763,1,0,0:0:0:0:
462,202,69946,1,2,3:2:0:0:
293,233,70128,5,2,3:2:0:0:
477,300,70311,1,8,0:0:0:0:
314,344,70494,1,2,0:0:0:0:
314,344,70586,1,8,0:0:0:0:
314,344,70677,5,2,3:2:0:0:
366,166,70860,1,2,3:2:0:0:
314,344,71043,1,8,0:0:0:0:
462,202,71226,1,2,0:0:0:0:
258,271,71409,6,0,P|177:247|84:240,1,156.750004783631,6|0,3:2|0:0,0:0:0:0:
77,249,71775,2,0,P|58:189|56:139,1,104.500003189087,8|2,0:0|0:0,0:0:0:0:
63,66,72141,5,2,3:2:0:0:
168,203,72324,1,0,3:0:0:0:
250,63,72507,1,8,0:0:0:0:
102,147,72689,1,2,0:0:0:0:
262,249,72872,6,0,B|343:253|315:185|424:200,1,156.750004783631,2|0,3:2|0:0,0:0:0:0:
426,207,73238,2,0,P|413:265|417:325,1,104.500003189087,8|2,0:0|0:0,0:0:0:0:
313,144,73604,5,2,3:2:0:0:
414,309,73787,1,2,3:2:0:0:
470,151,73970,1,8,0:0:0:0:
291,271,74153,1,2,0:0:0:0:
345,68,74336,6,0,P|251:93|249:190,1,209.000006378174,2|8,3:2|0:0,0:0:0:0:
291,271,74885,1,2,3:2:0:0:
396,138,75067,1,8,0:0:0:0:
396,138,75159,1,8,0:0:0:0:
396,138,75250,1,10,0:3:0:0:
457,243,75433,1,8,0:0:0:0:
417,18,75616,6,0,B|311:6|339:113|219:90,1,209.000006378174,6|2,3:2|3:2,0:0:0:0:
81,202,76165,2,0,P|140:215|174:264,1,104.500003189087,8|2,0:0|0:0,0:0:0:0:
271,374,76531,5,8,0:3:0:0:
271,374,76622,1,8,0:0:0:0:
271,374,76714,1,8,0:3:0:0:
297,192,76897,1,2,3:2:0:0:
182,330,77080,1,8,0:0:0:0:
378,298,77263,5,6,3:2:0:0:
245,262,77446,1,2,3:2:0:0:
401,377,77628,6,0,P|456:330|345:225,1,246.999988693238,8|2,0:0|3:2,0:0:0:0:
475,75,78177,2,0,P|432:95|360:82,1,123.499994346619,0|8,3:2|0:0,0:0:0:0:
203,31,78543,1,0,0:0:0:0:
297,192,78726,1,2,3:2:0:0:
323,12,78909,5,2,3:2:0:0:
186,142,79092,1,8,0:0:0:0:
186,142,79275,1,2,0:0:0:0:
79,15,79458,6,0,P|26:24|-2:81,1,104.500003189087,2|0,3:2|3:2,0:0:0:0:
94,225,79824,2,0,P|147:216|175:159,1,104.500003189087,8|2,0:0|0:0,0:0:0:0:
213,81,80189,5,2,3:2:0:0:
227,276,80372,1,0,3:2:0:0:
38,354,80555,6,0,P|70:237|173:176,1,246.999988693238,8|2,0:0|3:2,0:0:0:0:
293,116,81104,1,2,3:2:0:0:
227,276,81287,1,8,0:0:0:0:
227,276,81470,1,2,0:0:0:0:
395,171,81653,6,0,P|419:222|412:284,1,104.500003189087,2|0,3:2|3:0,0:0:0:0:
257,361,82019,2,0,L|124:339,1,104.500003189087,8|0,0:0|3:0,0:0:0:0:
128,232,82385,1,10,3:2:0:0:
32,109,82567,1,8,0:3:0:0:
66,103,82659,1,8,0:0:0:0:
99,112,82750,1,2,3:2:0:0:
126,134,82842,1,8,0:3:0:0:
141,165,82933,1,8,0:0:0:0:
141,200,83025,1,8,0:0:0:0:
128,232,83116,5,6,3:2:0:0:
280,120,83299,1,2,3:2:0:0:
116,250,83482,1,8,0:0:0:0:
224,58,83665,2,0,P|280:37|359:140,1,209.000006378174,4|2,3:1|3:2,0:0:0:0:
335,241,84214,2,0,P|284:229|231:226,1,104.500003189087,8|2,0:0|0:0,0:0:0:0:
128,232,84580,5,2,3:2:0:0:
240,336,84763,1,2,3:2:0:0:
195,158,84946,1,8,0:0:0:0:
50,360,85128,2,0,B|63:282|63:282|48:239|48:239|64:148,1,209.000006378174,6|2,3:2|3:2,0:0:0:0:
80,31,85677,1,8,0:0:0:0:
80,31,85860,1,2,0:0:0:0:
239,227,86043,6,0,P|165:202|158:120,1,156.750004783631,6|0,3:2|0:0,0:0:0:0:
169,111,86409,1,0,3:2:0:0:
194,116,86500,1,8,0:0:0:0:
220,122,86592,1,8,0:0:0:0:
245,127,86683,1,8,0:0:0:0:
272,130,86775,6,0,L|261:77,3,52.2500015945435,8|8|8|8,3:2|0:0|0:0|0:0,0:0:0:0:
386,151,87141,2,0,P|375:183|353:208,1,52.2500015945435,8|8,0:0|0:0,0:0:0:0:
261,273,87324,2,0,P|243:244|238:211,1,52.2500015945435,8|0,0:3|0:0,0:0:0:0:
333,76,87507,6,0,P|406:24|463:141,1,232.749992897034,6|0,3:2|0:0,0:0:0:0:
464,146,88238,1,2,0:0:0:0:
256,191,88970,1,2,0:0:0:0:
256,192,89061,12,0,90067,0:0:0:0:
