osu file format v14

[General]
AudioFilename: audio.mp3
AudioLeadIn: 0
PreviewTime: 64275
Countdown: 0
SampleSet: Soft
StackLeniency: 0.3
Mode: 0
LetterboxInBreaks: 0
WidescreenStoryboard: 1

[Editor]
Bookmarks: 27735,29290,35052
DistanceSpacing: 1
BeatDivisor: 4
GridSize: 4
TimelineZoom: 1.9

[Metadata]
Title:Tomedonai Shiosai ni Bokutachi wa Nani wo Utau Darou ka (TV Size)
TitleUnicode:とめどない潮騒に僕たちは何を歌うだろうか (TV Size)
Artist:ARCANA PROJECT
ArtistUnicode:ARCANA PROJECT
Creator:EmPao
Version:Normal
Source:白い砂のアクアトープ
Tags:Shiroisuna no Akuatopu The two girls met in the ruins of damaged dream The Aquatope on White Sand J-Pop JPop Pop Japanese Anime summer 2021 Opening op2 P.A.Works Progressive Animation Works Ito Miku 伊藤美來 Misakino Kukuru 海咲野くくる Aida Rikako 逢田梨香子 Miyazawa Fuka 宮沢風花 Usa Sakurano 桜野羽咲 Aozora Sorano 空野青空 Shion Aida 相田詩音 Hana Hanamiya 花宮ハナ Hikari Amano 天野ひかる [_TNTlealu_] tntlealu Silent Rock ms0543724
BeatmapID:3267625
BeatmapSetID:1592501

[Difficulty]
HPDrainRate:3
CircleSize:3
OverallDifficulty:4
ApproachRate:5
SliderMultiplier:1.2
SliderTickRate:1

[Events]
//Background and Video events
0,0,"bg.jpg",0,0
Video,729,"video.avi"
//Break Periods
//Storyboard Layer 0 (Background)
//Storyboard Layer 1 (Fail)
//Storyboard Layer 2 (Pass)
//Storyboard Layer 3 (Foreground)
//Storyboard Layer 4 (Overlay)
//Storyboard Sound Samples

[TimingPoints]
1168,365.853658536585,4,2,11,40,1,0
2631,-100,4,2,95,45,0,0
2654,-100,4,2,11,40,0,0
3180,-100,4,2,92,40,0,0
3203,-100,4,2,11,40,0,0
3546,-100,4,2,95,40,0,0
3568,-100,4,2,11,40,0,0
4003,-100,4,2,11,5,0,0
4094,-100,4,2,97,40,0,0
4117,-100,4,2,11,40,0,0
4826,-100,4,2,95,40,0,0
4849,-100,4,2,11,40,0,0
5192,-100,4,2,94,40,0,0
5215,-100,4,2,11,40,0,0
5558,-100,4,2,95,40,0,0
5581,-100,4,2,11,40,0,0
6107,-100,4,2,92,40,0,0
6129,-100,4,2,11,40,0,0
6472,-100,4,2,95,40,0,0
6495,-100,4,2,11,40,0,0
6930,-100,4,2,11,5,0,0
7021,-100,4,2,95,50,0,0
7044,-100,4,2,11,50,0,0
7570,-100,4,2,99,60,0,0
7593,-100,4,2,11,50,0,0
8119,-100,4,2,95,50,0,0
8142,-100,4,2,11,50,0,0
8942,-100,4,2,11,5,0,0
9033,-100,4,2,95,50,0,0
9056,-100,4,2,11,50,0,0
9948,-100,4,2,90,50,0,0
9971,-100,4,2,11,50,0,0
10405,-100,4,2,11,5,0,0
10497,-100,4,2,92,50,0,0
10520,-100,4,2,11,50,0,0
10771,-100,4,2,11,5,0,0
10863,-100,4,2,11,50,0,0
11411,-100,4,2,95,60,0,0
11434,-100,4,2,11,60,0,0
11777,-100,4,2,97,65,0,0
11800,-100,4,2,11,65,0,0
12143,-100,4,2,98,70,0,0
12166,-100,4,2,11,70,0,0
12509,-100,4,2,91,75,0,0
12532,-100,4,2,11,75,0,0
12875,-100,4,2,12,70,0,0
13607,375,4,2,12,50,1,0
13794,-100,4,2,12,70,0,0
14357,389.61038961039,4,2,11,50,1,0
14746,365.853658536585,4,2,11,70,1,0
15294,344.827586206897,4,2,11,75,1,0
15983,384.615384615385,4,2,12,75,1,0
16167,365.853658536585,5,2,12,80,1,0
16532,-100,5,2,12,90,0,0
16898,-100,5,2,12,85,0,0
17264,365.853658536585,4,2,12,80,1,0
19093,-100,4,2,12,80,0,0
19459,-100,4,2,12,90,0,0
19824,-100,4,2,12,85,0,0
22020,-100,4,2,12,80,0,0
22385,-100,4,2,12,90,0,0
22751,-100,4,2,12,85,0,0
24398,365.853658536585,4,2,12,85,1,0
27507,365.853658536585,4,2,12,80,1,0
28055,-100,4,2,13,60,0,0
37385,-100,4,2,11,60,0,0
37567,-100,4,2,13,65,0,0
37751,-100,4,2,12,70,0,0
40586,-100,4,2,12,60,0,0
40677,-100,4,2,12,70,0,0
47446,-100,4,2,12,60,0,0
47628,-100,4,2,12,70,0,0
51653,-100,4,2,12,60,0,0
52019,-100,4,2,12,55,0,0
52110,-100,4,2,12,60,0,0
52202,-100,4,2,12,65,0,0
52293,-100,4,2,12,70,0,0
52385,-100,4,3,14,65,0,0
57872,-100,4,3,14,70,0,0
58055,-100,4,3,12,60,0,0
58238,-100,4,2,12,70,0,0
61348,-100,4,2,22,75,0,0
61714,-100,4,2,12,70,0,0
61897,-100,4,2,22,75,0,0
62263,-100,4,2,12,70,0,0
62446,-100,4,2,12,75,0,0
62628,-100,4,2,12,70,0,0
62811,-100,4,2,12,40,0,0
62994,-100,4,2,12,50,0,0
63177,-100,4,2,12,60,0,0
63360,-100,4,2,12,70,0,0
64275,-100,4,2,11,60,0,0
65555,-100,4,2,22,85,0,1
65578,-100,4,2,12,85,0,1
66287,-100,4,2,11,85,0,1
66310,-100,4,2,12,85,0,1
69214,-100,4,2,11,85,0,1
69237,-100,4,2,12,85,0,1
77217,-100,4,2,12,85,0,0
77263,-100,4,2,95,85,0,1
77285,-100,4,2,12,85,0,1
77994,-100,4,2,92,85,0,1
78017,-100,4,2,12,85,0,1
78726,-100,4,2,95,85,0,1
78749,-100,4,2,12,85,0,1
80007,-100,4,2,90,85,0,1
80029,-100,4,2,12,85,0,1
80189,-100,4,2,92,85,0,1
80212,-100,4,2,12,85,0,1
80922,-100,4,2,91,85,0,1
80944,-100,4,2,12,85,0,1
81653,-100,4,2,98,85,0,1
81676,-100,4,2,12,85,0,1
86409,-100,4,2,12,70,0,1
86500,-100,4,2,12,60,0,1
86775,-100,4,2,12,70,0,1
87141,-100,4,2,12,80,0,1
87506,-100,4,2,12,70,0,0
88238,-100,4,2,11,60,0,0
89244,-100,4,2,11,50,0,0
90067,-100,4,2,11,5,0,0

[Colours]
Combo1 : 149,255,255
Combo2 : 180,110,110
Combo3 : 80,160,255
Combo4 : 255,170,130

[HitObjects]
54,292,2631,6,0,P|96:252|155:250,1,120,2|2,0:0|0:0,0:0:0:0:
205,283,3180,1,2,0:0:0:0:
303,351,3546,2,0,P|350:317|409:325,1,120,2|0,0:0|0:0,0:0:0:0:
457,361,4094,5,2,0:0:0:0:
502,174,4826,2,0,B|459:168|459:168|428:185|428:185|386:181,1,120,2|2,0:0|0:0,0:0:0:0:
404,61,5558,6,0,P|353:28|296:37,1,120,2|2,0:0|0:0,0:0:0:0:
252,78,6107,1,2,0:0:0:0:
158,153,6472,2,0,P|104:126|47:141,1,120,2|0,0:0|0:0,0:0:0:0:
11,187,7021,5,2,0:0:0:0:
53,324,7570,2,0,B|97:318|97:318|127:328|127:328|174:321,1,120,2|0,0:0|0:0,0:0:0:0:
216,360,8119,1,2,0:0:0:0:
253,246,8485,6,0,P|246:190|249:125,1,120,2|0,0:3|0:0,0:0:0:0:
268,69,9033,1,2,0:0:0:0:
448,69,9582,2,0,L|445:129,1,60,2|2,0:0|0:0,0:0:0:0:
475,180,9948,6,0,P|480:242|473:301,1,120,2|0,0:0|0:0,0:0:0:0:
439,349,10497,1,2,0:0:0:0:
321,324,10863,2,0,B|280:316|280:316|248:327|248:327|205:319,1,120,2|2,0:0|0:0,0:0:0:0:
155,284,11411,6,0,L|149:165,1,120,2|2,0:0|0:0,0:0:0:0:
249,97,12143,2,0,L|256:216,1,120,2|2,0:0|0:0,0:0:0:0:
360,276,12875,6,0,B|354:210|354:210|369:158|369:158|363:94,1,180,6|2,3:2|0:0,0:0:0:0:
356,40,13607,1,6,3:2:0:0:
141,130,14357,5,8,0:0:0:0:
16,101,14746,1,8,0:0:0:0:
101,16,15111,1,8,0:0:0:0:
336,68,15811,6,0,P|341:103|337:132,1,60,4|0,3:0|3:0,0:0:0:0:
305,178,16167,2,0,B|345:173|345:173|377:183|377:183|425:175,1,120,14|0,0:1|3:0,0:0:0:0:
430,299,16898,1,8,0:0:0:0:
430,299,17081,6,0,B|384:291|384:291|352:301|352:301|312:296,1,120,2|2,3:2|3:2,0:0:0:0:
261,276,17630,1,8,0:0:0:0:
261,276,17813,2,0,P|260:214|248:154,1,120,2|2,3:2|3:2,0:0:0:0:
202,119,18362,1,8,0:0:0:0:
123,210,18727,6,0,P|117:242|117:270,1,60,4|0,3:0|3:0,0:0:0:0:
128,329,19093,2,0,B|168:324|168:324|200:334|200:334|248:326,1,120,14|0,0:1|3:0,0:0:0:0:
366,301,19825,1,8,0:0:0:0:
366,301,20008,6,0,P|369:242|359:179,1,120,2|2,3:2|3:2,0:0:0:0:
338,131,20557,1,8,0:0:0:0:
338,131,20740,2,0,B|294:128|294:128|267:145|267:145|222:142,1,120,2|2,3:2|3:2,0:0:0:0:
170,113,21288,2,0,L|167:54,1,60,8|8,0:0|0:0,0:0:0:0:
116,20,21654,5,4,3:0:0:0:
20,92,22020,2,0,L|19:213,1,120,14|0,0:1|3:0,0:0:0:0:
111,298,22752,1,8,0:0:0:0:
111,298,22935,6,0,P|166:321|220:298,1,120,2|2,3:2|3:2,0:0:0:0:
266,262,23484,1,8,0:0:0:0:
266,262,23666,2,0,B|268:213|268:213|258:189|258:189|261:145,1,120,8|8,0:0|0:0,0:0:0:0:
356,69,24398,6,0,P|423:56|461:89,1,120,6|0,3:2|3:0,0:0:0:0:
474,150,24946,1,8,0:0:0:0:
474,150,25129,2,0,P|467:207|470:275,1,120,4|8,3:2|0:0,0:0:0:0:
352,296,25861,6,0,B|309:291|309:291|276:306|276:306|235:300,1,120,6|2,3:2|3:2,0:0:0:0:
195,265,26410,1,8,0:0:0:0:
195,265,26593,2,0,P|124:360|101:244,1,300,6|4,3:2|3:1,0:0:0:0:
253,146,28055,5,8,0:0:0:0:
369,116,28421,2,0,L|376:52,2,60,2|0|2,0:0|0:0|3:2,0:0:0:0:
414,156,28970,6,0,P|434:207|416:272,1,120,0|0,3:0|0:0,0:0:0:0:
369,303,29519,1,8,0:0:0:0:
252,272,29885,2,0,L|256:334,2,60,2|0|2,0:0|0:0|3:2,0:0:0:0:
213,226,30433,6,0,P|155:212|105:243,1,120,0|2,0:0|0:0,0:0:0:0:
71,293,30982,2,0,B|79:234|71:173,1,120,8|0,0:0|0:0,0:0:0:0:
36,124,31531,1,2,0:0:0:0:
124,45,31897,6,0,P|181:35|229:67,1,120,2|2,3:2|0:0,0:0:0:0:
273,111,32446,2,0,B|313:105|313:105|345:114|345:114|391:109,1,120,8|2,0:0|3:2,0:0:0:0:
441,142,32994,2,0,P|450:175|448:206,1,60,0|2,0:0|3:2,0:0:0:0:
414,250,33360,5,2,3:2:0:0:
198,347,34092,2,0,B|154:341|154:341|123:354|123:354|82:349,1,120,2|2,0:0|0:0,0:0:0:0:
52,304,34641,1,0,3:2:0:0:
52,304,34824,6,0,P|61:242|52:185,1,120,2|2,3:2|0:0,0:0:0:0:
24,132,35372,1,8,0:0:0:0:
134,84,35738,2,0,L|126:20,2,60,2|2|0,0:0|0:0|3:0,0:0:0:0:
179,123,36287,6,0,P|232:97|289:115,1,120,2|2,3:2|0:0,0:0:0:0:
335,150,36836,1,8,0:0:0:0:
331,273,37202,1,2,0:0:0:0:
331,273,37385,2,0,P|328:311|332:348,1,60,2|0,0:3|3:0,0:0:0:0:
273,349,37750,6,0,B|230:340|230:340|193:348|193:348|155:339,1,120,8|8,0:0|0:0,0:0:0:0:
179,221,38482,1,8,0:0:0:0:
167,101,38848,1,2,3:2:0:0:
277,148,39214,6,0,B|312:135|338:151|330:160|354:176|393:163,1,120,6|8,3:2|0:0,0:0:0:0:
444,136,39763,1,2,3:2:0:0:
465,258,40128,1,0,3:0:0:0:
465,258,40311,2,0,P|470:288|469:322,1,60,8|2,0:0|0:0,0:0:0:0:
416,347,40677,6,0,B|382:330|355:341|360:347|335:363|296:350,1,120,2|8,3:2|0:0,0:0:0:0:
243,329,41226,1,0,3:0:0:0:
171,241,41592,1,2,3:2:0:0:
171,241,41775,2,0,P|166:212|170:181,1,60,8|2,0:0|0:0,0:0:0:0:
192,126,42141,6,0,B|235:122|235:122|266:134|266:134|310:129,1,120,2|8,3:2|0:0,0:0:0:0:
358,163,42689,1,2,3:2:0:0:
286,258,43055,1,2,3:2:0:0:
286,258,43238,2,0,P|294:289|295:316,1,60,8|2,0:0|0:0,0:0:0:0:
345,350,43604,6,0,L|465:338,1,120,2|8,3:2|0:0,0:0:0:0:
448,219,44336,2,0,L|329:209,1,120,2|8,0:0|0:0,0:0:0:0:
236,285,45067,6,0,L|239:345,2,60,6|2|8,3:2|3:2|0:0,0:0:0:0:
181,260,45616,1,2,3:0:0:0:
73,217,45982,1,2,3:2:0:0:
73,217,46165,2,0,P|72:188|78:155,1,60,8|8,0:0|0:3,0:0:0:0:
116,111,46531,6,0,B|157:108|157:108|190:122|190:122|234:119,1,120,4|8,3:1|0:0,0:0:0:0:
276,76,47080,1,6,3:2:0:0:
336,179,47446,2,0,L|338:238,2,60,8|10|8,0:0|3:2|0:0,0:0:0:0:
384,144,47994,5,6,3:2:0:0:
487,215,48360,1,8,0:0:0:0:
487,215,48543,2,0,B|480:334,1,120,6|2,3:2|3:2,0:0:0:0:
424,358,49092,2,0,B|393:368|366:353|376:348|348:332|308:342,1,120,8|2,0:0|0:0,0:0:0:0:
191,312,49824,5,8,0:0:0:0:
72,333,50189,2,0,L|12:345,2,60,0|0|8,3:0|3:0|0:0,0:0:0:0:
98,281,50738,1,2,0:0:0:0:
98,281,50921,6,0,P|110:219|82:171,1,120,2|8,3:2|0:0,0:0:0:0:
31,62,51653,2,0,L|96:53,1,60,8|8,0:3|0:0,0:0:0:0:
135,94,52019,2,0,L|195:86,1,60,8|8,3:2|0:0,0:0:0:0:
241,125,52385,5,6,0:2:0:0:
331,211,52750,1,2,0:2:0:0:
331,211,52933,2,0,P|386:231|437:199,1,120,10|0,0:2|0:0,0:0:0:0:
462,147,53482,1,0,0:0:0:0:
384,55,53848,6,0,B|334:52|334:52|312:38|312:38|267:35,1,120,8|0,0:2|0:0,0:0:0:0:
227,79,54397,1,10,0:2:0:0:
227,79,54580,2,0,P|195:85|168:74,1,60,2|2,0:2|0:2,0:0:0:0:
123,114,54946,2,0,L|121:180,1,60,2|2,0:2|0:2,0:0:0:0:
73,203,55311,5,10,0:2:0:0:
153,298,55677,1,2,0:2:0:0:
153,298,55860,2,0,B|198:293|198:293|225:305|225:305|269:300,1,120,10|0,0:2|0:0,0:0:0:0:
321,331,56409,1,2,0:2:0:0:
427,275,56775,6,0,L|486:267,2,60,10|10|2,0:2|0:2|0:2,0:0:0:0:
390,227,57324,2,0,P|385:167|394:107,1,120,10|8,0:2|0:0,0:0:0:0:
415,52,57872,1,8,0:0:0:0:
301,90,58238,6,0,P|243:101|192:71,1,120,6|2,3:2|3:2,0:0:0:0:
74,49,58970,2,0,P|73:110|81:170,1,120,2|2,3:2|3:2,0:0:0:0:
126,207,59519,6,0,B|162:223|189:207|184:201|206:188|241:198,1,120,8|8,0:0|0:3,0:0:0:0:
284,240,60067,1,2,3:2:0:0:
294,359,60433,1,2,3:2:0:0:
180,312,60799,2,0,B|143:306|123:321|128:327|104:345|66:334,1,120,2|6,3:2|3:2,0:0:0:0:
35,290,61348,5,8,0:0:0:0:
35,290,61531,1,8,0:0:0:0:
41,173,61897,1,8,0:0:0:0:
41,173,62080,1,8,0:0:0:0:
45,53,62446,1,12,0:0:0:0:
161,79,62811,6,0,L|157:17,2,60,8|8|8,0:0|0:0|0:0,0:0:0:0:
197,127,63360,2,0,P|226:133|254:125,1,60,8|8,3:2|0:0,0:0:0:0:
289,75,63726,2,0,P|317:66|346:72,1,60,8|2,0:0|0:0,0:0:0:0:
385,118,64092,5,8,0:0:0:0:
385,118,65555,6,0,P|389:153|388:179,1,60,6|0,3:2|3:0,0:0:0:0:
337,210,65921,2,0,B|302:227|277:215|284:208|253:192|221:205,1,120,8|2,0:0|3:0,0:0:0:0:
107,243,66653,2,0,P|103:277|106:306,1,60,8|2,0:0|0:0,0:0:0:0:
128,358,67019,5,2,3:2:0:0:
246,339,67385,2,0,B|281:322|306:334|299:341|325:359|365:341,1,120,8|2,0:0|3:2,0:0:0:0:
419,321,67933,1,2,3:2:0:0:
419,321,68116,2,0,L|424:257,1,60,8|2,0:0|0:0,0:0:0:0:
376,223,68482,6,0,L|374:160,1,60,2|0,3:2|0:0,0:0:0:0:
343,111,68848,2,0,B|299:107|299:107|266:119|266:119|225:114,1,120,8|2,0:0|3:0,0:0:0:0:
130,40,69580,2,0,P|100:32|69:42,1,60,8|0,0:0|0:0,0:0:0:0:
25,77,69946,5,2,3:2:0:0:
81,183,70311,2,0,P|90:241|84:303,1,120,8|2,0:0|3:2,0:0:0:0:
129,349,70860,1,2,3:2:0:0:
129,349,71043,2,0,P|160:357|189:350,1,60,8|2,0:0|0:0,0:0:0:0:
236,316,71409,5,6,3:2:0:0:
348,357,71775,2,0,P|353:297|344:238,1,120,8|2,0:0|3:2,0:0:0:0:
298,207,72324,1,0,3:0:0:0:
298,207,72506,2,0,P|288:174|290:147,1,60,8|2,0:0|0:0,0:0:0:0:
310,92,72872,5,2,3:2:0:0:
193,62,73238,2,0,P|131:39|90:68,1,120,8|2,0:0|3:2,0:0:0:0:
60,122,73787,1,2,3:2:0:0:
60,122,73970,2,0,P|64:152|63:183,1,60,8|2,0:0|0:0,0:0:0:0:
102,227,74336,6,0,B|136:240|166:226|159:220|184:205|215:216,1,120,2|8,3:2|0:0,0:0:0:0:
273,240,74885,1,2,3:2:0:0:
325,346,75250,1,10,0:3:0:0:
443,318,75616,6,0,L|435:198,1,120,6|2,3:2|3:2,0:0:0:0:
478,155,76165,1,8,0:0:0:0:
375,93,76531,2,0,P|375:65|364:36,2,60,8|8|2,0:3|0:3|3:2,0:0:0:0:
341,145,77080,1,8,0:0:0:0:
341,145,77263,6,0,L|336:205,1,60,6|2,3:2|3:2,0:0:0:0:
294,248,77628,2,0,P|237:258|188:224,1,120,8|2,0:0|3:2,0:0:0:0:
114,129,78360,2,0,P|111:99|113:69,1,60,8|0,0:0|0:0,0:0:0:0:
156,27,78726,5,2,3:2:0:0:
257,91,79092,2,0,B|298:86|298:86|333:97|333:97|376:92,1,120,8|2,0:0|3:2,0:0:0:0:
425,134,79641,1,0,3:2:0:0:
425,134,79824,2,0,P|433:165|426:194,1,60,8|2,0:0|0:0,0:0:0:0:
383,233,80189,6,0,L|380:297,1,60,2|0,3:2|3:2,0:0:0:0:
334,331,80555,1,8,0:0:0:0:
221,305,80921,1,2,3:2:0:0:
221,305,81104,2,0,L|223:369,2,60,2|8|2,3:2|0:0|0:0,0:0:0:0:
163,287,81653,5,2,3:2:0:0:
46,258,82019,1,8,0:0:0:0:
73,141,82385,1,10,3:2:0:0:
188,174,82750,1,2,3:2:0:0:
294,117,83116,6,0,P|293:89|281:58,2,60,6|2|8,3:2|3:2|0:0,0:0:0:0:
331,165,83665,2,0,L|452:145,1,120,4|2,3:1|3:2,0:0:0:0:
486,193,84214,2,0,P|493:222|490:254,1,60,8|2,0:0|0:0,0:0:0:0:
446,293,84580,6,0,L|453:357,2,60,2|2|8,3:2|3:2|0:0,0:0:0:0:
390,270,85128,1,6,3:2:0:0:
276,298,85494,1,2,3:2:0:0:
276,298,85677,2,0,P|271:268|277:238,1,60,8|2,0:0|0:0,0:0:0:0:
244,188,86043,6,0,B|193:170|161:207|161:207|155:180|140:159|140:159|112:204|58:192,1,240,6|8,3:2|3:2,0:0:0:0:
26,146,86958,1,8,0:0:0:0:
26,146,87141,2,0,L|19:81,1,60,8|8,0:0|0:3,0:0:0:0:
56,39,87506,5,6,3:2:0:0:
244,188,88238,22,0,B|280:160|322:167|347:205|347:205|376:176|419:171|453:213,1,240,2|2,0:0|0:0,0:0:0:0:
