osu file format v14

[General]
AudioFilename: audio.mp3
AudioLeadIn: 0
PreviewTime: 39611
Countdown: 0
SampleSet: Soft
StackLeniency: 0.3
Mode: 0
LetterboxInBreaks: 0
WidescreenStoryboard: 1

[Editor]
DistanceSpacing: 1.2
BeatDivisor: 4
GridSize: 4
TimelineZoom: 2

[Metadata]
Title:Tayutae, Nanairo (TV Size)
TitleUnicode:たゆたえ、七色 (TV Size)
Artist:ARCANA PROJECT
ArtistUnicode:ARCANA PROJECT
Creator:[ TNTlealu ]
Version:Hard
Source:白い砂のアクアトープ
Tags:op1 [_TNTlealu_] opening P.A.Works Progressive Animation Works Affirmation Neoskylove J-Pop JPop Pop Japanese Anime Aquatope of White Sand Sakurano Usa 桜野羽咲 Sorano Aozora 空野青空 Aida Shion 相田詩音 Hanamiya Hana 花宮ハナ Amano Hikaru 天野ひかる Tabuchi Tomoya 田淵智也 Kusano Kayoko 草野華余子 Horie Shota 堀江晶太
BeatmapID:3112654
BeatmapSetID:1520871

[Difficulty]
HPDrainRate:6
CircleSize:3.8
OverallDifficulty:6.5
ApproachRate:8
SliderMultiplier:1.4
SliderTickRate:1

[Events]
//Background and Video events
0,0,"2.jpg",0,0
Video,2018,"1.mp4"
//Break Periods
//Storyboard Layer 0 (Background)
//Storyboard Layer 1 (Fail)
//Storyboard Layer 2 (Pass)
//Storyboard Layer 3 (Foreground)
//Storyboard Layer 4 (Overlay)
//Storyboard Sound Samples

[TimingPoints]
2107,333.333333333333,4,2,0,45,1,0
7106,-125,4,2,0,45,0,0
7440,-125,4,2,1,45,0,0
18106,-100,4,2,1,55,0,0
28773,-100,4,2,1,50,0,0
34106,-100,4,2,1,55,0,0
38440,-100,4,2,1,40,0,0
38606,-100,4,2,1,45,0,0
38773,-100,4,2,1,50,0,0
38940,-100,4,2,1,55,0,0
39106,-100,4,2,1,60,0,0
39273,-100,4,2,1,65,0,0
40106,-125,4,2,1,65,0,0
40773,333.333333333333,3,2,1,75,1,1
46022,-100,3,2,1,5,0,1
46106,-100,3,2,1,75,0,1
46356,-100,3,2,1,5,0,1
46439,-100,3,2,1,75,0,1
62022,-100,3,2,1,5,0,1
62106,-100,3,2,1,75,0,1
62356,-100,3,2,1,5,0,1
62439,-100,3,2,1,75,0,1
72356,-100,3,2,1,5,0,1
72439,-100,3,2,1,75,0,1
72772,333.333333333333,4,2,1,70,1,0
83438,-100,4,2,1,45,0,0
85938,-100,4,2,1,60,0,0

[Colours]
Combo1 : 240,140,140
Combo2 : 200,180,220
Combo3 : 240,200,155
Combo4 : 150,185,220

[HitObjects]
256,192,2106,12,2,6106,0:2:0:0:
472,363,7106,6,0,L|458:292,1,56
449,235,7440,2,0,B|402:249|402:249|320:227,1,112,2|0,0:2|0:0,0:0:0:0:
272,208,7940,1,2,0:2:0:0:
94,81,8440,2,0,B|83:117|83:117|92:156,1,56
104,205,8773,2,0,B|116:264|116:264|92:332,1,112,2|0,0:2|0:0,0:0:0:0:
77,382,9273,1,2,0:2:0:0:
295,379,9773,2,0,L|311:319,1,56
329,254,10106,6,0,B|297:222|297:222|216:240,1,112,2|0,0:2|0:0,0:0:0:0:
160,249,10606,2,0,P|117:189|179:123,1,168,2|0,0:2|0:0,0:0:0:0:
229,83,11273,1,0,0:0:0:0:
229,83,11440,2,0,P|274:89|306:101,1,56,2|0,0:2|0:0,0:0:0:0:
356,121,11773,1,0,0:0:0:0:
356,121,11940,1,2,0:2:0:0:
279,325,12440,2,0,P|322:317|356:317,1,56
404,335,12773,6,0,P|419:256|420:207,1,112,2|0,0:2|0:0,0:0:0:0:
428,152,13273,2,0,B|382:127|382:127|300:131,2,112,2|0|0,0:2|0:0|0:0,0:0:0:0:
420,224,14106,2,0,L|291:230,1,112,2|0,0:2|0:0,0:0:0:0:
198,325,14773,2,0,L|328:319,1,112
455,311,15440,5,2,0:2:0:0:
463,169,15773,1,0,0:0:0:0:
463,169,15940,2,0,P|456:111|389:98,1,112,2|2,0:2|0:2,0:0:0:0:
269,122,16606,1,0,0:0:0:0:
196,111,16773,2,0,P|207:77|228:58,2,56,2|0|2,0:2|0:0|0:2,0:0:0:0:
183,182,17273,2,0,P|165:245|168:307,1,112,2|2,0:2|0:2,0:0:0:0:
194,357,17773,2,0,P|233:364|266:360,1,56,0|0,3:3|0:0,0:0:0:0:
337,349,18106,6,0,P|332:287|369:210,1,140,6|0,3:2|3:3,0:0:0:0:
397,141,18606,1,2,0:2:0:0:
397,141,18773,2,0,L|377:58,1,70,0|0,3:3|0:0,0:0:0:0:
313,21,19106,2,0,L|291:101,1,70,0|0,3:3|0:0,0:0:0:0:
265,168,19440,2,0,B|194:182|194:182|144:131,1,140,2|0,3:2|3:3,0:0:0:0:
91,77,19940,1,2,0:2:0:0:
91,77,20106,2,0,P|71:107|66:146,1,70,0|0,3:3|0:0,0:0:0:0:
107,213,20440,2,0,P|113:248|105:284,1,70,0|0,3:3|0:0,0:0:0:0:
51,345,20773,6,0,B|87:365|87:365|211:353,1,140,2|0,3:2|3:3,0:0:0:0:
271,340,21273,1,2,0:2:0:0:
271,340,21440,2,0,P|268:299|256:254,2,70,0|0|0,3:3|0:0|3:3,0:0:0:0:
354,346,21940,1,0,0:0:0:0:
354,346,22106,2,0,P|386:313|410:276,1,70,2|0,3:2|0:0,0:0:0:0:
441,221,22440,1,0,3:3:0:0:
441,221,22606,2,0,P|372:206|285:199,1,140,2|0,0:2|0:0,0:0:0:0:
224,170,23106,2,0,B|217:131|217:131|241:86,1,70,2|0,3:2|0:0,0:0:0:0:
278,32,23440,6,0,B|217:18|217:18|134:31,1,140,2|0,3:2|3:3,0:0:0:0:
61,58,23940,1,2,0:2:0:0:
61,58,24106,2,0,L|44:137,1,70,0|0,3:3|0:0,0:0:0:0:
114,176,24440,2,0,L|134:89,1,70,0|0,3:3|0:0,0:0:0:0:
212,90,24773,2,0,L|170:276,1,140,2|0,3:2|3:3,0:0:0:0:
161,307,25272,1,2,0:2:0:0:
161,307,25439,2,0,B|259:297,1,70,0|0,3:3|0:0,0:0:0:0:
314,288,25773,1,8,0:2:0:0:
355,125,26106,5,6,3:2:0:0:
431,274,26440,1,0,3:3:0:0:
281,351,26773,1,0,3:3:0:0:
205,201,27106,1,2,3:2:0:0:
355,125,27440,5,14,0:2:0:0:
434,81,27606,1,0,3:3:0:0:
484,157,27773,2,0,B|502:201|502:201|486:241,1,70,14|0,0:2|0:0,0:0:0:0:
466,309,28106,2,0,B|434:330|434:330|390:333,1,70,10|0,0:2|3:3,0:0:0:0:
319,327,28439,1,8,0:2:0:0:
319,327,28522,1,8,0:2:0:0:
319,327,28606,1,8,0:2:0:0:
182,379,28773,6,0,P|113:349|34:344,1,140,6|8,3:2|0:2,0:0:0:0:
23,258,29273,2,0,P|86:229|155:221,1,140,2|0,3:2|3:3,0:0:0:0:
239,225,29773,2,0,B|272:153|272:153|240:71,1,140,10|0,0:2|0:0,0:0:0:0:
185,41,30273,1,0,3:3:0:0:
263,11,30440,2,0,L|359:3,1,70,8|0,0:2|0:0,0:0:0:0:
378,11,30690,1,8,0:2:0:0:
378,11,30773,2,0,P|394:53|395:82,1,70,0|0,3:3|3:3,0:0:0:0:
403,161,31106,2,0,P|387:203|386:232,1,70,8|0,0:2|0:0,0:0:0:0:
425,325,31440,6,0,B|383:345|383:345|270:321,1,140,2|8,3:2|0:2,0:0:0:0:
214,364,31940,2,0,B|175:337|175:337|139:227,1,140,2|0,3:2|3:3,0:0:0:0:
151,156,32440,2,0,B|219:127|219:127|298:149,1,140,10|0,0:2|0:0,0:0:0:0:
364,178,32940,1,0,3:3:0:0:
441,209,33106,2,0,P|430:251|432:307,1,70,8|0,0:2|0:0,0:0:0:0:
367,337,33440,2,0,P|337:348|287:345,1,70,8|8,0:2|0:2,0:0:0:0:
218,332,33773,1,8,0:2:0:0:
218,332,33856,1,8,0:2:0:0:
218,332,33939,1,8,0:2:0:0:
127,338,34106,6,0,P|104:277|139:198,1,140,6|8,3:2|0:2,0:0:0:0:
191,143,34606,1,2,0:2:0:0:
172,54,34773,2,0,L|70:45,1,70,0|0,3:3|3:3,0:0:0:0:
29,90,35106,2,0,B|14:128|14:128|23:177,1,70,10|0,0:2|0:0,0:0:0:0:
51,234,35440,2,0,L|206:250,1,140,2|8,3:2|0:2,0:0:0:0:
273,263,35940,1,2,0:2:0:0:
317,333,36106,2,0,P|366:319|394:295,1,70,0|0,3:3|3:3,0:0:0:0:
453,263,36440,2,0,P|448:223|433:192,1,70,10|0,0:2|0:0,0:0:0:0:
364,117,36773,5,6,3:2:0:0:
473,29,37106,2,0,L|460:111,1,70,2|0,3:2|0:0,0:0:0:0:
443,180,37440,1,2,3:2:0:0:
371,124,37606,1,2,0:2:0:0:
371,124,37690,1,8,0:2:0:0:
371,124,37773,2,0,L|271:133,1,70,8|8,0:2|0:2,0:0:0:0:
197,145,38106,5,6,3:2:0:0:
64,103,38440,2,0,L|69:203,1,70,8|8,0:2|0:2,0:0:0:0:
132,225,38773,2,0,L|118:319,1,70,8|8,0:2|0:2,0:0:0:0:
105,376,39106,1,10,0:2:0:0:
219,331,39273,1,10,0:2:0:0:
425,56,40106,6,0,B|363:88|398:146|398:146|434:213,1,168,2|0,0:2|0:0,0:0:0:0:
469,268,40773,6,0,P|412:292|344:227,1,140,6|2,3:2|0:2,0:0:0:0:
281,151,41439,2,0,B|250:130|250:130|233:166,1,70,2|0,3:2|0:0,0:0:0:0:
170,256,41773,2,0,P|115:295|52:271,1,140,10|2,0:2|0:2,0:0:0:0:
17,98,42439,2,0,L|93:75,1,70,2|0,3:2|0:0,0:0:0:0:
168,36,42773,2,0,P|190:101|172:168,2,140,2|2|2,3:2|0:2|3:2,0:0:0:0:
337,34,43773,2,0,P|316:116|337:186,1,140,10|0,0:2|0:0,0:0:0:0:
328,168,44439,1,2,3:2:0:0:
417,145,44606,1,0,0:0:0:0:
391,233,44772,6,0,B|366:294|366:294|388:375,2,140,2|2|2,3:2|0:2|3:2,0:0:0:0:
479,147,45606,1,0,0:0:0:0:
396,134,45772,2,0,P|341:141|286:182,1,105,10|0,0:2|0:0,0:0:0:0:
260,183,46106,2,0,P|234:122|232:78,1,105,2|0,0:2|0:0,0:0:0:0:
241,43,46439,1,2,3:2:0:0:
76,18,46772,1,2,3:2:0:0:
76,18,46939,1,0,0:0:0:0:
67,101,47106,2,0,B|36:171|36:171|62:255,1,140,2|0,0:2|3:3,0:0:0:0:
192,136,47772,2,0,B|223:206|223:206|204:267,2,140,10|2|2,0:2|3:2|3:2,0:0:0:0:
363,147,48772,5,6,3:2:0:0:
363,147,48939,1,0,0:0:0:0:
404,220,49106,2,0,B|430:285|430:285|412:367,1,140,2|0,0:2|3:3,0:0:0:0:
247,357,49772,2,0,P|155:368|104:336,1,140,10|2,0:2|0:2,0:0:0:0:
57,190,50439,2,0,P|106:219|140:232,1,70,2|0,3:2|0:0,0:0:0:0:
228,253,50772,2,0,B|259:185|206:138|206:138|189:98|212:53|268:44|296:86|285:122,1,280,2|0,3:2|3:3,0:0:0:0:
228,253,51772,2,0,P|155:258|104:194,1,140,10|2,0:2|0:2,0:0:0:0:
39,64,52439,1,2,3:2:0:0:
203,95,52772,6,0,P|258:103|339:51,1,140,6|0,3:2|3:3,0:0:0:0:
387,2,53272,1,8,0:2:0:0:
452,55,53439,2,0,P|474:97|478:138,1,70,2|0,0:2|3:3,0:0:0:0:
402,155,53772,2,0,P|381:212|400:289,1,140,10|0,0:2|3:3,0:0:0:0:
449,362,54272,1,0,0:0:0:0:
449,362,54356,1,0,0:0:0:0:
449,362,54439,2,0,L|368:373,1,70,2|8,3:2|0:2,0:0:0:0:
282,354,54772,6,0,P|300:287|278:221,1,140,6|0,3:2|3:3,0:0:0:0:
214,174,55272,1,8,0:2:0:0:
158,237,55439,2,0,L|82:229,1,70,2|0,0:2|3:3,0:0:0:0:
11,231,55772,1,2,3:2:0:0:
11,231,55856,1,0,0:0:0:0:
11,231,55939,2,0,L|21:304,1,70,8|8,0:2|0:2,0:0:0:0:
43,381,56272,1,0,0:0:0:0:
126,368,56439,2,0,L|209:356,1,70,2|8,3:2|0:2,0:0:0:0:
296,332,56772,6,0,P|350:371|413:347,1,140,6|2,3:2|0:2,0:0:0:0:
462,267,57272,1,0,3:3:0:0:
461,166,57439,2,0,P|421:177|388:209,1,70,2|0,0:2|3:3,0:0:0:0:
309,250,57772,2,0,P|292:157|317:93,1,140,10|2,0:2|3:2,0:0:0:0:
352,29,58272,1,8,0:2:0:0:
268,39,58439,2,0,L|178:28,1,70,2|0,3:2|0:0,0:0:0:0:
125,71,58772,2,0,P|70:102|-9:76,2,140,2|2|2,3:2|0:2|0:2,0:0:0:0:
81,233,59772,2,0,P|136:202|215:228,1,140,10|0,0:2|3:3,0:0:0:0:
276,173,60272,1,8,0:2:0:0:
303,252,60439,2,0,L|289:338,1,70,2|0,3:2|0:0,0:0:0:0:
200,376,60772,6,0,B|125:379|125:379|63:346,1,140,6|2,3:2|0:2,0:0:0:0:
27,280,61272,1,0,3:3:0:0:
20,196,61439,2,0,P|20:156|34:116,1,70,2|0,0:2|3:3,0:0:0:0:
63,51,61772,2,0,P|117:60|181:91,1,105,10|0,0:2|0:0,0:0:0:0:
196,106,62106,2,0,P|219:156|222:217,1,105,2|0,3:2|0:0,0:0:0:0:
224,246,62438,1,2,3:2:0:0:
356,349,62771,5,6,3:2:0:0:
430,305,62939,1,0,0:0:0:0:
430,305,63022,1,0,0:0:0:0:
430,305,63106,1,2,3:2:0:0:
496,253,63272,2,0,P|495:213|486:178,1,70,8|0,0:2|0:0,0:0:0:0:
447,109,63606,1,0,3:3:0:0:
378,156,63772,2,0,B|329:180|329:180|244:165,1,140,10|10,0:2|0:2,0:0:0:0:
168,141,64272,1,0,0:0:0:0:
168,141,64439,1,10,0:2:0:0:
29,235,64772,5,6,3:2:0:0:
27,155,64938,1,0,0:0:0:0:
27,155,65106,2,0,P|69:129|113:121,1,70,2|0,0:2|3:3,0:0:0:0:
148,64,65439,2,0,P|192:87|221:121,1,70,0|0,0:0|3:3,0:0:0:0:
290,109,65772,2,0,P|272:201|223:254,1,140,10|2,0:2|3:2,0:0:0:0:
178,287,66272,1,8,0:2:0:0:
178,287,66439,1,2,3:2:0:0:
29,364,66772,5,2,3:2:0:0:
115,381,66939,1,0,0:0:0:0:
115,381,67106,2,0,P|152:381|194:365,1,70,0|2,0:0|0:2,0:0:0:0:
259,335,67439,2,0,P|268:285|256:244,1,70
213,199,67772,2,0,P|191:134|203:60,1,140,8|2,0:2|3:2,0:0:0:0:
254,0,68272,1,0,0:0:0:0:
254,0,68439,1,2,3:2:0:0:
415,43,68772,6,0,P|360:51|294:116,1,140,6|0,3:2|3:3,0:0:0:0:
268,183,69271,1,8,0:2:0:0:
274,267,69439,2,0,L|282:355,1,70,2|0,0:2|3:3,0:0:0:0:
352,379,69772,1,14,0:2:0:0:
397,307,69939,1,0,0:0:0:0:
468,351,70106,2,0,B|481:316|481:316|476:274,1,70,0|0,3:3|0:0,0:0:0:0:
470,242,70356,1,0,3:3:0:0:
470,242,70439,1,10,0:2:0:0:
417,82,70772,6,0,P|365:45|269:46,1,140,14|0,0:2|3:3,0:0:0:0:
213,72,71271,1,8,0:2:0:0:
238,152,71439,2,0,P|239:193|219:225,1,70,2|0,3:2|3:3,0:0:0:0:
153,260,71772,1,10,0:2:0:0:
114,185,71938,1,0,3:3:0:0:
45,234,72106,2,0,P|44:294|35:360,1,105,8|0,0:2|0:0,0:0:0:0:
31,380,72439,2,0,P|69:383|121:368,1,70,2|0,3:2|0:0,0:0:0:0:
212,336,72772,5,6,3:2:0:0:
199,168,73105,1,8,0:2:0:0:
255,9,73438,2,0,P|298:19|342:39,1,70,0|0,3:3|3:3,0:0:0:0:
396,68,73772,1,0,3:3:0:0:
469,107,73938,2,0,P|476:175|448:245,1,140,8|0,0:2|3:3,0:0:0:0:
373,218,74438,2,0,P|358:260|358:302,1,70,8|0,0:2|0:0,0:0:0:0:
356,373,74772,1,2,3:2:0:0:
356,373,74938,1,0,3:3:0:0:
287,323,75105,2,0,P|248:308|190:301,1,70,10|0,0:2|0:0,0:0:0:0:
131,309,75438,6,0,P|125:249|136:216,1,70,2|0,3:2|3:3,0:0:0:0:
183,142,75772,1,8,0:2:0:0:
198,16,76105,2,0,P|163:4|104:7,1,70,0|0,3:3|3:3,0:0:0:0:
58,47,76438,1,8,0:2:0:0:
72,129,76605,2,0,P|54:201|82:274,1,140,0|0,3:3|3:3,0:0:0:0:
108,338,77105,1,8,0:2:0:0:
273,363,77438,2,0,P|291:330|404:342,1,140,2|8,3:2|0:2,0:0:0:0:
452,370,77938,1,0,0:0:0:0:
486,293,78105,6,0,L|490:212,1,70,2|0,3:2|3:3,0:0:0:0:
454,128,78438,1,12,0:2:0:0:
325,84,78772,2,0,P|259:110|190:71,1,140,0|8,3:3|0:2,0:0:0:0:
139,24,79272,2,0,P|104:19|70:28,1,70,0|0,3:3|0:0,0:0:0:0:
12,88,79605,1,0,3:3:0:0:
60,157,79772,2,0,L|57:254,1,70,8|0,0:2|0:0,0:0:0:0:
63,314,80105,1,2,3:2:0:0:
63,314,80271,1,0,3:3:0:0:
137,275,80438,2,0,P|172:248|188:222,1,70,10|0,0:2|0:0,0:0:0:0:
249,126,80771,6,0,P|278:160|291:211,1,70,2|0,3:2|3:3,0:0:0:0:
266,265,81105,2,0,B|304:280|304:280|347:273,1,70,8|0,0:2|0:0,0:0:0:0:
412,249,81438,2,0,P|411:218|420:174,2,70,0|0|8,3:3|3:3|0:2,0:0:0:0:
413,333,81938,1,4,3:2:0:0:
336,368,82105,2,0,L|244:360,1,70,0|0,0:0|3:3,0:0:0:0:
183,345,82438,2,0,P|153:309|149:274,1,70,8|0,0:2|0:0,0:0:0:0:
130,204,82771,2,0,P|167:208|197:196,1,70,0|8,3:3|0:2,0:0:0:0:
260,140,83105,1,8,0:2:0:0:
260,140,83188,1,0,0:0:0:0:
260,140,83271,1,8,0:2:0:0:
310,24,83438,5,6,3:2:0:0:
417,161,83771,1,0,0:0:0:0:
417,161,83938,1,2,0:2:0:0:
291,287,84271,1,0,0:0:0:0:
291,287,84438,2,0,P|241:280|201:283,1,70,2|0,0:2|0:0,0:0:0:0:
142,297,84771,1,0,0:0:0:0:
142,297,84938,1,2,0:2:0:0:
75,148,85271,1,0,0:0:0:0:
75,148,85438,2,0,P|108:108|219:113,1,140,2|0,0:2|0:0,0:0:0:0:
261,144,85938,6,0,L|253:233,2,70,14|0|0,0:2|0:0|0:0,0:0:0:0:
340,171,86438,2,0,L|333:255,1,70,2|2,3:2|3:2,0:0:0:0:
328,324,86771,1,2,3:2:0:0:
440,271,86938,1,14,0:2:0:0:
