osu file format v14

[General]
AudioFilename: audio.ogg
AudioLeadIn: 0
PreviewTime: 41996
Countdown: 0
SampleSet: Normal
StackLeniency: 0.7
Mode: 1
LetterboxInBreaks: 0
WidescreenStoryboard: 0

[Editor]
DistanceSpacing: 2.8
BeatDivisor: 2
GridSize: 32
TimelineZoom: 0.7000009

[Metadata]
Title:Tayutae, Nanairo (TV Size)
TitleUnicode:たゆたえ、七色 (TV Size)
Artist:ARCANA PROJECT
ArtistUnicode:ARCANA PROJECT
Creator:komasy
Version:Kantan
Source:白い砂のアクアトープ
Tags:japanese j-pop jpop pop anime shiroi suna no aquatope on white sand opening op 桜野羽咲 sakurano usa 花宮ハナ hanamiya hana 相田詩音 aida shion 空野青空 sorano aozora 天野ひかる amano hikaru
BeatmapID:3230803
BeatmapSetID:1582046

[Difficulty]
HPDrainRate:8
CircleSize:7
OverallDifficulty:3
ApproachRate:10
SliderMultiplier:1.4
SliderTickRate:1

[Events]
//Background and Video events
0,0,"91303180_p0.jpg",0,110
Video,3400,"output.mp4"
//Break Periods
//Storyboard Layer 0 (Background)
//Storyboard Layer 1 (Fail)
//Storyboard Layer 2 (Pass)
//Storyboard Layer 3 (Foreground)
//Storyboard Layer 4 (Overlay)
//Storyboard Sound Samples

[TimingPoints]
0,333.333333333333,4,1,0,5,1,0
0,-111.111111111111,4,1,0,5,0,0
3943,-111.111111111111,4,1,0,20,0,0
3999,333.333333333333,4,1,0,20,1,0
3999,-111.111111111111,4,1,0,20,0,0
7832,-111.111111111111,4,1,0,30,0,0
8082,-111.111111111111,4,1,0,5,0,0
8748,-111.111111111111,4,1,0,30,0,0
17822,-111.111111111111,4,1,0,36,0,0
18655,-108.695652173913,4,1,0,45,0,0
19155,-105.263157894737,4,1,0,51,0,0
19655,-102.040816326531,4,1,0,56,0,0
19988,-100,4,1,0,60,0,0
27998,-100,4,1,0,70,0,0
30665,-100,4,1,0,80,0,0
41248,-100,4,1,0,5,0,0
42581,-125,4,1,0,90,0,0
42665,333.333333333333,6,1,0,90,1,1
42665,-125,6,1,0,90,0,1
57664,-125,4,1,0,90,0,0
57831,-120.481927710843,4,1,0,90,0,0
58164,-116.279069767442,4,1,0,90,0,0
58664,-111.111111111111,4,1,0,90,0,1
73664,-111.111111111111,4,1,0,90,0,0
74664,333.333333333333,4,1,0,90,1,1
74664,-100,4,1,0,90,0,1
85330,-100,4,1,0,90,0,0
85413,-100,4,1,0,30,0,0
87153,-100,4,1,0,60,0,0
87320,-100,4,1,0,62,0,0
87487,-100,4,1,0,64,0,0
87653,-100,4,1,0,66,0,0
87820,-100,4,1,0,68,0,0
87987,-100,4,1,0,70,0,0

[HitObjects]
352,96,3999,5,8,0:0:0:0:
352,96,5332,1,8,0:0:0:0:
352,96,6665,1,8,0:0:0:0:
352,96,7998,1,8,0:0:0:0:
352,288,9332,5,4,0:0:0:0:
352,96,9832,1,8,0:0:0:0:
352,96,10665,1,8,0:0:0:0:
352,96,11165,1,8,0:0:0:0:
352,96,11998,5,8,0:0:0:0:
352,96,12498,1,8,0:0:0:0:
352,96,13332,1,8,0:0:0:0:
160,96,14665,5,0,0:0:0:0:
352,96,15165,1,8,0:0:0:0:
160,96,15998,1,0,0:0:0:0:
352,96,16498,1,8,0:0:0:0:
352,96,16998,1,8,0:0:0:0:
160,96,17332,5,0,0:0:0:0:
352,96,17832,1,8,0:0:0:0:
160,96,18665,1,0,0:0:0:0:
352,96,19165,1,8,0:0:0:0:
352,96,19665,1,8,0:0:0:0:
160,288,19998,5,4,0:0:0:0:
160,96,20665,1,8,0:0:0:0:
160,96,21332,5,0,0:0:0:0:
160,96,21665,1,8,0:0:0:0:
160,96,21998,1,8,0:0:0:0:
160,96,22665,5,0,0:0:0:0:
160,96,23332,1,0,0:0:0:0:
352,96,23665,1,8,0:0:0:0:
160,96,23998,5,0,0:0:0:0:
352,96,24998,1,8,0:0:0:0:
160,96,25332,5,0,0:0:0:0:
160,96,25998,1,8,0:0:0:0:
160,96,26665,5,0,0:0:0:0:
160,96,26998,1,0,0:0:0:0:
160,96,27332,1,8,0:0:0:0:
160,288,27998,5,4,0:0:0:0:
352,96,28665,1,8,0:0:0:0:
352,288,29332,5,12,0:0:0:0:
352,288,29665,1,12,0:0:0:0:
352,96,30332,1,8,0:0:0:0:
160,288,30665,5,4,0:0:0:0:
352,96,31165,1,8,0:0:0:0:
160,96,31665,1,0,0:0:0:0:
160,96,32665,1,0,0:0:0:0:
352,96,32998,1,8,0:0:0:0:
160,96,33332,5,0,0:0:0:0:
352,96,33832,1,8,0:0:0:0:
160,96,34332,1,0,0:0:0:0:
160,96,35332,1,0,0:0:0:0:
352,96,35665,1,8,0:0:0:0:
160,288,35998,5,4,0:0:0:0:
352,96,36498,1,8,0:0:0:0:
160,96,36998,1,0,0:0:0:0:
352,96,37332,5,8,0:0:0:0:
160,96,37832,1,0,0:0:0:0:
160,288,38665,5,4,0:0:0:0:
352,96,38998,1,8,0:0:0:0:
160,96,39332,1,0,0:0:0:0:
352,288,39998,5,12,0:0:0:0:
160,96,40332,1,0,0:0:0:0:
160,96,40665,1,0,0:0:0:0:
352,288,41165,1,12,0:0:0:0:
160,288,42665,5,4,0:0:0:0:
160,96,43331,1,0,0:0:0:0:
352,288,43665,1,12,0:0:0:0:
160,288,44665,1,4,0:0:0:0:
160,96,45331,1,0,0:0:0:0:
352,288,45665,1,12,0:0:0:0:
160,288,46664,5,4,0:0:0:0:
160,96,47331,1,0,0:0:0:0:
352,288,47664,1,12,0:0:0:0:
160,288,48664,1,4,0:0:0:0:
160,96,49331,1,0,0:0:0:0:
352,288,49664,1,12,0:0:0:0:
352,96,50331,1,8,0:0:0:0:
160,288,50664,5,4,0:0:0:0:
160,96,51331,1,0,0:0:0:0:
352,288,51664,1,12,0:0:0:0:
160,288,52664,1,4,0:0:0:0:
160,96,53331,1,0,0:0:0:0:
352,288,53664,1,12,0:0:0:0:
160,288,54664,5,4,0:0:0:0:
160,96,55331,1,0,0:0:0:0:
352,288,55664,1,12,0:0:0:0:
352,96,56331,1,8,0:0:0:0:
160,288,56664,5,4,0:0:0:0:
160,96,57331,1,0,0:0:0:0:
352,96,57664,1,8,0:0:0:0:
352,96,57998,1,8,0:0:0:0:
352,96,58331,1,8,0:0:0:0:
160,288,58664,5,4,0:0:0:0:
352,96,59664,1,8,0:0:0:0:
160,96,59998,1,0,0:0:0:0:
160,96,60331,1,0,0:0:0:0:
352,96,60664,5,8,0:0:0:0:
160,96,61331,1,0,0:0:0:0:
352,96,61664,1,8,0:0:0:0:
160,288,62664,5,4,0:0:0:0:
160,96,63331,1,0,0:0:0:0:
352,288,63664,1,12,0:0:0:0:
160,96,64331,1,0,0:0:0:0:
352,288,64664,5,12,0:0:0:0:
352,96,65664,1,8,0:0:0:0:
352,96,65998,1,8,0:0:0:0:
352,96,66331,1,8,0:0:0:0:
160,288,66664,5,4,0:0:0:0:
352,96,67664,1,8,0:0:0:0:
352,96,67998,1,8,0:0:0:0:
352,96,68331,1,8,0:0:0:0:
160,96,68664,5,0,0:0:0:0:
352,96,69664,1,8,0:0:0:0:
160,96,69998,1,0,0:0:0:0:
160,96,70331,1,0,0:0:0:0:
352,288,70664,5,12,0:0:0:0:
352,96,71331,1,8,0:0:0:0:
160,288,71664,1,4,0:0:0:0:
160,96,72331,1,0,0:0:0:0:
352,288,72664,5,12,0:0:0:0:
160,96,73331,1,0,0:0:0:0:
352,288,73664,1,12,0:0:0:0:
352,288,73998,1,12,0:0:0:0:
160,288,74664,5,4,0:0:0:0:
352,96,75664,1,8,0:0:0:0:
352,96,76330,1,8,0:0:0:0:
160,96,76664,1,0,0:0:0:0:
352,96,76997,1,8,0:0:0:0:
160,96,77330,5,0,0:0:0:0:
352,96,77664,1,8,0:0:0:0:
352,96,78330,1,8,0:0:0:0:
352,96,78997,1,8,0:0:0:0:
352,96,79330,1,8,0:0:0:0:
160,96,79997,5,0,0:0:0:0:
352,96,80997,1,8,0:0:0:0:
352,96,81664,1,8,0:0:0:0:
160,96,81997,1,0,0:0:0:0:
352,96,82330,1,8,0:0:0:0:
160,96,82663,5,0,0:0:0:0:
352,96,82997,1,8,0:0:0:0:
352,96,83663,1,8,0:0:0:0:
352,96,84330,1,8,0:0:0:0:
160,96,84663,1,0,0:0:0:0:
352,96,84997,1,8,0:0:0:0:
160,288,85330,5,4,0:0:0:0:
352,96,87330,1,8,0:0:0:0:
352,96,87830,1,8,0:0:0:0:
160,288,88330,1,4,0:0:0:0:
352,288,88830,1,12,0:0:0:0:
