osu file format v14

[General]
AudioFilename: audio.ogg
AudioLeadIn: 0
PreviewTime: 41996
Countdown: 0
SampleSet: Normal
StackLeniency: 0.7
Mode: 1
LetterboxInBreaks: 0
WidescreenStoryboard: 0

[Editor]
DistanceSpacing: 2.8
BeatDivisor: 4
GridSize: 32
TimelineZoom: 2.7

[Metadata]
Title:Tayutae, Nanairo (TV Size)
TitleUnicode:たゆたえ、七色 (TV Size)
Artist:ARCANA PROJECT
ArtistUnicode:ARCANA PROJECT
Creator:komasy
Version:Floating in the sea
Source:白い砂のアクアトープ
Tags:japanese j-pop jpop pop anime shiroi suna no aquatope on white sand opening op 桜野羽咲 sakurano usa 花宮ハナ hanamiya hana 相田詩音 aida shion 空野青空 sorano aozora 天野ひかる amano hikaru
BeatmapID:3230801
BeatmapSetID:1582046

[Difficulty]
HPDrainRate:6
CircleSize:7
OverallDifficulty:6
ApproachRate:10
SliderMultiplier:1.4
SliderTickRate:1

[Events]
//Background and Video events
0,0,"91303180_p0.jpg",0,110
Video,3400,"output.mp4"
//Break Periods
//Storyboard Layer 0 (Background)
//Storyboard Layer 1 (Fail)
//Storyboard Layer 2 (Pass)
//Storyboard Layer 3 (Foreground)
//Storyboard Layer 4 (Overlay)
//Storyboard Sound Samples

[TimingPoints]
0,333.333333333333,4,1,0,5,1,0
0,-133.333333333333,4,1,0,5,0,0
3943,-133.333333333333,4,1,0,20,0,0
3999,333.333333333333,4,1,0,20,1,0
3999,-133.333333333333,4,1,0,20,0,0
7832,-133.333333333333,4,1,0,30,0,0
8082,-133.333333333333,4,1,0,5,0,0
8748,-133.333333333333,4,1,0,30,0,0
17322,-133.333333333333,4,1,0,30,0,0
17655,-128.003841075501,4,1,0,34,0,0
17822,-125.488350200047,4,1,0,36,0,0
18155,-120.756426225795,4,1,0,39,0,0
18488,-116.368398079441,4,1,0,43,0,0
18655,-114.285714285714,4,1,0,45,0,0
18822,-112.276268688145,4,1,0,47,0,0
18905,-111.303621751383,4,1,0,48,0,0
18988,-110.347682119205,4,1,0,49,0,0
19155,-108.473197029804,4,1,0,51,0,0
19322,-106.661332266453,4,1,0,53,0,0
19405,-105.783156432894,4,1,0,53,0,0
19488,-104.919323101141,4,1,0,54,0,0
19655,-103.223308489014,4,1,0,56,0,0
19988,-100,4,1,0,60,0,0
27998,-100,4,1,0,70,0,0
30665,-100,4,1,0,80,0,0
38655,-100,4,1,0,80,0,0
38988,-97.4051274059067,4,1,0,80,0,0
39155,-96.1538461538461,4,1,0,80,0,0
39322,-94.9343054606212,4,1,0,80,0,0
39488,-93.7523438085952,4,1,0,80,0,0
39572,-93.1653871953492,4,1,0,80,0,0
39655,-92.5925925925926,4,1,0,80,0,0
39822,-91.4611838735641,4,1,0,80,0,0
39905,-90.9090909090909,4,1,0,80,0,0
39988,-90.3636232198366,4,1,0,80,0,0
40238,-88.7594972662075,4,1,0,80,0,0
40322,-88.2332180419284,4,1,0,80,0,0
40488,-87.2113304960581,4,1,0,80,0,0
40655,-86.2068965517241,4,1,0,80,0,0
40822,-85.225335787823,4,1,0,80,0,0
40988,-84.2715566641947,4,1,0,80,0,0
41155,-83.3333333333333,4,1,0,80,0,0
41248,-76.9230769230769,4,1,0,5,0,0
42581,-200,4,1,0,90,0,0
42665,333.333333333333,6,1,0,90,1,1
42665,-200,6,1,0,90,0,1
54988,-191.984641228702,4,1,0,90,0,1
55154,-188.235294117647,4,1,0,90,0,1
55321,-184.608284296758,4,1,0,90,0,1
55488,-181.118406158026,4,1,0,90,0,1
55654,-177.777777777778,4,1,0,90,0,1
55988,-171.416327405185,4,1,0,90,0,1
56154,-168.421052631579,4,1,0,90,0,1
56238,-166.944908180301,4,1,0,90,0,1
56321,-165.511534085032,4,1,0,90,0,1
56488,-162.700833841773,4,1,0,90,0,1
56654,-160,4,1,0,90,0,1
56988,-154.828720727695,4,1,0,90,0,1
57154,-152.380952380952,4,1,0,90,0,1
57321,-149.99531264648,4,1,0,90,0,1
57404,-148.837209302326,4,1,0,90,0,1
57488,-147.683219494185,4,1,0,90,0,1
57571,-146.560410369149,4,1,0,90,0,1
57664,-145.454545454545,4,1,0,90,0,0
57738,-144.352219415373,4,1,0,90,0,0
57821,-143.27930509537,4,1,0,90,0,0
57988,-141.168166578437,4,1,0,90,0,0
58154,-139.130434782609,4,1,0,90,0,0
58238,-138.121546961326,4,1,0,90,0,0
58321,-137.13893888746,4,1,0,90,0,0
58404,-136.170212765957,4,1,0,90,0,0
58488,-135.203650498563,4,1,0,90,0,0
58571,-134.261978685911,4,1,0,90,0,0
58664,-133.333333333333,4,1,0,90,0,1
70654,-133.333333333333,4,1,0,90,0,1
70988,-129.722717690936,4,1,0,90,0,1
71154,-128,4,1,0,90,0,1
71238,-127.145581691036,4,1,0,90,0,1
71321,-126.312465461435,4,1,0,90,0,1
71404,-125.490196078431,4,1,0,90,0,1
71488,-124.668848371513,4,1,0,90,0,1
71654,-123.076923076923,4,1,0,90,0,1
71988,-119.994000299985,4,1,0,90,0,1
72154,-118.518518518519,4,1,0,90,0,1
72238,-117.785630153121,4,1,0,90,0,1
72321,-117.070315358162,4,1,0,90,0,1
72404,-116.363636363636,4,1,0,90,0,1
72488,-115.657076767385,4,1,0,90,0,1
72654,-114.285714285714,4,1,0,90,0,1
72821,-112.938519093668,4,1,0,90,0,1
72904,-112.280701754386,4,1,0,90,0,1
72988,-111.622715222548,4,1,0,90,0,1
73154,-110.344827586207,4,1,0,90,0,1
73321,-109.088429808413,4,1,0,90,0,1
73404,-108.474576271186,4,1,0,90,0,1
73488,-107.860320884455,4,1,0,90,0,1
73571,-107.260172957029,4,1,0,90,0,1
73664,-106.666666666667,4,1,0,90,0,0
73821,-105.492186984901,4,1,0,90,0,0
73988,-104.343289422199,4,1,0,90,0,0
74321,-102.125486691772,4,1,0,90,0,0
74488,-101.048376910446,4,1,0,90,0,0
74571,-100.521455048062,4,1,0,90,0,0
74664,333.333333333333,4,1,0,90,1,1
74664,-100,4,1,0,90,0,1
85330,-100,4,1,0,90,0,0
85413,-133.333333333333,4,1,0,30,0,0
87153,-133.333333333333,4,1,0,60,0,0
87320,-127.37831435776,4,1,0,62,0,0
87487,-121.93248729108,4,1,0,64,0,0
87653,-116.961936502368,4,1,0,66,0,0
87820,-112.354249511357,4,1,0,68,0,0
87987,-108.095840223065,4,1,0,70,0,0
88153,-104.171223246368,4,1,0,70,0,0
88320,-100.500391873154,4,1,0,70,0,0
88487,-97.0794630637976,4,1,0,70,0,0
88653,-93.9022672862977,4,1,0,70,0,0
88820,-90.9090909090909,4,1,0,70,0,0

[HitObjects]
352,96,3999,5,8,0:0:0:0:
352,96,5332,1,8,0:0:0:0:
352,96,6665,1,8,0:0:0:0:
352,96,7957,1,8,0:0:0:0:
352,96,7998,1,8,0:0:0:0:
352,288,9332,5,4,0:0:0:0:
352,96,9832,1,8,0:0:0:0:
352,96,10498,1,8,0:0:0:0:
352,96,10665,1,8,0:0:0:0:
352,96,11165,1,8,0:0:0:0:
352,96,11832,1,8,0:0:0:0:
352,96,11998,5,8,0:0:0:0:
352,96,12498,1,8,0:0:0:0:
352,96,13165,1,8,0:0:0:0:
352,96,13332,1,8,0:0:0:0:
352,96,13582,1,8,0:0:0:0:
352,96,13832,1,8,0:0:0:0:
352,96,14332,1,8,0:0:0:0:
352,96,14498,1,8,0:0:0:0:
160,96,14665,5,0,0:0:0:0:
352,96,14998,1,8,0:0:0:0:
352,96,15165,1,8,0:0:0:0:
352,96,15498,1,8,0:0:0:0:
352,96,15832,1,8,0:0:0:0:
160,96,15998,1,0,0:0:0:0:
352,96,16332,1,8,0:0:0:0:
352,96,16498,1,8,0:0:0:0:
352,96,16665,1,8,0:0:0:0:
352,96,16998,1,8,0:0:0:0:
352,96,17165,1,8,0:0:0:0:
160,96,17332,5,0,0:0:0:0:
160,96,17665,1,0,0:0:0:0:
352,96,17832,1,8,0:0:0:0:
160,96,18165,1,0,0:0:0:0:
352,96,18498,1,8,0:0:0:0:
160,96,18665,1,0,0:0:0:0:
352,96,18832,1,8,0:0:0:0:
160,96,18915,1,0,0:0:0:0:
352,96,18998,1,8,0:0:0:0:
160,96,19165,1,0,0:0:0:0:
352,96,19332,1,8,0:0:0:0:
352,96,19415,1,8,0:0:0:0:
160,96,19498,1,0,0:0:0:0:
352,96,19665,1,8,0:0:0:0:
160,288,19998,5,4,0:0:0:0:
160,96,20332,1,0,0:0:0:0:
160,96,20665,1,0,0:0:0:0:
160,96,20998,1,0,0:0:0:0:
352,96,21165,1,8,0:0:0:0:
160,96,21332,5,0,0:0:0:0:
160,96,21665,1,0,0:0:0:0:
352,96,21832,1,8,0:0:0:0:
160,96,21998,1,0,0:0:0:0:
352,96,22165,1,8,0:0:0:0:
352,96,22248,1,8,0:0:0:0:
160,96,22332,1,0,0:0:0:0:
352,96,22498,1,8,0:0:0:0:
160,96,22665,5,0,0:0:0:0:
160,96,22998,1,0,0:0:0:0:
352,96,23165,1,8,0:0:0:0:
160,96,23332,1,0,0:0:0:0:
160,96,23415,1,0,0:0:0:0:
352,96,23498,1,8,0:0:0:0:
160,96,23665,1,0,0:0:0:0:
352,96,23832,1,8,0:0:0:0:
160,96,23998,5,0,0:0:0:0:
352,96,24248,1,8,0:0:0:0:
160,96,24332,1,0,0:0:0:0:
352,96,24498,1,8,0:0:0:0:
160,96,24665,1,0,0:0:0:0:
352,96,24832,1,8,0:0:0:0:
160,96,24915,1,0,0:0:0:0:
352,96,24998,1,8,0:0:0:0:
352,96,25165,1,8,0:0:0:0:
160,96,25332,5,0,0:0:0:0:
160,96,25665,1,0,0:0:0:0:
352,96,25832,1,8,0:0:0:0:
160,96,25998,1,0,0:0:0:0:
352,96,26165,1,8,0:0:0:0:
352,96,26248,1,8,0:0:0:0:
160,96,26332,1,0,0:0:0:0:
352,96,26498,1,8,0:0:0:0:
160,96,26665,5,0,0:0:0:0:
160,96,26998,1,0,0:0:0:0:
352,96,27165,1,8,0:0:0:0:
160,96,27332,1,0,0:0:0:0:
352,96,27415,1,8,0:0:0:0:
160,96,27498,1,0,0:0:0:0:
160,96,27582,1,0,0:0:0:0:
352,96,27665,1,8,0:0:0:0:
160,288,27998,5,4,0:0:0:0:
160,96,28332,1,0,0:0:0:0:
160,96,28498,1,0,0:0:0:0:
160,96,28582,1,0,0:0:0:0:
352,96,28665,1,8,0:0:0:0:
160,96,28832,1,0,0:0:0:0:
352,96,28998,1,8,0:0:0:0:
160,96,29082,1,0,0:0:0:0:
160,96,29165,1,0,0:0:0:0:
352,288,29332,5,12,0:0:0:0:
160,96,29498,1,0,0:0:0:0:
352,288,29665,1,12,0:0:0:0:
160,96,29832,1,0,0:0:0:0:
352,96,29915,1,8,0:0:0:0:
160,96,29998,1,0,0:0:0:0:
160,96,30165,1,0,0:0:0:0:
160,96,30248,1,0,0:0:0:0:
352,96,30332,1,8,0:0:0:0:
352,96,30415,1,8,0:0:0:0:
352,96,30498,1,8,0:0:0:0:
352,96,30582,1,8,0:0:0:0:
160,96,30665,5,0,0:0:0:0:
160,96,30915,1,0,0:0:0:0:
352,96,30998,1,8,0:0:0:0:
160,96,31165,1,0,0:0:0:0:
160,96,31498,1,0,0:0:0:0:
352,96,31665,1,8,0:0:0:0:
352,96,31998,1,8,0:0:0:0:
160,96,32165,1,0,0:0:0:0:
352,96,32332,1,8,0:0:0:0:
352,96,32582,1,8,0:0:0:0:
160,96,32665,1,0,0:0:0:0:
160,96,32832,1,0,0:0:0:0:
352,96,32998,1,8,0:0:0:0:
160,96,33165,1,0,0:0:0:0:
160,96,33248,1,0,0:0:0:0:
160,96,33332,5,0,0:0:0:0:
160,96,33582,1,0,0:0:0:0:
352,96,33665,1,8,0:0:0:0:
160,96,33832,1,0,0:0:0:0:
160,96,34165,1,0,0:0:0:0:
352,96,34332,1,8,0:0:0:0:
352,96,34498,1,0,0:0:0:0:
160,96,34582,1,0,0:0:0:0:
352,96,34665,1,8,0:0:0:0:
160,96,34832,1,0,0:0:0:0:
352,96,34998,1,8,0:0:0:0:
160,96,35165,1,0,0:0:0:0:
352,96,35248,1,8,0:0:0:0:
160,96,35332,1,0,0:0:0:0:
352,96,35498,1,8,0:0:0:0:
352,96,35582,1,8,0:0:0:0:
160,96,35665,1,0,0:0:0:0:
352,96,35748,1,8,0:0:0:0:
352,96,35832,1,8,0:0:0:0:
352,96,35915,1,8,0:0:0:0:
160,96,35998,5,0,0:0:0:0:
352,96,36332,1,8,0:0:0:0:
160,96,36498,1,0,0:0:0:0:
160,96,36582,1,0,0:0:0:0:
352,96,36665,1,8,0:0:0:0:
160,96,36832,1,0,0:0:0:0:
352,96,36998,1,8,0:0:0:0:
352,96,37165,1,8,0:0:0:0:
352,96,37248,1,8,0:0:0:0:
160,96,37332,5,0,0:0:0:0:
352,96,37415,1,8,0:0:0:0:
160,96,37498,1,0,0:0:0:0:
352,96,37665,1,8,0:0:0:0:
160,96,37832,1,0,0:0:0:0:
352,96,37915,1,8,0:0:0:0:
352,96,37998,1,8,0:0:0:0:
160,96,38165,1,0,0:0:0:0:
352,96,38332,1,8,0:0:0:0:
160,288,38665,5,4,0:0:0:0:
160,96,38998,1,0,0:0:0:0:
160,96,39165,1,0,0:0:0:0:
160,96,39332,1,0,0:0:0:0:
160,96,39498,1,0,0:0:0:0:
352,96,39582,1,8,0:0:0:0:
160,96,39665,1,0,0:0:0:0:
160,96,39832,1,0,0:0:0:0:
160,96,39915,1,0,0:0:0:0:
352,96,39998,5,8,0:0:0:0:
352,96,40248,1,8,0:0:0:0:
160,96,40332,1,0,0:0:0:0:
352,96,40498,1,8,0:0:0:0:
160,288,40665,1,4,0:0:0:0:
160,288,40832,1,4,0:0:0:0:
352,288,40998,1,4,0:0:0:0:
352,288,41165,1,12,0:0:0:0:
160,288,42665,5,4,0:0:0:0:
160,96,43331,1,0,0:0:0:0:
352,288,43665,1,12,0:0:0:0:
160,96,44331,1,0,0:0:0:0:
160,288,44665,1,4,0:0:0:0:
160,96,45331,1,0,0:0:0:0:
352,288,45665,1,12,0:0:0:0:
160,96,46331,1,0,0:0:0:0:
160,288,46664,5,4,0:0:0:0:
160,96,47331,1,0,0:0:0:0:
352,288,47664,1,12,0:0:0:0:
160,96,48331,1,0,0:0:0:0:
160,288,48664,1,4,0:0:0:0:
160,96,49331,1,0,0:0:0:0:
352,288,49664,1,12,0:0:0:0:
160,96,49998,1,0,0:0:0:0:
352,96,50164,1,8,0:0:0:0:
160,96,50331,1,0,0:0:0:0:
160,288,50664,5,4,0:0:0:0:
160,96,51331,1,0,0:0:0:0:
352,288,51664,1,12,0:0:0:0:
352,96,51998,1,8,0:0:0:0:
160,96,52164,1,0,0:0:0:0:
352,96,52331,1,8,0:0:0:0:
160,288,52664,1,4,0:0:0:0:
160,96,53331,1,0,0:0:0:0:
352,288,53664,1,12,0:0:0:0:
160,96,53998,1,0,0:0:0:0:
160,96,54164,1,0,0:0:0:0:
352,96,54331,1,8,0:0:0:0:
160,288,54664,5,4,0:0:0:0:
160,96,54998,1,0,0:0:0:0:
352,96,55164,1,8,0:0:0:0:
160,96,55331,1,0,0:0:0:0:
160,96,55498,1,0,0:0:0:0:
352,288,55664,1,12,0:0:0:0:
160,96,55998,1,0,0:0:0:0:
352,96,56164,1,0,0:0:0:0:
352,96,56248,1,0,0:0:0:0:
352,96,56331,1,8,0:0:0:0:
352,96,56498,1,8,0:0:0:0:
160,288,56664,5,4,0:0:0:0:
160,96,56998,1,0,0:0:0:0:
352,96,57164,1,8,0:0:0:0:
160,96,57331,1,0,0:0:0:0:
160,96,57498,1,0,0:0:0:0:
160,96,57581,1,0,0:0:0:0:
352,96,57664,1,8,0:0:0:0:
352,96,57748,1,0,0:0:0:0:
352,96,57831,1,8,0:0:0:0:
160,96,57998,1,0,0:0:0:0:
352,96,58164,1,8,0:0:0:0:
352,96,58248,1,8,0:0:0:0:
160,96,58331,1,0,0:0:0:0:
352,96,58414,1,8,0:0:0:0:
352,96,58498,1,8,0:0:0:0:
352,96,58581,1,8,0:0:0:0:
160,96,58664,5,0,0:0:0:0:
352,96,58998,1,8,0:0:0:0:
160,96,59164,1,0,0:0:0:0:
352,96,59331,1,8,0:0:0:0:
160,96,59498,1,0,0:0:0:0:
160,96,59581,1,0,0:0:0:0:
352,96,59664,1,8,0:0:0:0:
160,96,59998,1,0,0:0:0:0:
352,96,60164,1,8,0:0:0:0:
160,96,60331,1,0,0:0:0:0:
160,96,60664,5,0,0:0:0:0:
352,96,60998,1,8,0:0:0:0:
160,96,61164,1,0,0:0:0:0:
352,96,61331,1,8,0:0:0:0:
352,96,61414,1,8,0:0:0:0:
160,96,61498,1,0,0:0:0:0:
352,96,61664,1,8,0:0:0:0:
160,96,61998,1,0,0:0:0:0:
352,96,62164,1,8,0:0:0:0:
160,96,62331,1,0,0:0:0:0:
160,96,62414,1,0,0:0:0:0:
352,96,62498,1,8,0:0:0:0:
160,288,62664,5,4,0:0:0:0:
352,96,62998,1,8,0:0:0:0:
160,96,63164,1,0,0:0:0:0:
352,96,63331,1,8,0:0:0:0:
352,96,63414,1,8,0:0:0:0:
160,96,63498,1,0,0:0:0:0:
352,288,63664,1,12,0:0:0:0:
160,96,63831,1,0,0:0:0:0:
352,96,63998,1,8,0:0:0:0:
352,96,64081,1,8,0:0:0:0:
352,96,64164,1,8,0:0:0:0:
160,96,64331,1,0,0:0:0:0:
160,96,64498,1,0,0:0:0:0:
352,288,64664,5,12,0:0:0:0:
160,96,64998,1,0,0:0:0:0:
352,96,65164,1,8,0:0:0:0:
160,96,65331,1,0,0:0:0:0:
160,96,65498,1,0,0:0:0:0:
160,96,65581,1,0,0:0:0:0:
352,96,65664,1,8,0:0:0:0:
160,96,65831,1,0,0:0:0:0:
352,96,65998,1,8,0:0:0:0:
352,96,66081,1,8,0:0:0:0:
160,96,66164,1,0,0:0:0:0:
160,96,66248,1,0,0:0:0:0:
352,96,66331,1,8,0:0:0:0:
160,288,66664,5,4,0:0:0:0:
352,96,66831,1,8,0:0:0:0:
160,96,66914,1,0,0:0:0:0:
352,96,66998,1,8,0:0:0:0:
160,96,67164,1,0,0:0:0:0:
160,96,67498,1,0,0:0:0:0:
352,96,67664,1,8,0:0:0:0:
160,96,67831,1,0,0:0:0:0:
160,96,67914,1,0,0:0:0:0:
352,96,67998,1,8,0:0:0:0:
160,96,68164,1,0,0:0:0:0:
352,96,68331,1,8,0:0:0:0:
352,96,68498,1,8,0:0:0:0:
352,96,68581,1,8,0:0:0:0:
160,96,68664,5,0,0:0:0:0:
352,96,68831,1,8,0:0:0:0:
160,96,68914,1,0,0:0:0:0:
352,96,68998,1,8,0:0:0:0:
160,96,69164,1,0,0:0:0:0:
160,96,69498,1,0,0:0:0:0:
352,96,69664,1,8,0:0:0:0:
160,96,69831,1,0,0:0:0:0:
160,96,69914,1,0,0:0:0:0:
352,96,69998,1,8,0:0:0:0:
352,96,70164,1,8,0:0:0:0:
352,96,70248,1,8,0:0:0:0:
160,96,70331,1,0,0:0:0:0:
352,96,70414,1,8,0:0:0:0:
160,96,70498,1,0,0:0:0:0:
352,288,70664,5,12,0:0:0:0:
160,96,70998,1,0,0:0:0:0:
352,96,71164,1,8,0:0:0:0:
160,96,71248,1,0,0:0:0:0:
352,96,71331,1,8,0:0:0:0:
352,96,71414,1,8,0:0:0:0:
160,96,71498,1,0,0:0:0:0:
352,288,71664,1,12,0:0:0:0:
160,96,71998,1,0,0:0:0:0:
352,96,72164,1,8,0:0:0:0:
352,96,72248,1,8,0:0:0:0:
352,96,72331,1,8,0:0:0:0:
352,96,72414,1,8,0:0:0:0:
160,96,72498,1,0,0:0:0:0:
352,288,72664,5,12,0:0:0:0:
160,96,72831,1,0,0:0:0:0:
352,96,72914,1,8,0:0:0:0:
160,96,72998,1,0,0:0:0:0:
352,96,73164,1,8,0:0:0:0:
160,96,73331,1,0,0:0:0:0:
160,96,73414,1,0,0:0:0:0:
160,96,73498,1,0,0:0:0:0:
160,96,73581,1,0,0:0:0:0:
352,96,73664,1,8,0:0:0:0:
160,96,73831,1,0,0:0:0:0:
352,288,73998,1,12,0:0:0:0:
160,96,74331,1,0,0:0:0:0:
352,96,74498,1,8,0:0:0:0:
352,96,74581,1,8,0:0:0:0:
160,96,74664,5,0,0:0:0:0:
352,96,74997,1,8,0:0:0:0:
352,96,75247,1,8,0:0:0:0:
160,96,75330,1,0,0:0:0:0:
160,96,75497,1,0,0:0:0:0:
352,96,75664,1,8,0:0:0:0:
160,96,75830,1,0,0:0:0:0:
160,96,76164,5,0,0:0:0:0:
352,96,76330,1,8,0:0:0:0:
160,96,76497,1,0,0:0:0:0:
160,96,76580,1,0,0:0:0:0:
352,96,76664,1,8,0:0:0:0:
160,96,76830,1,0,0:0:0:0:
352,96,76997,1,8,0:0:0:0:
352,96,77164,1,8,0:0:0:0:
352,96,77247,1,8,0:0:0:0:
160,96,77330,5,0,0:0:0:0:
160,96,77497,1,0,0:0:0:0:
352,96,77664,1,8,0:0:0:0:
352,96,77914,1,8,0:0:0:0:
160,96,77997,1,0,0:0:0:0:
352,96,78080,1,8,0:0:0:0:
160,96,78164,1,0,0:0:0:0:
352,96,78330,1,8,0:0:0:0:
160,96,78497,1,0,0:0:0:0:
352,96,78580,1,8,0:0:0:0:
352,96,78747,5,8,0:0:0:0:
160,96,78830,1,0,0:0:0:0:
352,96,78997,1,8,0:0:0:0:
160,96,79164,1,0,0:0:0:0:
160,96,79247,1,0,0:0:0:0:
352,96,79330,1,8,0:0:0:0:
352,96,79414,1,8,0:0:0:0:
160,96,79497,1,0,0:0:0:0:
352,96,79664,1,8,0:0:0:0:
160,96,79830,1,0,0:0:0:0:
352,96,79914,1,8,0:0:0:0:
160,96,79997,5,0,0:0:0:0:
160,96,80164,1,0,0:0:0:0:
352,288,80330,1,12,0:0:0:0:
352,96,80580,1,8,0:0:0:0:
160,96,80664,1,0,0:0:0:0:
160,96,80830,1,0,0:0:0:0:
352,96,80997,1,8,0:0:0:0:
160,96,81164,1,0,0:0:0:0:
352,96,81247,1,8,0:0:0:0:
352,96,81330,5,8,0:0:0:0:
160,96,81497,1,0,0:0:0:0:
352,96,81664,1,8,0:0:0:0:
352,96,81747,1,8,0:0:0:0:
352,96,81830,1,0,0:0:0:0:
160,96,81913,1,0,0:0:0:0:
160,96,81997,1,8,0:0:0:0:
160,96,82163,1,0,0:0:0:0:
352,96,82330,1,8,0:0:0:0:
352,96,82413,1,0,0:0:0:0:
160,96,82497,1,8,0:0:0:0:
160,96,82580,1,8,0:0:0:0:
352,96,82663,5,0,0:0:0:0:
160,96,82830,1,0,0:0:0:0:
352,96,82997,1,8,0:0:0:0:
160,96,83163,1,0,0:0:0:0:
352,96,83247,1,8,0:0:0:0:
160,96,83330,1,0,0:0:0:0:
352,96,83413,1,8,0:0:0:0:
160,96,83497,1,0,0:0:0:0:
160,96,83580,1,0,0:0:0:0:
352,96,83663,1,8,0:0:0:0:
160,288,83830,1,4,0:0:0:0:
160,96,84163,5,0,0:0:0:0:
352,96,84330,1,8,0:0:0:0:
160,96,84497,1,0,0:0:0:0:
352,96,84580,1,8,0:0:0:0:
160,96,84663,1,0,0:0:0:0:
160,96,84747,1,0,0:0:0:0:
352,96,84830,1,8,0:0:0:0:
352,96,84913,1,8,0:0:0:0:
160,96,84997,1,0,0:0:0:0:
352,96,85080,1,8,0:0:0:0:
352,96,85163,1,8,0:0:0:0:
352,96,85247,1,8,0:0:0:0:
160,96,85330,5,0,0:0:0:0:
160,96,87163,1,0,0:0:0:0:
352,96,87330,1,8,0:0:0:0:
160,96,87497,1,0,0:0:0:0:
160,96,87663,1,0,0:0:0:0:
352,96,87830,1,8,0:0:0:0:
160,96,87997,1,0,0:0:0:0:
160,96,88163,1,0,0:0:0:0:
352,288,88330,1,12,0:0:0:0:
160,288,88497,1,4,0:0:0:0:
160,288,88663,1,4,0:0:0:0:
352,288,88830,1,12,0:0:0:0:
