osu file format v14

[General]
AudioFilename: muah.mp3
AudioLeadIn: 0
PreviewTime: 48837
Countdown: 0
SampleSet: Soft
StackLeniency: 0.7
Mode: 0
LetterboxInBreaks: 0
WidescreenStoryboard: 0

[Editor]
Bookmarks: 6256,128191,135933,178514
DistanceSpacing: 1.2
BeatDivisor: 4
GridSize: 4
TimelineZoom: 0.8

[Metadata]
Title:Muah!
TitleUnicode:Muah!
Artist:APRIL
ArtistUnicode:에이프릴
Creator:Nekomata
Version:Norman's Normal
Source:
Tags:kpop norman marianna sonnyc dsp media 채원 현주 나은 예나 진솔 chaewon hyunjoo naeun yena jinsol
BeatmapID:843434
BeatmapSetID:384335

[Difficulty]
HPDrainRate:4
CircleSize:3.5
OverallDifficulty:4
ApproachRate:4
SliderMultiplier:1.3
SliderTickRate:1

[Events]
//Background and Video events
Video,-62,"muah.flv"
0,0,"bg.jpg",0,0
//Break Periods
2,128391,134613
//Storyboard Layer 0 (Background)
//Storyboard Layer 1 (Fail)
//Storyboard Layer 2 (Pass)
//Storyboard Layer 3 (Foreground)
//Storyboard Sound Samples

[TimingPoints]
450,483.870967741935,4,2,1,70,1,0
8191,-100,4,2,1,80,0,0
17869,-100,4,2,2,70,0,0
33353,-100,4,2,1,80,0,0
48837,-100,4,2,1,90,0,1
63837,-100,4,2,1,80,0,1
64320,-100,4,2,1,90,0,1
67708,-100,4,2,1,80,0,1
68191,-100,4,2,1,90,0,1
72062,-100,4,2,1,70,0,0
73998,-100,4,2,1,70,0,0
89482,-100,4,2,1,80,0,0
104966,-100,4,2,1,90,0,1
119966,-100,4,2,1,80,0,1
120449,-100,4,2,1,90,0,1
123837,-100,4,2,1,80,0,1
124320,-100,4,2,1,90,0,1
128191,-100,4,2,1,70,0,0
135933,-100,4,2,1,70,0,0
147546,-100,4,2,1,90,0,1
162546,-100,4,2,1,80,0,1
163030,-100,4,2,1,90,0,1
166417,-100,4,2,1,80,0,1
166901,-100,4,2,1,90,0,1
170772,-100,4,2,1,70,0,0
178030,-100,4,2,1,70,0,0
178393,-100,4,2,1,5,0,0
178514,-100,4,2,1,50,0,0

[Colours]
Combo1 : 128,0,64
Combo2 : 0,159,0
Combo3 : 255,91,255
Combo4 : 79,79,255

[HitObjects]
295,184,6256,6,0,B|327:152|375:240|295:252|256:316|256:316|215:252|135:240|183:152|219:184,1,390,0|2,0:0|0:0,0:0:0:0:
260,32,8191,5,4,0:0:0:0:
124,112,8675,2,0,P|88:172|88:248,2,130,8|0|8,0:0|0:0|0:0,0:0:0:0:
188,64,9885,2,0,B|256:68|256:68,1,65
408,60,10611,6,0,P|456:48|504:56,2,97.5,8|0|0,0:0|0:0|0:0,0:0:0:0:
352,116,11579,1,8,0:0:0:0:
364,192,11820,2,0,L|376:272,2,65
288,168,12546,6,0,B|244:156|240:180|192:168,2,97.5,8|0|0,0:0|0:0|0:0,0:0:0:0:
364,192,13514,1,8,0:0:0:0:
256,192,13998,12,4,15933,0:0:0:0:
256,28,17385,6,0,L|256:104,1,65,2|0,0:0|0:0,0:0:0:0:
332,120,17869,6,0,P|252:172|180:120,1,195,2|2,0:0|0:0,0:0:0:0:
140,52,18837,1,8,0:0:0:0:
32,164,19320,1,0,0:0:0:0:
84,312,19804,6,0,L|212:300,2,97.5,2|2|2,0:0|0:0|0:0,0:0:0:0:
8,320,20772,1,8,0:0:0:0:
32,164,21256,1,0,0:0:0:0:
140,52,21740,6,0,B|236:20|232:84|332:52,1,195,2|2,0:0|0:0,0:0:0:0:
404,28,22708,1,8,0:0:0:0:
416,184,23191,1,0,0:0:0:0:
380,336,23675,6,0,P|432:340|476:328,2,97.5,2|2|2,0:0|0:0|0:0,0:0:0:0:
316,292,24643,1,8,0:0:0:0:
160,292,25127,1,0,0:0:0:0:
36,200,25611,6,0,B|24:120|64:76|64:76|96:84|120:108,1,195,2|2,0:0|0:0,0:0:0:0:
176,160,26579,1,8,0:0:0:0:
256,28,27062,1,0,0:0:0:0:
340,160,27546,6,0,P|404:160|460:132,2,97.5,2|2|2,0:0|0:0|0:0,0:0:0:0:
264,136,28514,2,0,P|200:128|136:148,1,130,8|0,0:0|0:0,0:0:0:0:
68,184,29240,1,0,0:0:0:0:
68,264,29482,6,0,B|72:356|72:356|108:320|172:320,1,195,2|2,0:0|0:0,0:0:0:0:
244,320,30449,2,0,B|328:312|392:372|392:372|400:316|440:288,1,260,8|2,0:0|0:0,0:0:0:0:
480,224,31659,6,0,P|484:188|480:148,1,65,2|2,0:0|0:0,0:0:0:0:
464,84,32143,2,0,P|441:55|410:30,1,65,2|2,0:0|0:0,0:0:0:0:
344,16,32627,2,0,P|307:12|268:15,2,65,2|2|2,0:0|0:0|0:0,0:0:0:0:
360,92,33353,6,0,P|368:152|356:228,1,130,6|8,0:0|0:0,0:0:0:0:
340,296,34079,2,0,P|388:302|436:307,2,97.5,2|2|8,0:0|0:0|0:0,0:0:0:0:
192,252,35288,5,2,0:0:0:0:
44,296,35772,1,8,0:0:0:0:
76,144,36256,1,0,0:0:0:0:
192,252,36740,1,8,0:0:0:0:
228,100,37224,6,0,P|288:96|356:112,1,130,2|8,0:0|0:0,0:0:0:0:
428,144,37949,2,0,P|436:92|436:28,2,97.5,2|2|8,0:0|0:0|0:0,0:0:0:0:
388,288,39159,5,2,0:0:0:0:
244,344,39643,1,8,0:0:0:0:
268,188,40127,1,0,0:0:0:0:
388,288,40611,1,8,0:0:0:0:
244,344,41095,6,0,P|176:336|104:296,1,130,2|8,0:0|0:0,0:0:0:0:
64,256,41820,2,0,L|52:372,2,97.5,2|0|8,0:0|0:0|0:0,0:0:0:0:
72,180,42788,1,2,0:0:0:0:
84,104,43030,6,0,B|92:68|116:60|140:60|140:60|160:60|196:60,1,130,2|8,0:0|0:0,0:0:0:0:
268,60,43756,2,0,B|299:60|319:60|319:60|343:60|367:68|375:104,1,130,2|0,0:0|0:0,0:0:0:0:
392,180,44482,1,10,0:0:0:0:
476,312,44966,6,0,P|416:336|348:328,1,130,2|8,0:0|0:0,0:0:0:0:
280,296,45691,2,0,P|232:288|180:300,2,97.5,2|0|8,0:0|0:0|0:0,0:0:0:0:
336,240,46659,1,2,0:0:0:0:
392,180,46901,6,0,L|388:48,1,130,2|10,0:0|0:0,0:0:0:0:
231,50,47869,2,0,L|227:179,1,130,2|10,0:0|0:0,0:0:0:0:
216,336,48837,5,4,0:0:0:0:
360,272,49320,2,0,P|424:268|488:288,2,130,8|0|8,0:0|0:0|0:0,0:0:0:0:
288,304,50530,1,0,0:0:0:0:
216,336,50772,5,0,0:0:0:0:
84,252,51256,2,0,P|68:200|80:124,1,130,8|0,0:0|0:0,0:0:0:0:
124,60,51982,2,0,L|200:56,1,65,0|8,0:0|0:0,0:0:0:0:
268,52,52466,1,0,0:0:0:0:
236,124,52708,6,0,B|220:192|260:188|248:252,2,130,0|8|0,0:0|0:0|0:0,0:0:0:0:
372,48,54159,1,8,0:0:0:0:
440,84,54401,1,0,0:0:0:0:
508,124,54643,6,0,P|506:160|500:188,1,65,0|0,0:0|0:0,0:0:0:0:
468,260,55127,2,0,P|440:284|417:299,1,65,8|0,0:0|0:0,0:0:0:0:
340,312,55611,2,0,P|303:310|276:303,1,65,0|0,0:0|0:0,0:0:0:0:
208,264,56095,2,0,P|183:236|168:213,1,65,8|0,0:0|0:0,0:0:0:0:
140,140,56579,5,4,0:0:0:0:
268,52,57062,2,0,B|312:36|356:56|356:56|408:40,2,130,8|0|8,0:0|0:0|0:0,0:0:0:0:
208,100,58272,1,0,0:0:0:0:
140,140,58514,5,0,0:0:0:0:
88,288,58998,2,0,P|152:300|212:280,1,130,8|0,0:0|0:0,0:0:0:0:
276,232,59724,2,0,L|344:236,1,65,0|8,0:0|0:0,0:0:0:0:
420,244,60207,1,0,0:0:0:0:
420,164,60449,6,0,B|420:112|420:112|428:88|428:88|428:36,2,130,0|8|0,0:0|0:0|0:0,0:0:0:0:
420,320,61901,1,8,0:0:0:0:
344,324,62143,1,0,0:0:0:0:
268,328,62385,6,0,L|184:332,1,65,0|0,0:0|0:0,0:0:0:0:
128,312,62869,2,0,P|100:292|80:264,1,65,8|0,0:0|0:0,0:0:0:0:
56,192,63353,2,0,P|50:158|55:124,1,65,0|0,0:0|0:0,0:0:0:0:
88,56,63837,6,0,B|164:28|168:80|228:52,1,130,8|2,0:0|0:0,0:0:0:0:
368,24,64804,6,0,P|372:68|360:124,1,97.5,4|0,0:0|0:0,0:0:0:0:
304,224,65530,2,0,B|256:216|256:216|208:224,2,97.5,0|0|0,0:0|0:0|0:0,0:0:0:0:
256,372,66740,5,8,0:0:0:0:
408,340,67224,1,0,0:0:0:0:
460,192,67708,6,0,B|468:120|428:120|452:52,1,130,8|2,0:0|0:0,0:0:0:0:
292,80,68675,6,0,P|248:80|196:64,1,97.5,4|0,0:0|0:0,0:0:0:0:
112,144,69401,2,0,L|116:268,2,97.5,0|0|0,0:0|0:0|0:0,0:0:0:0:
112,64,70369,5,0,0:0:0:0:
184,32,70611,2,0,P|220:24|252:24,1,65,8|0,0:0|0:0,0:0:0:0:
324,36,71095,2,0,P|355:55|377:78,1,65,2|2,0:0|0:0,0:0:0:0:
408,148,71579,2,0,P|416:184|416:216,2,65,2|2|2,0:0|0:0|0:0,0:0:0:0:
52,296,73998,6,0,B|80:284|116:296|116:296|128:268|164:252,1,130,2|8,0:0|0:0,0:0:0:0:
240,236,74724,2,0,P|304:240|360:272,1,130,2|2,0:0|0:0,0:0:0:0:
416,328,75449,1,8,0:0:0:0:
496,192,75933,6,0,B|504:128|504:128|492:56,1,130,2|8,0:0|0:0,0:0:0:0:
416,64,76659,2,0,B|408:128|408:128|420:200,1,130,2|2,0:0|0:0,0:0:0:0:
460,260,77385,1,8,0:0:0:0:
316,320,77869,6,0,L|172:312,1,130,2|8,0:0|0:0,0:0:0:0:
108,304,78595,2,0,P|72:260|64:188,1,130,2|2,0:0|0:0,0:0:0:0:
80,112,79320,1,8,0:0:0:0:
224,52,79804,6,0,B|284:36|292:72|352:56,1,130,2|8,0:0|0:0,0:0:0:0:
424,24,80530,2,0,B|440:72|412:104|412:104|428:148,1,130,2|2,0:0|0:0,0:0:0:0:
460,216,81256,1,8,0:0:0:0:
372,344,81740,6,0,P|312:356|244:344,1,130,2|8,0:0|0:0,0:0:0:0:
244,264,82466,2,0,P|304:252|372:264,1,130,2|2,0:0|0:0,0:0:0:0:
440,304,83191,1,8,0:0:0:0:
484,156,83675,6,0,B|500:108|500:108|464:116|420:104,1,130,2|8,0:0|0:0,0:0:0:0:
348,76,84401,2,0,P|284:64|220:80,1,130,2|2,0:0|0:0,0:0:0:0:
152,112,85127,1,8,0:0:0:0:
52,232,85611,6,0,L|56:380,1,130,2|8,0:0|0:0,0:0:0:0:
132,360,86337,2,0,L|128:230,1,130,2|2,0:0|0:0,0:0:0:0:
128,152,87062,1,8,0:0:0:0:
152,76,87304,1,2,0:0:0:0:
224,44,87546,6,0,P|288:36|352:56,1,130,2|8,0:0|0:0,0:0:0:0:
400,116,88272,2,0,L|392:192,1,65,2|2,0:0|0:0,0:0:0:0:
388,260,88756,2,0,L|394:324,2,65,2|2|0,0:0|0:0|0:0,0:0:0:0:
324,216,89482,6,0,B|256:200|256:232|196:216,1,130,6|8,0:0|0:0,0:0:0:0:
132,168,90208,2,0,P|116:216|132:264,2,97.5,2|2|8,0:0|0:0|0:0,0:0:0:0:
256,72,91417,5,2,0:0:0:0:
408,32,91901,1,8,0:0:0:0:
484,168,92385,1,0,0:0:0:0:
384,288,92869,1,8,0:0:0:0:
240,228,93353,6,0,P|184:224|112:252,1,130,2|8,0:0|0:0,0:0:0:0:
44,280,94079,2,0,B|32:252|44:220|44:220|32:176,2,97.5,2|2|8,0:0|0:0|0:0,0:0:0:0:
176,360,95288,5,2,0:0:0:0:
332,360,95772,1,8,0:0:0:0:
256,256,96256,2,0,B|244:192|272:192|256:128,1,130,0|8,0:0|0:0,0:0:0:0:
132,36,97224,6,0,P|68:52|15:90,1,130,2|8,0:0|0:0,0:0:0:0:
62,152,97949,2,0,P|102:124|149:111,2,97.5,2|0|8,0:0|0:0|0:0,0:0:0:0:
0,204,98917,1,2,0:0:0:0:
4,280,99159,6,0,B|8:336|8:336|40:320|84:332,1,130,2|8,0:0|0:0,0:0:0:0:
156,356,99885,2,0,P|224:364|284:348,1,130,2|2,0:0|0:0,0:0:0:0:
348,308,100611,1,10,0:0:0:0:
284,164,101095,6,0,P|221:148|157:156,1,130,2|8,0:0|0:0,0:0:0:0:
80,172,101820,2,0,L|72:56,2,97.5,2|0|8,0:0|0:0|0:0,0:0:0:0:
88,252,102788,1,2,0:0:0:0:
76,328,103030,6,0,B|120:332|148:300|148:300|196:316,1,130,2|10,0:0|0:0,0:0:0:0:
352,316,103998,2,0,B|398:300|398:300|426:332|470:328,1,130,2|10,0:0|0:0,0:0:0:0:
492,172,104966,5,4,0:0:0:0:
336,148,105449,2,0,P|328:96|336:20,2,130,8|0|8,0:0|0:0|0:0,0:0:0:0:
412,160,106659,1,0,0:0:0:0:
492,172,106901,5,0,0:0:0:0:
396,296,107385,2,0,B|328:308|324:272|264:288,1,130,8|0,0:0|0:0,0:0:0:0:
192,308,108111,1,0,0:0:0:0:
160,236,108353,2,0,P|156:204|160:172,1,65,8|0,0:0|0:0,0:0:0:0:
192,100,108837,6,0,B|144:84|108:112|108:112|64:92,2,130,0|8|0,0:0|0:0|0:0,0:0:0:0:
348,124,110288,1,8,0:0:0:0:
424,100,110530,1,0,0:0:0:0:
456,172,110772,6,0,P|456:208|448:248,1,65,0|0,0:0|0:0,0:0:0:0:
424,312,111256,2,0,P|398:337|364:360,1,65,8|0,0:0|0:0,0:0:0:0:
300,372,111740,2,0,P|264:372|224:363,1,65,0|0,0:0|0:0,0:0:0:0:
160,340,112224,2,0,P|134:314|111:280,1,65,8|0,0:0|0:0,0:0:0:0:
84,220,112708,6,0,B|72:156|108:148|96:92,2,130,4|8|0,0:0|0:0|0:0,0:0:0:0:
180,344,114159,1,8,0:0:0:0:
256,340,114401,1,0,0:0:0:0:
324,300,114643,6,0,P|336:240|328:168,2,130,0|8|0,0:0|0:0|0:0,0:0:0:0:
256,340,115853,1,0,0:0:0:0:
187,299,116095,2,0,P|180:264|180:236,1,65,8|0,0:0|0:0,0:0:0:0:
176,156,116579,6,0,L|32:160,2,130,0|8|0,0:0|0:0|0:0,0:0:0:0:
332,152,118030,1,8,0:0:0:0:
332,72,118272,1,0,0:0:0:0:
409,74,118514,6,0,L|501:78,1,65,0|0,0:0|0:0,0:0:0:0:
472,156,118998,2,0,L|407:153,1,65,8|0,0:0|0:0,0:0:0:0:
408,232,119482,2,0,L|500:236,1,65,0|0,0:0|0:0,0:0:0:0:
471,314,119966,6,0,B|388:310|388:310|340:328,1,130,8|2,0:0|0:0,0:0:0:0:
192,364,120933,6,0,P|188:316|200:268,1,97.5,4|0,0:0|0:0,0:0:0:0:
212,152,121659,2,0,L|88:140,2,97.5,0|0|0,0:0|0:0|0:0,0:0:0:0:
368,168,122869,5,8,0:0:0:0:
500,88,123353,1,0,0:0:0:0:
504,244,123837,6,0,B|512:292|488:324|488:324|440:332,1,130,8|2,0:0|0:0,0:0:0:0:
304,260,124804,6,0,B|256:248|248:276|208:264,1,97.5,4|0,0:0|0:0,0:0:0:0:
96,228,125530,2,0,P|92:280|108:328,2,97.5,0|0|0,0:0|0:0|0:0,0:0:0:0:
116,152,126498,5,0,0:0:0:0:
192,156,126740,2,0,L|272:160,1,65,8|0,0:0|0:0,0:0:0:0:
332,132,127224,2,0,P|336:104|332:40,1,65,2|2,0:0|0:0,0:0:0:0:
408,32,127708,6,0,P|416:96|407:161,1,130,2|4,0:0|0:0,0:0:0:0:
132,364,135933,6,0,P|101:307|103:243,2,130,6|2|2,0:0|0:0|0:0,0:0:0:0:
255,267,137385,1,2,0:0:0:0:
380,363,137869,6,0,P|410:307|408:243,2,130,2|2|2,0:0|0:0|0:0,0:0:0:0:
255,267,139320,2,0,B|244:200|268:200|256:136,1,130,2|2,0:0|0:0,0:0:0:0:
236,64,140046,5,0,0:0:0:0:
308,32,140288,2,0,P|340:28|372:32,1,65,2|0,0:0|0:0,0:0:0:0:
444,68,140772,2,0,P|476:72|508:68,2,65,2|0|2,0:0|0:0|0:0,0:0:0:0:
376,112,141498,1,0,0:0:0:0:
352,184,141740,6,0,P|332:240|332:312,1,130,2|2,0:0|0:0,0:0:0:0:
180,309,142708,2,0,P|180:245|160:184,1,130,2|2,0:0|0:0,0:0:0:0:
128,112,143433,1,0,0:0:0:0:
96,40,143675,6,0,B|172:20|204:88|204:88|272:64|272:96|332:80,1,260,0|0,0:0|0:0,0:0:0:0:
408,56,144885,1,0,0:0:0:0:
412,132,145127,2,0,P|416:168|416:200,1,65,0|0,0:0|0:0,0:0:0:0:
374,263,145611,6,0,B|304:228|256:263|256:263|225:297|238:332|273:332|286:297|256:263|256:263|203:228|129:263,1,390,4|8,0:0|0:0,0:0:0:0:
60,296,147304,1,0,0:0:0:0:
16,232,147546,6,0,P|8:168|24:104,1,130,4|8,0:0|0:0,0:0:0:0:
168,48,148514,2,0,P|176:112|160:176,1,130,0|8,0:0|0:0,0:0:0:0:
116,240,149240,1,0,0:0:0:0:
180,284,149482,6,0,B|244:296|244:268|308:284,1,130,0|8,0:0|0:0,0:0:0:0:
452,348,150449,2,0,P|464:288|444:216,1,130,0|8,0:0|0:0,0:0:0:0:
416,152,151175,1,0,0:0:0:0:
344,180,151417,6,0,B|292:200|248:176|248:176|212:216,2,130,0|8|0,0:0|0:0|0:0,0:0:0:0:
304,28,152869,1,8,0:0:0:0:
228,12,153111,1,0,0:0:0:0:
156,44,153353,6,0,P|128:68|112:92,1,65,0|0,0:0|0:0,0:0:0:0:
88,164,153837,2,0,P|85:200|90:229,1,65,8|0,0:0|0:0,0:0:0:0:
116,300,154320,2,0,P|140:328|164:344,1,65,0|0,0:0|0:0,0:0:0:0:
240,364,154804,2,0,P|276:366|305:361,1,65,8|0,0:0|0:0,0:0:0:0:
380,340,155288,5,4,0:0:0:0:
296,208,155772,2,0,P|288:144|304:80,2,130,8|0|8,0:0|0:0|0:0,0:0:0:0:
320,284,156982,1,0,0:0:0:0:
244,268,157224,6,0,B|188:256|188:256|112:268,2,130,0|8|0,0:0|0:0|0:0,0:0:0:0:
320,284,158433,1,0,0:0:0:0:
364,220,158675,2,0,P|368:188|368:152,1,65,8|0,0:0|0:0,0:0:0:0:
328,88,159159,6,0,B|372:68|412:92|412:92|444:60,2,130,0|8|0,0:0|0:0|0:0,0:0:0:0:
248,88,160369,2,0,P|216:80|180:80,2,65,0|8|0,0:0|0:0|0:0,0:0:0:0:
288,156,161095,6,0,B|288:190|288:190|288:220,1,65,0|0,0:0|0:0,0:0:0:0:
260,296,161579,2,0,L|212:340,1,65,8|0,0:0|0:0,0:0:0:0:
136,360,162062,2,0,L|68:348,1,65,0|0,0:0|0:0,0:0:0:0:
8,304,162546,6,0,B|0:232|40:224|32:176,1,130,8|2,0:0|0:0,0:0:0:0:
48,24,163514,6,0,P|96:28|136:56,1,97.5,4|0,0:0|0:0,0:0:0:0:
224,132,164240,2,0,L|336:124,2,97.5,0|0|0,0:0|0:0|0:0,0:0:0:0:
108,240,165449,6,0,P|100:280|100:312,2,65,8|0|0,0:0|0:0|0:0,0:0:0:0:
148,172,166175,1,0,0:0:0:0:
216,208,166417,6,0,B|244:224|280:180|344:216,1,130,8|2,0:0|0:0,0:0:0:0:
472,304,167385,6,0,P|492:268|496:208,1,97.5,4|0,0:0|0:0,0:0:0:0:
432,116,168111,2,0,L|320:112,2,97.5,0|0|0,0:0|0:0|0:0,0:0:0:0:
512,120,169079,5,0,0:0:0:0:
508,196,169320,2,0,P|504:232|496:264,1,65,8|0,0:0|0:0,0:0:0:0:
460,328,169804,2,0,P|431:350|403:367,1,65,2|2,0:0|0:0,0:0:0:0:
328,376,170288,2,0,P|292:372|260:364,2,65,2|2|4,0:0|0:0|0:0,0:0:0:0:
344,220,171256,6,0,L|336:100,2,97.5,8|0|0,0:0|0:0|0:0,0:0:0:0:
348,300,172224,1,8,0:0:0:0:
272,284,172466,2,0,L|208:271,1,65,0|0,0:0|0:0,0:0:0:0:
96,152,173191,6,0,P|99:101|88:40,2,97.5,8|0|0,0:0|0:0|0:0,0:0:0:0:
80,228,174159,2,0,L|84:296,1,65,8|0,0:0|0:0,0:0:0:0:
88,372,174643,5,0,0:0:0:0:
236,316,175127,2,0,P|292:312|356:332,2,97.5,8|0|0,0:0|0:0|0:0,0:0:0:0:
188,252,176095,2,0,P|184:216|188:176,1,65,8|0,0:0|0:0,0:0:0:0:
196,108,176579,5,0,0:0:0:0:
340,52,177062,2,0,L|464:40,2,97.5,8|0|0,0:0|0:0|0:0,0:0:0:0:
308,124,178030,6,0,B|288:184|324:184|308:252,1,130,8|4,0:0|0:0,0:0:0:0:
