osu file format v14

[General]
AudioFilename: muah.mp3
AudioLeadIn: 0
PreviewTime: 48837
Countdown: 0
SampleSet: Soft
StackLeniency: 0.7
Mode: 0
LetterboxInBreaks: 0
WidescreenStoryboard: 0

[Editor]
Bookmarks: 6256,128191,135933,178514
DistanceSpacing: 1.1
BeatDivisor: 8
GridSize: 8
TimelineZoom: 1

[Metadata]
Title:Muah!
TitleUnicode:Muah!
Artist:APRIL
ArtistUnicode:에이프릴
Creator:Nekomata
Version:Kiss
Source:
Tags:kpop norman marianna sonnyc dsp media 채원 현주 나은 예나 진솔 chaewon hyunjoo naeun yena jinsol
BeatmapID:839834
BeatmapSetID:384335

[Difficulty]
HPDrainRate:5
CircleSize:4
OverallDifficulty:6
ApproachRate:7.5
SliderMultiplier:1.4
SliderTickRate:1

[Events]
//Background and Video events
Video,-62,"muah.flv"
0,0,"bg.jpg",0,0
//Break Periods
2,128391,135108
//Storyboard Layer 0 (Background)
//Storyboard Layer 1 (Fail)
//Storyboard Layer 2 (Pass)
//Storyboard Layer 3 (Foreground)
//Storyboard Sound Samples

[TimingPoints]
450,483.870967741935,4,2,1,70,1,0
8191,-90.9090909090909,4,2,1,80,0,0
17869,-100,4,2,2,70,0,0
33353,-90.9090909090909,4,2,1,80,0,0
48837,-83.3333333333333,4,2,1,90,0,1
63837,-66.6666666666667,4,2,1,80,0,1
64320,-83.3333333333333,4,2,1,90,0,1
67708,-66.6666666666667,4,2,1,80,0,1
68191,-83.3333333333333,4,2,1,90,0,1
72062,-90.9090909090909,4,2,1,70,0,0
73998,-100,4,2,1,70,0,0
89482,-90.9090909090909,4,2,1,80,0,0
104966,-83.3333333333333,4,2,1,90,0,1
119966,-66.6666666666667,4,2,1,80,0,1
120449,-83.3333333333333,4,2,1,90,0,1
123837,-66.6666666666667,4,2,1,80,0,1
124320,-83.3333333333333,4,2,1,90,0,1
128191,-83.3333333333333,4,2,1,70,0,0
135933,-90.9090909090909,4,2,1,70,0,0
147546,-83.3333333333333,4,2,1,90,0,1
162546,-66.6666666666667,4,2,1,80,0,1
163030,-83.3333333333333,4,2,1,90,0,1
166417,-66.6666666666667,4,2,1,80,0,1
166901,-83.3333333333333,4,2,1,90,0,1
170772,-90.9090909090909,4,2,1,70,0,0
178030,-71.4285714285714,4,2,1,70,0,0
178393,-71.4285714285714,4,2,1,5,0,0
178514,-90.9090909090909,4,2,1,50,0,0

[Colours]
Combo1 : 128,0,64
Combo2 : 0,159,0
Combo3 : 255,91,255
Combo4 : 79,79,255

[HitObjects]
256,192,6256,12,2,7708,0:0:0:0:
311,288,8191,6,0,P|388:282|464:264,1,154.000004699707,4|8,0:0|0:0,0:0:0:0:
444,181,8917,2,0,P|367:198|292:202,1,154.000004699707
214,168,9643,1,8,0:0:0:0:
153,227,9885,1,0,0:0:0:0:
132,189,10006,1,0,0:0:0:0:
132,146,10127,6,0,P|151:110|181:89,1,77.0000023498536
264,99,10611,2,0,P|324:94|372:67,2,115.50000352478,8|0|0,0:0|0:0|0:0,0:0:0:0:
180,89,11579,1,8,0:0:0:0:
149,167,11820,1,0,0:0:0:0:
114,142,11941,1,0,0:0:0:0:
96,103,12062,5,0,0:0:0:0:
126,23,12304,1,0,0:0:0:0:
180,89,12546,2,0,P|221:125|278:144,1,115.50000352478,8|0,0:0|0:0,0:0:0:0:
320,145,13030,1,0,0:0:0:0:
394,105,13272,1,0,0:0:0:0:
405,145,13393,1,0,0:0:0:0:
395,186,13514,1,8,0:0:0:0:
339,249,13756,1,0,0:0:0:0:
256,192,13998,12,4,15933,0:0:0:0:
271,174,17385,5,2,0:0:0:0:
254,197,17869,6,0,P|194:226|121:238,1,140,2|0,0:0|0:0,0:0:0:0:
48,212,18595,1,2,0:0:0:0:
10,144,18837,1,8,0:0:0:0:
32,70,19079,1,0,0:0:0:0:
102,39,19320,1,0,0:0:0:0:
177,57,19562,1,0,0:0:0:0:
247,87,19804,6,0,P|301:96|354:88,2,105,2|2|2,0:0|0:0|0:0,0:0:0:0:
177,57,20772,1,8,0:0:0:0:
215,155,21014,1,0,0:0:0:0:
166,70,21256,1,0,0:0:0:0:
147,191,21498,1,0,0:0:0:0:
215,155,21740,6,0,P|284:139|354:139,1,140,2|0,0:0|0:0,0:0:0:0:
425,164,22466,1,2,0:0:0:0:
467,228,22708,1,8,0:0:0:0:
460,304,22949,1,0,0:0:0:0:
411,363,23191,1,0,0:0:0:0:
336,382,23433,1,0,0:0:0:0:
266,348,23675,6,0,P|216:333|162:333,2,105,2|2|2,0:0|0:0|0:0,0:0:0:0:
336,382,24643,2,0,P|344:348|336:313,1,70,8|0,0:0|0:0,0:0:0:0:
272,270,25127,1,0,0:0:0:0:
202,304,25369,1,0,0:0:0:0:
209,227,25611,5,2,0:0:0:0:
272,270,25853,1,0,0:0:0:0:
278,193,26095,1,0,0:0:0:0:
209,227,26337,1,2,0:0:0:0:
214,150,26579,2,0,B|251:106|305:121|305:121|334:94,1,140,8|0,0:0|0:0,0:0:0:0:
444,201,27546,5,2,0:0:0:0:
407,269,27788,1,0,0:0:0:0:
369,201,28030,1,0,0:0:0:0:
444,201,28272,1,2,0:0:0:0:
407,269,28514,2,0,P|336:270|294:218,1,140,8|0,0:0|0:0,0:0:0:0:
316,146,29240,1,0,0:0:0:0:
369,201,29482,6,0,P|357:265|291:297,1,140,2|0,0:0|0:0,0:0:0:0:
217,286,30208,1,2,0:0:0:0:
164,229,30449,1,8,0:0:0:0:
159,152,30691,1,0,0:0:0:0:
196,84,30933,2,0,P|226:62|258:52,1,70
327,84,31417,5,2,0:0:0:0:
292,153,31659,1,2,0:0:0:0:
275,187,31779,1,2,0:0:0:0:
268,225,31900,1,2,0:0:0:0:
269,263,32021,1,2,0:0:0:0:
283,300,32143,2,0,L|300:334,2,35,2|2|2,0:0|0:0|0:0,0:0:0:0:
206,312,32627,5,2,0:0:0:0:
169,324,32748,1,2,0:0:0:0:
130,324,32869,1,2,0:0:0:0:
93,313,32990,1,2,0:0:0:0:
64,287,33111,1,2,0:0:0:0:
110,216,33353,6,0,P|125:158|129:100,1,115.50000352478,6|2,0:0|0:0,0:0:0:0:
125,60,33837,1,8,0:0:0:0:
168,132,34079,2,0,P|194:162|260:201,1,115.50000352478,2|2,0:0|0:0,0:0:0:0:
300,208,34562,1,2,0:0:0:0:
366,156,34804,2,0,P|404:149|441:155,1,77.0000023498536,8|0,0:0|0:0,0:0:0:0:
508,207,35288,5,2,0:0:0:0:
429,239,35530,1,0,0:0:0:0:
441,155,35772,2,0,P|443:117|430:78,1,77.0000023498536,8|2,0:0|0:0,0:0:0:0:
361,128,36256,2,0,P|289:138|208:124,1,154.000004699707,0|8,0:0|0:0,0:0:0:0:
175,98,36861,1,2,0:0:0:0:
146,67,36982,1,2,0:0:0:0:
77,117,37224,6,0,P|114:164|160:196,1,115.50000352478,2|2,0:0|0:0,0:0:0:0:
198,212,37708,1,8,0:0:0:0:
267,164,37949,2,0,P|321:142|380:133,1,115.50000352478,2|2,0:0|0:0,0:0:0:0:
418,143,38433,1,2,0:0:0:0:
378,217,38675,2,0,P|338:224|305:237,1,77.0000023498536,8|0,0:0|0:0,0:0:0:0:
235,287,39159,5,2,0:0:0:0:
177,349,39401,1,0,0:0:0:0:
235,287,39643,1,8,0:0:0:0:
259,368,39885,1,2,0:0:0:0:
177,349,40127,2,0,P|151:279|191:214,1,154.000004699707,0|8,0:0|0:0,0:0:0:0:
229,202,40732,1,2,0:0:0:0:
270,210,40853,1,2,0:0:0:0:
340,256,41095,6,0,P|375:274|415:279,1,77.0000023498536,2|2,0:0|0:0,0:0:0:0:
399,195,41579,2,0,P|389:156|389:115,1,77.0000023498536,8|2,0:0|0:0,0:0:0:0:
305,136,42062,2,0,P|269:149|230:155,1,77.0000023498536,0|2,0:0|0:0,0:0:0:0:
149,129,42546,1,8,0:0:0:0:
82,77,42788,1,2,0:0:0:0:
140,15,43030,5,2,0:0:0:0:
140,15,43272,1,2,0:0:0:0:
82,77,43514,1,8,0:0:0:0:
140,15,43756,2,0,P|209:41|288:37,1,154.000004699707,2|0,0:0|0:0,0:0:0:0:
372,23,44482,1,10,0:0:0:0:
414,27,44603,1,2,0:0:0:0:
450,48,44724,1,2,0:0:0:0:
471,84,44845,1,2,0:0:0:0:
474,126,44966,6,0,P|463:163|441:195,1,77.0000023498536,2|0,0:0|0:0,0:0:0:0:
363,162,45449,1,8,0:0:0:0:
375,245,45691,1,2,0:0:0:0:
296,214,45933,1,2,0:0:0:0:
239,277,46175,1,2,0:0:0:0:
162,239,46417,1,8,0:0:0:0:
90,283,46659,6,0,L|78:303,4,19.2500005874634,0|0|0|0|2,0:0|0:0|0:0|0:0|0:0,0:0:0:0:
156,153,47143,5,2,0:0:0:0:
156,153,47264,1,2,0:0:0:0:
156,153,47385,1,10,0:0:0:0:
229,195,47627,5,2,0:0:0:0:
269,206,47748,1,2,0:0:0:0:
311,201,47869,1,2,0:0:0:0:
350,186,47990,1,2,0:0:0:0:
383,160,48111,1,2,0:0:0:0:
405,123,48232,1,2,0:0:0:0:
414,81,48353,2,0,B|413:47|393:23|393:23|382:37,1,77.0000023498536,10|0,0:0|0:0,0:0:0:0:
266,123,48837,6,0,P|227:137|184:140,1,83.9999974365235,4|0,0:0|0:0,0:0:0:0:
92,136,49320,2,0,P|110:195|162:230,1,125.999996154785,8|0,0:0|0:0,0:0:0:0:
207,232,49804,1,0,0:0:0:0:
295,205,50046,1,0,0:0:0:0:
298,251,50167,1,0,0:0:0:0:
277,292,50288,1,8,0:0:0:0:
207,232,50530,1,0,0:0:0:0:
205,185,50651,1,0,0:0:0:0:
225,143,50772,6,0,P|260:118|300:111,1,83.9999974365235
382,152,51256,2,0,P|388:84|356:39,1,125.999996154785,8|0,0:0|0:0,0:0:0:0:
311,24,51740,1,0,0:0:0:0:
218,31,51982,1,0,0:0:0:0:
145,88,52224,1,8,0:0:0:0:
98,167,52466,1,0,0:0:0:0:
142,179,52587,1,0,0:0:0:0:
187,171,52708,6,0,P|226:153|258:126,1,83.9999974365235
325,189,53191,2,0,P|275:233|220:259,1,125.999996154785,8|0,0:0|0:0,0:0:0:0:
175,265,53675,1,0,0:0:0:0:
103,323,53917,1,0,0:0:0:0:
84,280,54038,1,0,0:0:0:0:
88,234,54159,1,8,0:0:0:0:
157,172,54401,1,0,0:0:0:0:
243,204,54643,5,0,0:0:0:0:
322,250,54885,1,0,0:0:0:0:
391,189,55127,1,8,0:0:0:0:
311,141,55369,1,0,0:0:0:0:
243,204,55611,2,0,P|205:217|160:218,1,83.9999974365235
129,184,55974,1,0,0:0:0:0:
105,144,56095,2,0,P|143:131|188:130,1,83.9999974365235,8|0,0:0|0:0,0:0:0:0:
322,250,56579,6,0,P|365:260|406:259,1,83.9999974365235,4|0,0:0|0:0,0:0:0:0:
432,171,57062,2,0,P|372:150|311:160,1,125.999996154785,8|0,0:0|0:0,0:0:0:0:
271,183,57546,1,0,0:0:0:0:
207,250,57788,1,0,0:0:0:0:
183,210,57909,1,0,0:0:0:0:
181,163,58030,1,8,0:0:0:0:
242,94,58272,1,0,0:0:0:0:
200,72,58393,1,0,0:0:0:0:
153,75,58514,6,0,P|116:97|94:131,1,83.9999974365235
111,222,58998,2,0,P|175:204|235:207,1,125.999996154785,8|0,0:0|0:0,0:0:0:0:
275,228,59482,1,0,0:0:0:0:
359,264,59724,1,0,0:0:0:0:
331,300,59845,1,0,0:0:0:0:
289,319,59966,1,8,0:0:0:0:
275,228,60208,1,0,0:0:0:0:
303,191,60329,1,0,0:0:0:0:
345,172,60449,6,0,P|387:176|426:197,1,83.9999974365235
359,264,60933,2,0,P|292:246|258:201,1,125.999996154785,8|0,0:0|0:0,0:0:0:0:
255,156,61417,1,0,0:0:0:0:
294,72,61659,1,0,0:0:0:0:
384,52,61901,1,8,0:0:0:0:
456,109,62143,1,0,0:0:0:0:
472,199,62385,6,0,P|456:237|423:268,1,83.9999974365235
333,281,62869,2,0,P|294:267|250:263,1,83.9999974365235,8|0,0:0|0:0,0:0:0:0:
175,211,63353,2,0,P|158:172|155:129,1,83.9999974365235
269,145,63837,2,0,P|339:134|333:60,1,157.500006008148,8|0,0:0|0:0,0:0:0:0:
250,62,64320,5,2,0:0:0:0:
427,114,64804,2,0,P|408:172|361:215,1,125.999996154785,4|0,0:0|0:0,0:0:0:0:
361,215,65530,6,0,P|321:202|277:198,1,83.9999974365235,0|8,0:0|0:0,0:0:0:0:
361,215,65893,6,0,P|358:175|336:139,1,83.9999974365235
303,60,66256,6,0,P|263:67|219:68,1,83.9999974365235
129,60,66740,2,0,P|145:119|197:156,1,125.999996154785,8|0,0:0|0:0,0:0:0:0:
242,160,67224,1,0,0:0:0:0:
320,111,67466,1,0,0:0:0:0:
334,154,67587,1,0,0:0:0:0:
326,199,67708,2,0,P|272:248|192:239,1,157.500006008148,8|0,0:0|0:0,0:0:0:0:
142,172,68191,5,2,0:0:0:0:
227,335,68675,2,0,P|291:331|345:304,1,125.999996154785,4|0,0:0|0:0,0:0:0:0:
346,304,69401,6,0,P|336:264|309:229,1,83.9999974365235,0|8,0:0|0:0,0:0:0:0:
310,230,69764,6,0,P|272:248|230:251,1,83.9999974365235
153,218,70127,5,0,0:0:0:0:
159,310,70369,1,0,0:0:0:0:
230,251,70611,2,0,P|243:210|239:168,1,83.9999974365235,8|0,0:0|0:0,0:0:0:0:
168,111,71095,5,2,0:0:0:0:
206,84,71216,1,2,0:0:0:0:
252,80,71337,1,2,0:0:0:0:
295,95,71458,1,2,0:0:0:0:
331,123,71579,1,2,0:0:0:0:
373,141,71699,1,2,0:0:0:0:
418,132,71820,1,2,0:0:0:0:
475,59,72062,5,2,0:0:0:0:
475,59,72183,1,2,0:0:0:0:
493,141,72425,2,0,L|501:185,1,38.5000011749268,2|2,0:0|0:0,0:0:0:0:
384,184,72788,1,2,0:0:0:0:
384,184,72909,1,2,0:0:0:0:
402,266,73151,2,0,L|410:310,1,38.5000011749268,2|2,0:0|0:0,0:0:0:0:
323,299,73514,2,0,P|285:288|247:288,1,77.0000023498536,8|2,0:0|0:0,0:0:0:0:
173,308,73998,6,0,B|117:318|71:297|71:297|99:273,1,140,2|8,0:0|0:0,0:0:0:0:
160,227,74724,1,2,0:0:0:0:
234,246,74966,1,0,0:0:0:0:
234,207,75087,1,0,0:0:0:0:
215,173,75208,1,2,0:0:0:0:
182,153,75329,1,0,0:0:0:0:
143,151,75449,2,0,B|109:161|109:161|74:161,1,70,8|0,0:0|0:0,0:0:0:0:
99,87,75933,6,0,P|168:78|236:94,1,140,2|8,0:0|0:0,0:0:0:0:
274,161,76659,2,0,P|311:104|291:39,1,140,2|2,0:0|0:0,0:0:0:0:
235,93,77385,1,8,0:0:0:0:
197,159,77627,1,0,0:0:0:0:
274,161,77869,6,0,P|343:157|412:175,1,140,2|8,0:0|0:0,0:0:0:0:
453,239,78595,1,2,0:0:0:0:
437,274,78716,2,0,P|410:295|374:304,1,70
337,299,79079,1,2,0:0:0:0:
302,281,79199,1,0,0:0:0:0:
276,251,79320,2,0,P|264:218|260:180,1,70,8|0,0:0|0:0,0:0:0:0:
190,217,79804,6,0,B|162:175|162:175|203:90,1,140,2|8,0:0|0:0,0:0:0:0:
277,86,80530,2,0,P|239:27|174:20,1,140,2|2,0:0|0:0,0:0:0:0:
108,60,81256,1,8,0:0:0:0:
77,130,81498,1,0,0:0:0:0:
86,206,81740,6,0,P|105:229|140:250,2,70,2|0|8,0:0|0:0|0:0,0:0:0:0:
77,130,82466,1,2,0:0:0:0:
151,149,82708,2,0,P|185:155|221:153,1,70,0|2,0:0|0:0,0:0:0:0:
288,116,83191,2,0,P|296:167|269:214,1,105,8|0,0:0|0:0,0:0:0:0:
237,232,83675,5,2,0:0:0:0:
163,253,83917,1,0,0:0:0:0:
92,222,84159,2,0,P|74:194|65:154,1,70,8|2,0:0|0:0,0:0:0:0:
163,253,84643,2,0,P|181:281|190:321,1,70,0|2,0:0|0:0,0:0:0:0:
92,222,85127,2,0,P|123:187|178:177,1,105,8|0,0:0|0:0,0:0:0:0:
215,187,85611,5,2,0:0:0:0:
288,209,85853,1,0,0:0:0:0:
363,193,86095,2,0,P|395:177|420:152,1,70,8|2,0:0|0:0,0:0:0:0:
424,114,86458,2,0,P|405:86|377:65,1,70
337,67,86820,1,2,0:0:0:0:
301,81,86941,1,0,0:0:0:0:
272,107,87062,2,0,P|238:116|204:116,1,70,8|2,0:0|0:0,0:0:0:0:
142,67,87546,6,0,P|127:129|171:188,1,140,2|8,0:0|0:0,0:0:0:0:
244,205,88272,2,0,P|226:241|198:259,1,70,2|2,0:0|0:0,0:0:0:0:
163,263,88635,1,2,0:0:0:0:
126,252,88756,1,2,0:0:0:0:
100,222,88877,1,2,0:0:0:0:
91,184,88998,2,0,P|99:149|121:124,1,70,2|0,0:0|0:0,0:0:0:0:
224,157,89482,6,0,P|276:157|340:143,1,115.50000352478,6|2,0:0|0:0,0:0:0:0:
378,130,89966,1,8,0:0:0:0:
308,178,90208,2,0,P|281:217|263:283,1,115.50000352478,2|2,0:0|0:0,0:0:0:0:
268,324,90691,1,2,0:0:0:0:
187,298,90933,2,0,P|149:287|112:288,1,77.0000023498536,8|0,0:0|0:0,0:0:0:0:
33,321,91417,5,2,0:0:0:0:
44,237,91659,1,0,0:0:0:0:
111,288,91901,2,8,P|126:252|125:213,1,77.0000023498536,8|2,0:0|0:0,0:0:0:0:
65,154,92385,2,0,P|135:131|199:173,1,154.000004699707,0|8,0:0|0:0,0:0:0:0:
210,212,92990,1,2,0:0:0:0:
201,253,93111,1,2,0:0:0:0:
125,214,93353,6,0,L|140:96,1,115.50000352478,2|2,0:0|0:0,0:0:0:0:
146,57,93837,1,8,0:0:0:0:
222,97,94079,2,0,L|209:214,1,115.50000352478,2|2,0:0|0:0,0:0:0:0:
206,254,94562,1,2,0:0:0:0:
288,233,94804,2,0,P|327:222|366:225,1,77.0000023498536,8|0,0:0|0:0,0:0:0:0:
443,251,95288,5,2,0:0:0:0:
380,308,95530,1,0,0:0:0:0:
443,251,95772,2,0,P|473:227|509:214,1,77.0000023498536,8|2,0:0|0:0,0:0:0:0:
380,308,96256,2,0,P|304:313|232:285,1,154.000004699707,0|8,0:0|0:0,0:0:0:0:
202,255,96861,1,2,0:0:0:0:
187,215,96982,1,2,0:0:0:0:
103,226,97224,6,0,P|109:186|131:151,1,77.0000023498536,2|2,0:0|0:0,0:0:0:0:
187,215,97708,2,0,P|181:255|159:290,1,77.0000023498536,8|2,0:0|0:0,0:0:0:0:
127,154,98191,2,0,P|196:131|261:174,1,154.000004699707,0|8,0:0|0:0,0:0:0:0:
294,250,98917,1,2,0:0:0:0:
350,313,99159,6,0,P|390:322|436:321,1,77.0000023498536,2|2,0:0|0:0,0:0:0:0:
485,261,99643,1,8,0:0:0:0:
425,322,99885,2,0,P|401:251|443:187,1,154.000004699707,2|2,0:0|0:0,0:0:0:0:
502,129,100611,1,10,0:0:0:0:
465,107,100732,1,2,0:0:0:0:
422,105,100853,1,2,0:0:0:0:
384,125,100974,1,2,0:0:0:0:
352,152,101095,6,0,P|318:170|278:174,1,77.0000023498536,2|2,0:0|0:0,0:0:0:0:
214,119,101579,1,8,0:0:0:0:
202,202,101820,1,2,0:0:0:0:
135,150,102062,2,0,P|99:139|60:140,1,77.0000023498536,2|2,0:0|0:0,0:0:0:0:
3,203,102546,1,8,0:0:0:0:
43,277,102788,6,0,L|23:296,4,19.2500005874634,0|0|0|0|2,0:0|0:0|0:0|0:0|0:0,0:0:0:0:
87,205,103272,5,2,0:0:0:0:
116,235,103393,1,2,0:0:0:0:
127,275,103514,1,10,0:0:0:0:
87,350,103756,5,2,0:0:0:0:
128,360,103877,1,2,0:0:0:0:
169,350,103998,1,2,0:0:0:0:
200,321,104119,1,2,0:0:0:0:
232,293,104240,1,2,0:0:0:0:
273,286,104361,1,2,0:0:0:0:
311,303,104482,2,0,B|339:322|372:323|372:323|388:303,1,77.0000023498536,10|0,0:0|0:0,0:0:0:0:
345,170,104966,6,0,P|316:138|276:125,1,83.9999974365235,4|0,0:0|0:0,0:0:0:0:
200,174,105449,2,0,P|188:111|217:57,1,125.999996154785,8|0,0:0|0:0,0:0:0:0:
257,37,105933,1,0,0:0:0:0:
338,81,106175,1,0,0:0:0:0:
382,95,106296,1,0,0:0:0:0:
428,95,106417,1,8,0:0:0:0:
443,186,106659,1,0,0:0:0:0:
396,189,106780,1,0,0:0:0:0:
350,179,106901,6,0,P|307:172|266:177,1,83.9999974365235
204,245,107385,2,0,P|176:187|191:125,1,125.999996154785,8|0,0:0|0:0,0:0:0:0:
212,89,107869,1,0,0:0:0:0:
292,42,108111,1,0,0:0:0:0:
370,90,108353,1,8,0:0:0:0:
349,180,108595,1,0,0:0:0:0:
395,179,108716,1,0,0:0:0:0:
435,155,108837,6,0,P|457:119|461:76,1,83.9999974365235
370,90,109320,2,0,P|307:99|246:94,1,125.999996154785,8|0,0:0|0:0,0:0:0:0:
199,84,109804,1,0,0:0:0:0:
121,33,110046,1,0,0:0:0:0:
106,77,110167,1,0,0:0:0:0:
114,122,110288,1,8,0:0:0:0:
173,193,110530,1,0,0:0:0:0:
245,250,110772,6,0,P|286:255|329:249,1,83.9999974365235
173,193,111256,2,0,P|132:188|89:194,1,83.9999974365235,8|0,0:0|0:0,0:0:0:0:
23,258,111740,1,0,0:0:0:0:
88,324,111982,1,0,0:0:0:0:
131,339,112103,1,0,0:0:0:0:
175,349,112224,2,0,P|216:348|259:333,1,83.9999974365235,8|0,0:0|0:0,0:0:0:0:
325,272,112708,6,0,P|344:234|350:191,1,83.9999974365235,4|0,0:0|0:0,0:0:0:0:
258,206,113191,2,0,P|194:212|132:203,1,125.999996154785,8|0,0:0|0:0,0:0:0:0:
89,186,113675,1,0,0:0:0:0:
47,103,113917,1,0,0:0:0:0:
100,27,114159,1,8,0:0:0:0:
178,75,114401,1,0,0:0:0:0:
221,91,114522,1,0,0:0:0:0:
266,96,114643,6,0,P|309:94|350:80,1,83.9999974365235
440,78,115127,2,0,P|422:135|368:172,1,125.999996154785,8|0,0:0|0:0,0:0:0:0:
322,173,115611,1,0,0:0:0:0:
236,137,115853,1,0,0:0:0:0:
310,82,116095,1,8,0:0:0:0:
322,173,116337,1,0,0:0:0:0:
309,217,116458,1,0,0:0:0:0:
276,249,116579,6,0,P|239:268|198:272,1,83.9999974365235
175,361,117062,2,0,P|122:324|106:264,1,125.999996154785,8|0,0:0|0:0,0:0:0:0:
117,222,117546,1,0,0:0:0:0:
197,176,117788,1,0,0:0:0:0:
164,143,117909,1,0,0:0:0:0:
119,129,118030,1,8,0:0:0:0:
38,174,118272,1,0,0:0:0:0:
119,129,118514,6,0,P|141:89|147:51,1,83.9999974365235
38,174,118998,2,0,P|16:214|10:252,1,83.9999974365235,8|0,0:0|0:0,0:0:0:0:
102,239,119482,2,0,P|143:228|185:229,1,83.9999974365235
296,256,119966,2,0,P|363:227|340:161,1,157.500006008148,8|0,0:0|0:0,0:0:0:0:
258,182,120449,5,2,0:0:0:0:
441,200,120933,2,0,P|428:266|390:310,1,125.999996154785,4|0,0:0|0:0,0:0:0:0:
391,310,121659,6,0,P|347:293|303:292,1,83.9999974365235,0|8,0:0|0:0,0:0:0:0:
310,291,122022,6,0,P|330:254|364:231,1,83.9999974365235
310,166,122385,6,0,P|273:146|231:138,1,83.9999974365235
166,73,122869,2,0,P|142:128|156:191,1,125.999996154785,8|0,0:0|0:0,0:0:0:0:
182,229,123353,1,0,0:0:0:0:
251,292,123595,1,0,0:0:0:0:
313,215,123837,2,0,P|341:163|266:135,1,157.500006008148,8|0,0:0|0:0,0:0:0:0:
208,193,124320,5,2,0:0:0:0:
333,57,124804,2,0,P|386:89|416:144,1,125.999996154785,4|0,0:0|0:0,0:0:0:0:
416,144,125530,6,0,P|381:167|338:172,1,83.9999974365235,0|8,0:0|0:0,0:0:0:0:
339,172,125893,6,0,P|299:150|259:143,1,83.9999974365235
178,143,126256,6,0,P|189:184|217:215,1,83.9999974365235
201,306,126740,2,0,P|246:303|281:282,1,83.9999974365235,8|0,0:0|0:0,0:0:0:0:
331,207,127224,5,2,0:0:0:0:
340,161,127345,1,2,0:0:0:0:
323,117,127466,1,2,0:0:0:0:
284,91,127587,1,2,0:0:0:0:
237,92,127708,1,2,0:0:0:0:
196,114,127829,1,2,0:0:0:0:
176,155,127949,1,2,0:0:0:0:
245,215,128191,5,4,0:0:0:0:
123,235,135933,5,6,0:0:0:0:
211,90,136417,1,2,0:0:0:0:
378,112,136901,1,2,0:0:0:0:
348,278,137385,2,0,P|311:287|271:289,1,77.0000023498536,2|0,0:0|0:0,0:0:0:0:
190,266,137869,5,2,0:0:0:0:
161,98,138353,1,2,0:0:0:0:
81,247,138837,1,2,0:0:0:0:
227,162,139320,1,2,0:0:0:0:
345,282,139804,6,0,P|385:278|418:263,1,77.0000023498536,2|0,0:0|0:0,0:0:0:0:
364,197,140288,2,0,P|333:172|311:137,1,77.0000023498536,2|0,0:0|0:0,0:0:0:0:
273,216,140772,2,0,P|241:236|201:246,1,77.0000023498536,2|0,0:0|0:0,0:0:0:0:
118,238,141256,1,2,0:0:0:0:
85,159,141498,1,0,0:0:0:0:
109,77,141740,6,0,P|142:50|249:49,1,154.000004699707,2|2,0:0|0:0,0:0:0:0:
320,94,142466,1,0,0:0:0:0:
377,155,142708,2,0,P|386:195|383:230,1,77.0000023498536,2|0,0:0|0:0,0:0:0:0:
345,306,143191,1,2,0:0:0:0:
263,329,143433,1,0,0:0:0:0:
256,192,143675,12,8,147062,0:0:0:0:
246,237,147546,6,0,P|286:219|319:190,1,83.9999974365235,4|0,0:0|0:0,0:0:0:0:
391,247,148030,2,0,P|342:292|288:319,1,125.999996154785,8|0,0:0|0:0,0:0:0:0:
242,319,148514,1,0,0:0:0:0:
173,380,148756,1,0,0:0:0:0:
153,337,148877,1,0,0:0:0:0:
155,290,148998,1,8,0:0:0:0:
223,227,149240,1,0,0:0:0:0:
183,202,149361,1,0,0:0:0:0:
136,199,149482,6,0,P|93:194|56:176,1,83.9999974365235
120,108,149966,2,0,P|181:91|234:56,1,125.999996154785,8|0,0:0|0:0,0:0:0:0:
267,26,150449,1,0,0:0:0:0:
302,111,150691,1,0,0:0:0:0:
339,83,150812,1,0,0:0:0:0:
357,40,150933,1,8,0:0:0:0:
267,26,151175,1,0,0:0:0:0:
232,56,151296,1,0,0:0:0:0:
212,98,151417,6,0,P|212:139|236:177,1,83.9999974365235
316,216,151901,2,0,P|274:258|208:264,1,125.999996154785,8|0,0:0|0:0,0:0:0:0:
168,244,152385,1,0,0:0:0:0:
113,169,152627,1,0,0:0:0:0:
123,77,152869,1,8,0:0:0:0:
196,20,153111,1,0,0:0:0:0:
279,58,153353,6,0,P|320:70|363:74,1,83.9999974365235
302,146,153837,2,0,P|270:173|247:211,1,83.9999974365235,8|0,0:0|0:0,0:0:0:0:
174,152,154320,2,0,P|144:121|106:103,1,83.9999974365235
60,104,154683,1,0,0:0:0:0:
27,137,154804,1,8,0:0:0:0:
1,225,155046,1,0,0:0:0:0:
152,255,155288,6,0,P|115:273|73:280,1,83.9999974365235,4|0,0:0|0:0,0:0:0:0:
178,334,155772,2,0,P|225:296|248:235,1,125.999996154785,8|0,0:0|0:0,0:0:0:0:
242,190,156256,1,0,0:0:0:0:
149,184,156498,1,0,0:0:0:0:
163,140,156619,1,0,0:0:0:0:
196,107,156740,1,8,0:0:0:0:
288,112,156982,1,0,0:0:0:0:
278,66,157103,1,0,0:0:0:0:
248,30,157224,6,0,P|209:16|166:18,1,83.9999974365235
196,107,157708,2,0,P|213:160|209:231,1,125.999996154785,8|0,0:0|0:0,0:0:0:0:
189,271,158191,1,0,0:0:0:0:
127,339,158433,1,0,0:0:0:0:
99,250,158675,1,8,0:0:0:0:
189,271,158917,1,0,0:0:0:0:
234,276,159038,1,0,0:0:0:0:
279,269,159159,6,0,P|319:252|348:221,1,83.9999974365235
436,244,159643,2,0,P|425:177|382:139,1,125.999996154785,8|0,0:0|0:0,0:0:0:0:
337,132,160127,1,0,0:0:0:0:
246,150,160369,1,0,0:0:0:0:
209,235,160611,1,8,0:0:0:0:
243,320,160853,1,0,0:0:0:0:
331,346,161095,6,0,P|372:344|410:327,1,83.9999974365235
352,254,161579,2,0,P|331:213|329:171,1,83.9999974365235,8|0,0:0|0:0,0:0:0:0:
402,120,162062,2,0,P|368:93|329:85,1,83.9999974365235
228,143,162546,2,0,P|180:165|152:83,1,157.500006008148,8|0,0:0|0:0,0:0:0:0:
228,57,163030,5,2,0:0:0:0:
70,153,163514,2,0,P|105:210|156:237,1,125.999996154785,4|0,0:0|0:0,0:0:0:0:
156,237,164240,6,0,P|121:264|82:274,1,83.9999974365235,0|8,0:0|0:0,0:0:0:0:
83,273,164603,6,0,P|69:234|70:190,1,83.9999974365235
145,152,164966,6,0,P|181:130|208:97,1,83.9999974365235
345,161,165449,2,0,P|288:183|221:192,1,125.999996154785,8|0,0:0|0:0,0:0:0:0:
178,180,165933,1,0,0:0:0:0:
94,139,166175,1,0,0:0:0:0:
32,209,166417,2,0,P|77:265|159:271,1,157.500006008148,8|0,0:0|0:0,0:0:0:0:
223,191,166901,5,2,0:0:0:0:
323,256,167385,2,0,P|289:308|232:339,1,125.999996154785,4|0,0:0|0:0,0:0:0:0:
234,338,168111,6,0,P|194:324|153:324,1,83.9999974365235,0|8,0:0|0:0,0:0:0:0:
234,338,168474,6,0,P|252:303|252:258,1,83.9999974365235
215,183,168837,5,0,0:0:0:0:
272,110,169079,1,0,0:0:0:0:
362,124,169320,2,0,P|395:148|414:188,1,83.9999974365235,8|0,0:0|0:0,0:0:0:0:
408,279,169804,5,2,0:0:0:0:
368,302,169925,1,2,0:0:0:0:
322,307,170046,1,2,0:0:0:0:
279,289,170167,1,2,0:0:0:0:
240,264,170288,1,2,0:0:0:0:
193,262,170409,1,2,0:0:0:0:
150,279,170530,1,2,0:0:0:0:
82,330,170772,5,4,0:0:0:0:
82,330,171256,2,0,P|67:273|89:220,2,115.50000352478,8|0|0,0:0|0:0|0:0,0:0:0:0:
82,330,172224,1,8,0:0:0:0:
154,285,172466,1,0,0:0:0:0:
192,268,172587,1,0,0:0:0:0:
233,275,172708,5,0,0:0:0:0:
233,275,173191,2,0,P|293:288|347:287,2,115.50000352478,8|0|0,0:0|0:0|0:0,0:0:0:0:
233,275,174159,1,8,0:0:0:0:
280,204,174401,1,0,0:0:0:0:
297,165,174522,1,0,0:0:0:0:
294,122,174643,6,0,P|277:89|248:60,1,77.0000023498536
294,122,175127,2,0,P|347:142|409:140,2,115.50000352478,8|0|0,0:0|0:0|0:0,0:0:0:0:
294,122,176095,1,8,0:0:0:0:
228,67,176337,1,0,0:0:0:0:
147,92,176579,5,0,0:0:0:0:
101,162,176820,1,0,0:0:0:0:
121,244,177062,1,8,0:0:0:0:
195,203,177304,1,0,0:0:0:0:
244,272,177546,2,0,P|279:289|317:293,1,77.0000023498536
400,224,178030,2,0,P|452:202|487:273,1,146.999995513916,8|0,0:0|0:0,0:0:0:0:
417,301,178514,5,4,0:0:0:0:
