osu file format v14

[General]
AudioFilename: audio.mp3
AudioLeadIn: 0
PreviewTime: 36354
Countdown: 0
SampleSet: Soft
StackLeniency: 0.3
Mode: 0
LetterboxInBreaks: 0
WidescreenStoryboard: 0

[Editor]
Bookmarks: 9326,18383,27439,36496,45553,54609,63666,72581
DistanceSpacing: 1.2
BeatDivisor: 4
GridSize: 4
TimelineZoom: 2.7

[Metadata]
Title:MAYDAY
TitleUnicode:MAYDAY
Artist:APRIL
ArtistUnicode:에이프릴
Creator:Marianna
Version:INSANE!
Source:
Tags:DSP Media 미디어 2nd single album chaekyung chaewon naeun yena rachel jinsol 채경 채원 나은 예나 레이첼 진솔
BeatmapID:1436191
BeatmapSetID:679275

[Difficulty]
HPDrainRate:6
CircleSize:4
OverallDifficulty:7
ApproachRate:9
SliderMultiplier:2.6
SliderTickRate:1

[Events]
//Background and Video events
0,0,"bg.jpg",0,0
//Break Periods
2,27639,31368
//Storyboard Layer 0 (Background)
//Storyboard Layer 1 (Fail)
//Storyboard Layer 2 (Pass)
//Storyboard Layer 3 (Foreground)
//Storyboard Sound Samples

[TimingPoints]
270,566.037735849057,4,2,0,70,1,0
9326,-125,4,2,1,80,0,0
27439,-142.857142857143,4,2,1,70,0,0
36354,-142.857142857143,4,2,1,5,0,0
36496,-100,4,2,1,100,0,1
54468,-100,4,2,1,100,0,0
54609,-100,4,2,1,100,0,1
72581,-100,4,2,1,100,0,0

[Colours]
Combo1 : 61,158,58
Combo2 : 237,18,62
Combo3 : 82,44,233
Combo4 : 224,234,38
SliderBorder : 190,31,167
SliderTrackOverride : 236,196,233

[HitObjects]
84,88,9326,6,0,L|192:80,1,104,4|2,0:0|0:0,0:0:0:0:
304,152,9751,2,0,L|200:164,1,104,4|2,0:3|0:0,0:0:0:0:
128,176,10175,1,8,0:0:0:0:
187,80,10317,1,2,0:0:0:0:
112,200,10458,6,0,P|96:252|120:296,1,104,4|0,0:3|0:0,0:0:0:0:
224,288,10883,2,0,P|240:236|216:192,1,104,4|0,0:3|0:0,0:0:0:0:
168,244,11307,1,8,0:0:0:0:
256,364,11449,1,0,0:0:0:0:
364,244,11590,6,0,L|352:140,1,104,4|0,0:0|0:0,0:0:0:0:
452,40,12015,2,0,L|464:144,1,104,4|0,0:3|0:0,0:0:0:0:
480,296,12439,1,8,0:0:0:0:
468,172,12581,1,0,0:0:0:0:
480,316,12722,6,0,P|432:336|384:316,1,104,4|2,0:3|0:1,0:0:0:0:
296,192,13147,1,0,0:0:0:0:
296,192,13288,2,0,P|344:172|392:192,1,104,4|2,0:3|0:1,0:0:0:0:
256,304,13713,1,0,0:0:0:0:
256,304,13854,6,0,L|152:300,1,104,4|0,0:0|0:0,0:0:0:0:
88,192,14279,2,0,L|192:188,1,104,4|0,0:3|0:0,0:0:0:0:
260,316,14703,1,8,0:0:0:0:
204,208,14845,1,0,0:0:0:0:
268,328,14986,6,0,L|372:320,1,104,4|0,0:3|0:0,0:0:0:0:
404,232,15411,2,0,L|300:224,1,104,4|0,0:3|0:0,0:0:0:0:
228,212,15836,1,8,0:0:0:0:
336,124,15977,1,2,0:0:0:0:
404,232,16119,6,0,P|420:280|400:328,1,104,4|0,0:0|0:0,0:0:0:0:
293,322,16543,2,0,P|277:274|297:226,1,104,4|0,0:3|0:0,0:0:0:0:
349,277,16968,1,8,0:0:0:0:
216,364,17109,1,2,0:0:0:0:
100,256,17251,5,2,0:0:0:0:
103,218,17439,1,0,0:0:0:0:
107,182,17628,1,2,0:0:0:0:
28,296,17817,5,2,0:0:0:0:
32,336,18005,1,2,0:0:0:0:
36,372,18194,1,2,0:0:0:0:
107,182,18383,6,0,P|156:164|204:180,1,104,4|0,0:0|0:0,0:0:0:0:
256,252,18807,2,0,P|305:270|353:254,1,104,4|0,0:3|0:0,0:0:0:0:
308,192,19232,1,8,0:0:0:0:
200,312,19373,1,2,0:0:0:0:
203,179,19515,6,0,L|199:75,1,104,4|0,0:3|0:0,0:0:0:0:
296,0,19939,2,0,L|292:104,1,104,4|0,0:3|0:0,0:0:0:0:
288,176,20364,1,8,0:0:0:0:
199,75,20505,1,0,0:0:0:0:
376,112,20647,6,0,P|432:112|468:84,1,104,4|0,0:0|0:0,0:0:0:0:
444,0,21071,2,0,P|388:0|352:28,1,104,4|0,0:3|0:0,0:0:0:0:
376,144,21496,1,8,0:0:0:0:
348,0,21637,1,2,0:0:0:0:
380,172,21779,6,0,L|372:276,1,104,4|2,0:3|0:1,0:0:0:0:
232,304,22203,1,0,0:0:0:0:
232,304,22345,2,0,L|240:200,1,104,4|2,0:3|0:1,0:0:0:0:
248,128,22770,1,0,0:0:0:0:
160,216,22911,6,0,P|108:232|60:212,1,104,4|0,0:0|0:0,0:0:0:0:
64,88,23336,2,0,P|116:72|164:92,1,104,4|0,0:3|0:0,0:0:0:0:
176,252,23760,1,8,0:0:0:0:
156,48,23902,1,2,0:0:0:0:
180,288,24043,6,0,L|288:280,1,104,4|0,0:3|0:0,0:0:0:0:
328,136,24468,2,0,L|224:143,1,104,4|0,0:3|0:0,0:0:0:0:
152,148,24892,1,8,0:0:0:0:
256,36,25034,1,2,0:0:0:0:
360,216,25175,6,0,P|372:264|348:316,1,104,4|2,0:0|0:0,0:0:0:0:
240,304,25600,2,0,P|228:256|252:204,1,104,4|2,0:3|0:0,0:0:0:0:
300,260,26024,1,8,0:0:0:0:
184,360,26166,1,2,0:0:0:0:
76,240,26307,5,2,0:0:0:0:
36,244,26495,1,2,0:0:0:0:
0,248,26684,1,0,0:0:0:0:
152,192,26873,5,2,0:0:0:0:
192,196,27061,1,2,0:0:0:0:
228,200,27250,1,2,0:0:0:0:
64,116,27439,5,4,0:0:0:0:
100,136,31968,6,0,P|144:148|188:136,1,90.9999972229005,4|2,0:0|0:0,0:0:0:0:
252,96,32392,1,0,0:0:0:0:
252,96,32534,2,0,P|296:84|340:96,1,90.9999972229005,8|2,0:0|0:0,0:0:0:0:
460,192,33100,6,0,L|456:284,1,90.9999972229005,8|2,0:0|0:0,0:0:0:0:
380,216,33524,1,0,0:0:0:0:
380,216,33666,2,0,L|376:308,1,90.9999972229005,8|2,0:0|0:0,0:0:0:0:
360,312,34043,1,0,0:0:0:0:
344,320,34137,1,0,0:0:0:0:
329,323,34232,6,0,L|276:320,1,45.4999986114502,4|2,0:0|0:0,0:0:0:0:
136,276,34515,2,0,L|189:273,1,45.4999986114502,8|2,0:0|0:0,0:0:0:0:
268,232,34798,1,2,0:0:0:0:
268,232,34869,1,0,0:0:0:0:
268,232,34939,1,2,0:0:0:0:
220,140,35081,1,2,0:0:0:0:
280,48,35222,5,2,0:0:0:0:
256,192,35364,12,0,36354,0:0:0:0:
108,60,36496,6,0,P|80:116|104:176,1,130,4|8,0:0|0:0,0:0:0:0:
160,120,36920,1,0,0:0:0:0:
8,180,37062,2,0,L|16:312,1,130,4|8,0:3|0:0,0:0:0:0:
72,364,37486,1,0,0:0:0:0:
184,304,37628,2,0,B|256:280|232:328|324:304,1,130,4|8,0:3|0:0,0:0:0:0:
384,276,38053,1,0,0:0:0:0:
328,192,38194,2,0,P|300:136|324:76,1,130,4|8,0:3|0:0,0:0:0:0:
184,0,38619,6,0,P|212:56|188:116,1,130,2|4,0:0|0:3,0:0:0:0:
136,60,39043,1,4,0:0:0:0:
280,8,39185,1,0,0:0:0:0:
136,60,39326,2,0,L|0:56,1,130,4|8,0:3|0:0,0:0:0:0:
68,256,39892,2,0,L|204:252,1,130,4|0,0:3|0:0,0:0:0:0:
276,244,40317,1,2,0:0:0:0:
228,180,40458,2,0,P|220:148|228:116,2,65,2|2|2,0:0|0:0|0:0,0:0:0:0:
288,60,40883,6,0,P|228:36|168:60,1,130,4|4,0:3|0:3,0:0:0:0:
356,96,41307,2,0,P|416:120|476:96,1,130,4|0,0:0|0:0,0:0:0:0:
288,60,41873,1,8,0:0:0:0:
256,132,42015,1,0,0:0:0:0:
304,192,42156,2,0,L|296:328,1,130,4|8,0:3|0:0,0:0:0:0:
112,192,42722,2,0,L|120:56,1,130,4|0,0:3|0:0,0:0:0:0:
160,256,43147,2,0,P|96:272|44:236,1,130,2|4,0:0|0:3,0:0:0:0:
228,212,43571,6,0,P|292:196|344:232,1,130,4|4,0:0|0:3,0:0:0:0:
389,290,43996,1,0,0:0:0:0:
416,192,44137,2,0,L|416:128,1,65,8|0,0:0|0:0,0:0:0:0:
364,0,44420,2,0,L|364:64,1,65,4|2,0:3|0:0,0:0:0:0:
324,132,44703,1,2,0:0:0:0:
264,80,44845,1,0,0:0:0:0:
264,80,44916,1,0,0:0:0:0:
264,80,44986,1,2,0:0:0:0:
196,132,45128,1,0,0:0:0:0:
112,48,45270,1,2,0:0:0:0:
12,124,45411,1,0,0:0:0:0:
112,224,45553,6,0,P|136:280|108:344,1,130,4|8,0:0|0:0,0:0:0:0:
60,280,45977,1,0,0:0:0:0:
192,192,46119,2,0,L|324:200,1,130,4|8,0:3|0:0,0:0:0:0:
400,208,46543,1,0,0:0:0:0:
340,108,46685,2,0,L|208:116,1,130,4|8,0:3|0:0,0:0:0:0:
132,124,47109,1,0,0:0:0:0:
240,196,47251,2,0,P|264:252|236:316,1,130,4|8,0:3|0:0,0:0:0:0:
388,168,47675,6,0,P|364:112|392:48,1,130,2|2,0:0|0:0,0:0:0:0:
444,108,48100,1,4,0:0:0:0:
316,196,48241,1,2,0:0:0:0:
220,80,48383,2,0,L|84:84,1,130,4|8,0:3|0:0,0:0:0:0:
48,248,48949,2,0,L|177:244,1,130,4|8,0:3|0:0,0:0:0:0:
256,240,49373,1,2,0:0:0:0:
212,176,49515,2,0,P|204:144|212:112,2,65,0|2|2,0:0|0:0|0:0,0:0:0:0:
312,296,49939,6,0,L|448:292,1,130,4|4,0:3|0:3,0:0:0:0:
512,192,50364,2,0,L|382:188,1,130,4|4,0:0|0:3,0:0:0:0:
304,180,50788,1,0,0:0:0:0:
436,112,50930,2,0,P|460:60|432:-4,1,130,8|4,0:0|0:3,0:0:0:0:
384,56,51354,1,0,0:0:0:0:
460,192,51496,2,0,L|456:264,1,65,8|0,0:0|0:0,0:0:0:0:
456,348,51779,1,4,0:3:0:0:
456,348,51920,1,2,0:0:0:0:
376,296,52062,1,8,0:0:0:0:
292,360,52203,6,0,P|232:384|172:360,1,130,4|4,0:3|0:3,0:0:0:0:
120,304,52628,1,4,0:0:0:0:
188,192,52770,1,0,0:0:0:0:
256,88,52911,2,0,P|315:65|374:89,1,130,4|8,0:3|0:0,0:0:0:0:
432,140,53336,1,0,0:0:0:0:
464,24,53477,5,2,0:0:0:0:
464,24,53619,1,2,0:0:0:0:
328,68,53760,1,8,0:0:0:0:
432,140,53902,1,0,0:0:0:0:
424,152,53972,1,0,0:0:0:0:
416,164,54043,1,2,0:0:0:0:
360,244,54185,1,0,0:0:0:0:
444,320,54326,1,8,0:0:0:0:
432,140,54468,1,0,0:0:0:0:
276,216,54609,6,0,L|144:216,1,130,4|8,0:0|0:0,0:0:0:0:
100,152,55034,1,0,0:0:0:0:
176,296,55175,2,0,L|306:296,1,130,4|8,0:3|0:0,0:0:0:0:
368,344,55600,1,0,0:0:0:0:
276,216,55741,2,0,P|252:160|280:96,1,130,4|8,0:3|0:0,0:0:0:0:
332,156,56166,1,0,0:0:0:0:
200,76,56307,2,0,L|136:80,2,65,2|2|2,0:0|0:0|0:0,0:0:0:0:
332,156,56732,6,0,L|464:144,1,130,4|4,0:3|0:3,0:0:0:0:
488,64,57156,1,4,0:0:0:0:
428,236,57298,1,0,0:0:0:0:
268,120,57439,2,0,P|244:64|272:0,1,130,4|8,0:3|0:0,0:0:0:0:
324,60,57864,1,0,0:0:0:0:
192,140,58005,2,0,L|60:140,1,130,4|8,0:3|0:0,0:0:0:0:
24,72,58430,1,2,0:0:0:0:
88,216,58571,1,2,0:0:0:0:
192,140,58713,1,2,0:0:0:0:
192,140,58784,1,0,0:0:0:0:
192,140,58854,1,8,0:0:0:0:
256,240,58996,6,0,P|288:248|320:240,1,65,4|0,0:3|0:0,0:0:0:0:
424,324,59279,1,4,0:3:0:0:
428,180,59420,1,4,0:0:0:0:
424,308,59562,1,0,0:0:0:0:
428,156,59703,2,0,L|420:20,1,130,4|8,0:3|0:0,0:0:0:0:
344,12,60128,1,0,0:0:0:0:
212,96,60270,2,0,P|148:124|92:96,1,130,4|8,0:3|0:0,0:0:0:0:
152,44,60694,1,2,0:0:0:0:
248,168,60836,2,0,L|244:236,2,65,4|2|2,0:3|0:0|0:0,0:0:0:0:
304,32,61260,6,0,P|368:4|424:32,1,130,4|4,0:3|0:3,0:0:0:0:
500,152,61685,1,4,0:0:0:0:
432,40,61826,1,0,0:0:0:0:
512,168,61968,2,0,L|504:244,1,65,8|0,0:0|0:0,0:0:0:0:
492,328,62251,1,8,0:0:0:0:
412,264,62392,1,0,0:0:0:0:
360,348,62534,2,0,P|308:368|244:328,1,130,4|8,0:3|0:0,0:0:0:0:
200,272,62958,1,0,0:0:0:0:
200,272,63029,1,0,0:0:0:0:
200,272,63100,5,2,0:0:0:0:
256,168,63241,1,2,0:0:0:0:
212,60,63382,1,8,0:0:0:0:
80,40,63524,1,2,0:0:0:0:
256,168,63666,6,0,L|388:160,1,130,4|8,0:0|0:0,0:0:0:0:
464,152,64090,1,0,0:0:0:0:
336,272,64232,2,0,L|204:264,1,130,4|8,0:3|0:0,0:0:0:0:
128,256,64656,1,0,0:0:0:0:
256,168,64798,2,0,P|276:108|240:56,1,130,4|8,0:3|0:0,0:0:0:0:
196,120,65222,1,2,0:0:0:0:
344,48,65364,1,2,0:0:0:0:
312,240,65505,1,0,0:0:0:0:
312,240,65647,1,8,0:0:0:0:
196,120,65788,6,0,L|60:116,1,130,4|4,0:3|0:3,0:0:0:0:
256,176,66213,2,0,L|392:172,1,130,4|4,0:0|0:3,0:0:0:0:
256,260,66779,1,8,0:0:0:0:
324,88,66920,1,0,0:0:0:0:
244,272,67062,2,0,P|220:332|252:384,1,130,4|0,0:3|0:0,0:0:0:0:
304,320,67486,1,2,0:0:0:0:
140,288,67628,1,2,0:0:0:0:
244,172,67770,1,2,0:0:0:0:
244,172,67840,1,2,0:0:0:0:
244,172,67911,1,8,0:0:0:0:
304,320,68053,6,0,L|436:312,1,130,4|4,0:3|0:3,0:0:0:0:
248,176,68477,2,0,L|116:168,1,130,4|4,0:0|0:3,0:0:0:0:
236,64,69043,1,8,0:0:0:0:
180,272,69185,1,0,0:0:0:0:
244,36,69326,2,0,L|376:28,1,130,4|8,0:3|0:0,0:0:0:0:
452,16,69751,1,2,0:0:0:0:
384,156,69892,1,2,0:0:0:0:
472,284,70034,1,0,0:0:0:0:
472,284,70104,1,2,0:0:0:0:
472,284,70175,1,8,0:0:0:0:
304,264,70317,6,0,L|168:272,1,130,4|4,0:3|0:3,0:0:0:0:
124,212,70741,1,4,0:0:0:0:
224,352,70883,1,0,0:0:0:0:
104,180,71024,2,0,L|108:116,1,65,8|0,0:0|0:0,0:0:0:0:
112,36,71307,1,8,0:0:0:0:
212,152,71449,1,4,0:3:0:0:
320,36,71590,1,4,0:3:0:0:
112,36,71732,1,0,0:0:0:0:
240,188,71873,1,8,0:0:0:0:
328,0,72015,1,4,0:3:0:0:
396,200,72156,5,2,0:0:0:0:
224,64,72298,1,2,0:0:0:0:
424,68,72439,1,8,0:0:0:0:
260,200,72581,5,2,0:0:0:0:
