osu file format v14

[General]
AudioFilename: audio.mp3
AudioLeadIn: 0
PreviewTime: 36354
Countdown: 0
SampleSet: Soft
StackLeniency: 0.3
Mode: 0
LetterboxInBreaks: 0
WidescreenStoryboard: 0

[Editor]
Bookmarks: 9326,18383,27439,36496,45553,54609,63666,72581
DistanceSpacing: 1
BeatDivisor: 4
GridSize: 4
TimelineZoom: 2.7

[Metadata]
Title:MAYDAY
TitleUnicode:MAYDAY
Artist:APRIL
ArtistUnicode:에이프릴
Creator:Marianna
Version:ADVANCED!
Source:
Tags:DSP Media 미디어 2nd single album chaekyung chaewon naeun yena rachel jinsol 채경 채원 나은 예나 레이첼 진솔
BeatmapID:1436189
BeatmapSetID:679275

[Difficulty]
HPDrainRate:5
CircleSize:3.5
OverallDifficulty:5
ApproachRate:6
SliderMultiplier:2
SliderTickRate:1

[Events]
//Background and Video events
0,0,"bg.jpg",0,0
//Break Periods
2,27639,30918
//Storyboard Layer 0 (Background)
//Storyboard Layer 1 (Fail)
//Storyboard Layer 2 (Pass)
//Storyboard Layer 3 (Foreground)
//Storyboard Sound Samples

[TimingPoints]
270,566.037735849057,4,2,0,70,1,0
9326,-100,4,2,1,80,0,0
27439,-100,4,2,1,70,0,0
35930,-100,4,2,1,5,0,0
36496,-100,4,2,1,100,0,1
54468,-100,4,2,1,100,0,0
54609,-100,4,2,1,100,0,1
72581,-100,4,2,1,100,0,0

[Colours]
Combo1 : 61,158,58
Combo2 : 237,18,62
Combo3 : 82,44,233
Combo4 : 224,234,38
SliderBorder : 190,31,167
SliderTrackOverride : 236,196,233

[HitObjects]
208,120,9326,6,0,L|108:120,1,100,4|2,0:0|0:0,0:0:0:0:
68,92,9751,2,0,P|80:140|64:188,1,100,4|2,0:3|0:0,0:0:0:0:
36,228,10175,1,8,0:0:0:0:
92,312,10458,2,0,L|192:304,1,100,4|0,0:3|0:0,0:0:0:0:
224,264,10883,2,0,L|324:256,1,100,4|0,0:3|0:0,0:0:0:0:
364,224,11307,1,8,0:0:0:0:
284,160,11590,6,0,P|268:120|284:64,1,100,4|0,0:0|0:0,0:0:0:0:
328,44,12015,2,0,P|370:50|411:91,1,100,4|0,0:3|0:0,0:0:0:0:
432,136,12439,1,8,0:0:0:0:
416,236,12722,2,0,L|316:240,1,100,4|2,0:3|0:1,0:0:0:0:
256,320,13288,2,0,L|156:324,1,100,4|2,0:3|0:1,0:0:0:0:
76,264,13854,6,0,P|64:224|80:168,1,100,4|0,0:0|0:0,0:0:0:0:
124,148,14279,2,0,P|136:108|120:52,1,100,4|0,0:3|0:0,0:0:0:0:
92,12,14703,1,8,0:0:0:0:
192,20,14986,2,0,L|304:16,1,100,4|0,0:3|0:0,0:0:0:0:
336,40,15411,2,0,L|448:36,1,100,4|0,0:3|0:0,0:0:0:0:
480,60,15836,1,8,0:0:0:0:
428,144,16119,6,0,P|416:192|432:240,1,100,4|0,0:0|0:0,0:0:0:0:
480,256,16543,2,0,P|492:304|476:352,1,100,4|0,0:3|0:0,0:0:0:0:
436,380,16968,1,8,0:0:0:0:
340,348,17251,6,0,L|264:352,2,66.6666666666666,2|0|2,0:0|0:0|0:0,0:0:0:0:
384,300,17817,2,0,L|460:304,2,66.6666666666666,2|2|2,0:0|0:0|0:0,0:0:0:0:
340,252,18383,6,0,P|324:208|340:160,1,100,4|0,0:0|0:0,0:0:0:0:
384,136,18807,2,0,P|400:92|384:44,1,100,4|0,0:3|0:0,0:0:0:0:
344,12,19232,1,8,0:0:0:0:
256,60,19515,2,0,L|152:56,1,100,4|0,0:3|0:0,0:0:0:0:
112,32,19939,2,0,P|128:78|112:124,1,100,4|0,0:3|0:0,0:0:0:0:
84,164,20364,1,8,0:0:0:0:
32,248,20647,6,0,L|132:244,1,100,4|0,0:0|0:0,0:0:0:0:
168,212,21071,2,0,L|268:208,1,100,4|0,0:3|0:0,0:0:0:0:
304,172,21496,1,8,0:0:0:0:
224,112,21779,2,0,P|216:64|240:16,1,100,4|2,0:3|0:1,0:0:0:0:
317,78,22345,2,0,P|325:126|301:174,1,100,4|2,0:3|0:1,0:0:0:0:
220,224,22911,6,0,L|220:328,1,100,4|0,0:0|0:0,0:0:0:0:
188,360,23336,2,0,P|236:344|284:360,1,100,4|0,0:3|0:0,0:0:0:0:
320,328,23760,1,8,0:0:0:0:
392,260,24043,2,0,L|392:160,1,100,4|0,0:3|0:0,0:0:0:0:
408,112,24468,2,0,P|360:128|312:112,1,100,4|0,0:3|0:0,0:0:0:0:
272,84,24892,1,8,0:0:0:0:
192,28,25175,6,0,P|144:12|96:28,1,100,4|2,0:0|0:0,0:0:0:0:
60,60,25600,2,0,L|60:160,1,100,4|2,0:3|0:0,0:0:0:0:
20,192,26024,1,8,0:0:0:0:
100,252,26307,6,0,L|96:320,2,66.6666666666667,2|2|0,0:0|0:0|0:0,0:0:0:0:
148,204,26873,2,0,L|144:136,2,66.6666666666667,2|2|2,0:0|0:0|0:0,0:0:0:0:
208,232,27439,5,4,0:0:0:0:
208,232,31968,6,0,L|312:232,1,100,4|2,0:0|0:0,0:0:0:0:
348,264,32392,2,0,P|320:208|352:132,1,150,0|2,0:0|0:0,0:0:0:0:
416,56,33100,2,0,L|316:56,1,100,8|2,0:0|0:0,0:0:0:0:
276,28,33524,2,0,B|200:12|216:60|128:40,1,150,0|2,0:0|0:0,0:0:0:0:
256,192,34232,12,0,35930,0:0:0:0:
80,36,36496,6,0,P|64:80|80:128,1,100,4|8,0:0|0:0,0:0:0:0:
32,216,37062,2,0,P|76:232|124:216,1,100,4|8,0:3|0:0,0:0:0:0:
216,260,37628,2,0,P|232:216|216:168,1,100,4|8,0:3|0:0,0:0:0:0:
264,80,38194,2,0,P|220:64|172:80,1,100,4|8,0:3|0:0,0:0:0:0:
128,104,38619,6,0,P|84:120|36:104,1,100,2|4,0:0|0:3,0:0:0:0:
4,64,39043,2,0,L|4:164,1,100,4|4,0:0|0:3,0:0:0:0:
72,236,39609,1,8,0:0:0:0:
144,304,39892,2,0,P|192:320|236:304,1,100,4|0,0:3|0:0,0:0:0:0:
316,240,40458,2,0,L|368:240,2,50,2|2|2,0:0|0:0|0:0,0:0:0:0:
272,212,40883,6,0,P|252:172|272:120,1,100,4|4,0:3|0:3,0:0:0:0:
308,92,41307,2,0,P|328:52|308:0,2,100,4|0|8,0:0|0:0|0:0,0:0:0:0:
216,48,42156,2,0,L|116:48,1,100,4|8,0:3|0:0,0:0:0:0:
68,136,42722,2,0,L|168:136,1,100,4|0,0:3|0:0,0:0:0:0:
196,176,43147,6,0,L|296:176,1,100,2|4,0:0|0:3,0:0:0:0:
336,148,43571,2,0,P|320:192|340:240,2,100,4|4|8,0:0|0:3|0:0,0:0:0:0:
396,68,44420,2,0,L|424:24,2,50,4|2|2,0:3|0:0|0:0,0:0:0:0:
296,68,44986,2,0,L|324:24,2,50,2|0|2,0:0|0:0|0:0,0:0:0:0:
204,24,45553,6,0,P|188:68|204:116,1,100,4|8,0:0|0:0,0:0:0:0:
156,204,46119,2,0,P|200:220|248:204,1,100,4|8,0:3|0:0,0:0:0:0:
340,248,46685,2,0,P|356:204|340:156,1,100,4|8,0:3|0:0,0:0:0:0:
388,68,47251,2,0,P|344:52|296:68,1,100,4|8,0:3|0:0,0:0:0:0:
248,88,47675,6,0,P|204:104|156:88,1,100,2|2,0:0|0:0,0:0:0:0:
116,56,48100,2,0,L|116:160,1,100,4|4,0:0|0:3,0:0:0:0:
48,232,48666,1,8,0:0:0:0:
132,288,48949,2,0,P|176:304|228:288,1,100,4|8,0:3|0:0,0:0:0:0:
316,244,49515,2,0,L|368:244,2,50,0|2|2,0:0|0:0|0:0,0:0:0:0:
280,208,49939,6,0,B|260:164|260:164|280:116,1,100,4|4,0:3|0:3,0:0:0:0:
304,72,50364,2,0,L|204:72,1,100,4|4,0:0|0:3,0:0:0:0:
116,20,50930,1,8,0:0:0:0:
32,72,51213,2,0,P|12:120|28:164,1,100,4|8,0:3|0:0,0:0:0:0:
104,228,51779,2,0,P|124:276|108:320,1,100,4|8,0:3|0:0,0:0:0:0:
76,356,52203,6,0,L|176:352,1,100,4|4,0:3|0:3,0:0:0:0:
216,324,52628,2,0,L|316:320,1,100,4|4,0:0|0:3,0:0:0:0:
396,260,53194,1,8,0:0:0:0:
476,200,53477,2,0,L|500:148,2,50,2|2|8,0:0|0:0|0:0,0:0:0:0:
428,112,54043,2,0,L|456:68,2,50,2|0|8,0:0|0:0|0:0,0:0:0:0:
380,208,54609,6,0,P|336:224|288:208,1,100,4|8,0:0|0:0,0:0:0:0:
208,252,55175,2,0,P|192:208|208:160,1,100,4|8,0:3|0:0,0:0:0:0:
164,68,55741,2,0,P|208:52|256:68,1,100,4|8,0:3|0:0,0:0:0:0:
344,20,56307,2,0,P|360:64|344:112,1,100,2|2,0:0|0:0,0:0:0:0:
312,152,56732,6,0,P|296:196|312:244,1,100,4|4,0:3|0:3,0:0:0:0:
348,280,57156,1,4,0:0:0:0:
288,360,57439,2,0,L|184:360,1,100,4|8,0:3|0:0,0:0:0:0:
140,272,58005,2,0,L|36:272,1,100,4|8,0:3|0:0,0:0:0:0:
8,236,58430,1,2,0:0:0:0:
8,236,58571,2,0,P|-8:188|8:144,1,100,2|8,0:0|0:0,0:0:0:0:
76,68,59137,6,0,P|120:52|168:68,1,100,0|4,0:0|0:0,0:0:0:0:
256,20,59703,2,0,P|272:64|256:112,1,100,4|8,0:3|0:0,0:0:0:0:
300,204,60269,2,0,P|256:220|208:204,1,100,4|8,0:3|0:0,0:0:0:0:
120,252,60835,2,0,P|104:208|120:160,1,100,4|2,0:3|0:0,0:0:0:0:
160,128,61260,6,0,L|160:28,1,100,4|4,0:3|0:3,0:0:0:0:
208,12,61685,1,4,0:0:0:0:
284,76,61968,2,0,P|330:92|376:76,1,100,8|8,0:0|0:0,0:0:0:0:
468,40,62534,2,0,L|468:140,1,100,4|8,0:3|0:0,0:0:0:0:
384,192,63100,2,0,L|384:292,1,100,2|8,0:0|0:0,0:0:0:0:
292,332,63666,6,0,P|248:348|200:332,1,100,4|8,0:0|0:0,0:0:0:0:
112,380,64232,2,0,P|96:336|112:288,1,100,4|8,0:3|0:0,0:0:0:0:
68,196,64798,2,0,P|112:180|160:196,1,100,4|8,0:3|0:0,0:0:0:0:
248,148,65364,2,0,P|264:192|248:240,1,100,2|8,0:0|0:0,0:0:0:0:
220,284,65788,6,0,L|320:284,1,100,4|4,0:3|0:3,0:0:0:0:
364,264,66213,1,4,0:0:0:0:
348,164,66496,2,0,P|332:120|348:72,1,100,4|8,0:3|0:0,0:0:0:0:
436,20,67062,2,0,P|452:64|436:112,1,100,4|0,0:3|0:0,0:0:0:0:
348,71,67628,2,0,L|248:71,1,100,2|8,0:0|0:0,0:0:0:0:
156,28,68194,6,0,P|140:72|156:120,1,100,0|4,0:0|0:0,0:0:0:0:
108,208,68760,2,0,P|152:224|200:208,1,100,4|8,0:3|0:0,0:0:0:0:
292,252,69326,2,0,P|308:208|292:160,1,100,4|8,0:3|0:0,0:0:0:0:
340,72,69892,2,0,P|296:56|248:72,1,100,2|8,0:0|0:0,0:0:0:0:
208,104,70317,6,0,P|164:120|116:104,1,100,4|4,0:3|0:3,0:0:0:0:
76,72,70741,1,4,0:0:0:0:
24,156,71024,2,0,L|24:256,1,100,8|8,0:0|0:0,0:0:0:0:
112,308,71590,2,0,L|112:208,1,100,4|8,0:3|0:0,0:0:0:0:
176,132,72156,2,0,L|176:80,2,50,2|2|8,0:0|0:0|0:0,0:0:0:0:
216,164,72581,5,2,0:0:0:0:
