osu file format v14

[General]
AudioFilename: audio.mp3
AudioLeadIn: 0
PreviewTime: 41113
Countdown: 1
SampleSet: Normal
StackLeniency: 0.7
Mode: 0
LetterboxInBreaks: 0
WidescreenStoryboard: 0

[Editor]
DistanceSpacing: 2.7
BeatDivisor: 8
GridSize: 8
TimelineZoom: 1.6

[Metadata]
Title:Karafurumirakurudisukabari (Yunomi Remix)
TitleUnicode:カラフルミラクルディスカバリー (Yunomi Remix)
Artist:APPARE! Harajuku
ArtistUnicode:APPARE! Harajuku
Creator:Kyuremo
Version:Colourful Miracle Discovery
Source:
Tags:
BeatmapID:2067603
BeatmapSetID:988397

[Difficulty]
HPDrainRate:5.5
CircleSize:4
OverallDifficulty:8.8
ApproachRate:9.5
SliderMultiplier:2
SliderTickRate:1

[Events]
//Background and Video events
0,0,"anime-chibi-girls-party-cakes768.jpeg",0,0
//Break Periods
2,41312,42823
2,98912,100423
2,125313,135373
//Storyboard Layer 0 (Background)
//Storyboard Layer 1 (Fail)
//Storyboard Layer 2 (Pass)
//Storyboard Layer 3 (Foreground)
//Storyboard Layer 4 (Overlay)
//Storyboard Sound Samples

[TimingPoints]
313,600,4,1,0,70,1,0
313,-133.333333333333,4,1,0,70,0,0
3313,-100,4,1,0,70,0,0
14713,-500,4,1,0,70,0,0
15313,-100,4,1,0,70,0,0
28813,-80,4,1,0,70,0,0
29113,-66.6666666666667,4,1,0,70,0,0
29413,-100,4,1,0,70,0,0
30913,-50,4,1,0,70,0,0
31213,-66.6666666666667,4,1,0,70,0,0
31513,-100,4,1,0,70,0,0
36313,-80,4,1,0,70,0,0
38713,-66.6666666666667,4,1,0,70,0,0
41113,-100,4,1,0,70,0,0
43513,-80,4,1,0,70,0,1
45763,-66.6666666666667,4,1,0,70,0,1
48163,-50,4,1,0,70,0,1
49363,-40,4,1,0,70,0,1
50563,-33.3333333333333,4,1,0,70,0,1
51763,-100,4,1,0,70,0,1
51913,-50,4,1,0,70,0,1
52513,-100,4,1,0,70,0,1
52813,-133.333333333333,4,1,0,70,0,1
52963,-40,4,1,0,70,0,1
57763,-33.3333333333333,4,1,0,70,0,1
61513,-50,4,1,0,70,0,1
61813,-57.1428571428571,4,1,0,70,0,1
62113,-66.6666666666667,4,1,0,70,0,1
62413,-100,4,1,0,70,0,1
62713,-133.333333333333,4,1,0,70,0,0
67513,-100,4,1,0,70,0,0
69913,-133.333333333333,4,1,0,70,0,0
72313,-100,4,1,0,70,0,0
77113,-83.3333333333333,4,1,0,70,0,0
81913,-100,4,1,0,70,0,0
86713,-66.6666666666667,4,1,0,70,0,0
93913,-50,4,1,0,70,0,0
96313,-66.6666666666667,4,1,0,70,0,0
97513,-44.4444444444445,4,1,0,70,0,0
98713,-80,4,1,0,70,0,0
101113,-66.6666666666667,4,1,0,70,0,1
105913,-57.1428571428571,4,1,0,70,0,1
110713,-50,4,1,0,70,0,1
115513,-44.4444444444445,4,1,0,70,0,1
119113,-66.6666666666667,4,1,0,70,0,1
119413,-80,4,1,0,70,0,1
119713,-100,4,1,0,70,0,1
120013,-133.333333333333,4,1,0,70,0,1
120313,-50,4,1,0,70,0,1
123913,-66.6666666666667,4,1,0,70,0,1
125113,-133.333333333333,4,1,0,70,0,0
137113,-57.1428571428571,4,1,0,70,0,0
139513,-50,4,1,0,70,0,0
141913,-66.6666666666667,4,1,0,70,0,0
144313,-100,4,1,0,70,0,0
149113,-66.6666666666667,4,1,0,70,0,0
153913,-57.1428571428571,4,1,0,70,0,0
154513,-133.333333333333,4,1,0,70,0,0
155113,-50,4,1,0,20,0,0
155413,-66.6666666666667,4,1,0,20,0,0
155713,-100,4,1,0,20,0,0
156013,-133.333333333333,4,1,0,70,0,0
156313,-66.6666666666667,4,1,0,70,0,1
161113,-50,4,1,0,70,0,1
165913,-40,4,1,0,70,0,1
170713,-36.3636363636364,4,1,0,70,0,1
174313,-57.1428571428571,4,1,0,70,0,1
175513,-50,4,1,0,70,0,0
183763,-100,4,1,0,70,0,0
185113,-40,4,1,0,70,0,1
191263,-50,4,1,0,70,0,1
191413,-40,4,1,0,70,0,1
194713,-66.6666666666667,4,1,0,70,0,0
199513,-100,4,1,0,40,0,0
203113,-133.333333333333,4,1,0,40,0,0

[Colours]
Combo1 : 255,255,0
Combo2 : 100,200,200
Combo3 : 255,83,83

[HitObjects]
88,80,313,6,0,L|101:162,1,75.0000028610231
120,280,763,2,0,L|128:328,1,37.5000014305115,4|0,0:0|0:0,0:0:0:0:
277,130,1213,1,0,0:0:0:0:
277,130,1363,1,0,0:0:0:0:
277,130,1513,2,0,L|280:200,1,56.2500021457673
280,344,1963,2,0,L|280:304,1,37.5000014305115,4|0,0:0|0:0,0:0:0:0:
384,248,3313,6,0,L|384:320,1,50
416,128,3613,2,0,L|480:160,1,50
344,8,3913,2,0,L|400:8,1,50
416,128,4213,2,0,L|480:160,1,50
384,248,4513,2,0,L|384:312,1,50
296,56,5113,6,0,P|248:112|216:120,1,100
261,152,5563,2,0,L|210:105,1,50,4|0,0:0|0:0,0:0:0:0:
120,32,6013,1,0,0:0:0:0:
120,32,6163,1,0,0:0:0:0:
120,32,6313,2,0,L|96:120,1,75
160,208,6763,2,0,L|104:216,1,50,4|0,0:0|0:0,0:0:0:0:
72,344,7513,2,0,L|80:302,4,25
176,232,7963,1,0,0:0:0:0:
248,328,8113,5,4,0:0:0:0:
288,192,8263,2,0,L|304:232,2,25
360,368,8563,2,0,L|360:304,1,50
432,240,8863,2,0,L|440:176,1,50
352,160,9163,2,0,L|328:96,1,50,0|4,0:0|0:0,0:0:0:0:
64,48,9913,5,0,0:0:0:0:
192,88,10213,1,0,0:0:0:0:
88,176,10513,1,0,0:0:0:0:
141,251,10813,2,0,L|140:360,1,100
200,136,11413,2,0,L|272:136,1,50
256,216,11638,1,0,0:0:0:0:
256,216,11713,2,0,L|312:256,1,50
200,280,12013,2,0,L|200:384,1,100
320,288,12613,5,0,0:0:0:0:
424,224,12913,1,0,0:0:0:0:
431,120,13213,2,0,L|480:24,1,100,4|0,0:0|0:0,0:0:0:0:
474,29,13813,1,0,0:0:0:0:
312,184,14113,2,0,L|288:128,1,50
250,36,14413,1,0,0:0:0:0:
160,24,14713,6,0,L|152:56,1,30
144,144,15313,1,0,0:0:0:0:
183,172,15463,1,0,0:0:0:0:
201,219,15613,1,0,0:0:0:0:
191,267,15763,1,0,0:0:0:0:
201,219,15913,2,0,P|152:313|66:323,1,200,4|0,0:0|0:0,0:0:0:0:
88,200,16813,6,0,L|80:128,1,50
192,64,17113,2,0,L|184:168,1,100
288,112,17563,2,0,L|304:8,1,100
416,80,18163,2,0,L|384:184,1,100
328,296,18613,2,0,L|304:232,1,50
464,224,18913,2,0,L|464:336,1,100
80,328,19813,5,0,0:0:0:0:
80,328,20113,2,0,L|112:264,1,50
216,176,20413,2,0,L|216:240,1,50
96,168,20713,2,0,L|96:96,1,50,4|0,0:0|0:0,0:0:0:0:
104,0,21013,1,0,0:0:0:0:
104,0,21163,1,0,0:0:0:0:
160,128,21313,1,0,0:0:0:0:
240,48,21463,1,0,0:0:0:0:
292,160,21613,2,0,L|180:160,1,100
432,336,22213,5,0,0:0:0:0:
408,224,22513,2,0,L|320:280,1,100
256,192,22963,1,0,0:0:0:0:
200,280,23113,2,0,L|232:328,1,50,4|0,0:0|0:0,0:0:0:0:
160,192,23413,1,0,0:0:0:0:
104,288,23563,1,0,0:0:0:0:
56,96,23713,2,0,L|96:152,1,50
32,336,24013,2,0,L|24:224,1,100,0|4,0:0|0:0,0:0:0:0:
80,48,24913,6,0,L|88:120,1,50
176,184,25213,2,0,L|184:120,1,50
296,40,25513,2,0,P|320:104|248:64,1,200,4|0,0:0|0:0,0:0:0:0:
344,184,26413,1,0,0:0:0:0:
480,72,26713,2,0,L|456:176,1,100
416,336,27163,1,0,0:0:0:0:
416,336,27463,2,0,L|376:232,1,100
312,64,28063,1,0,0:0:0:0:
272,200,28513,6,0,P|248:208|280:232,1,75
240,152,28813,2,0,P|208:168|248:192,1,93.75
208,104,29113,2,0,P|168:128|232:168,1,150.000005722046,4|0,0:0|0:0,0:0:0:0:
88,256,29563,1,0,0:0:0:0:
88,256,29713,2,0,L|72:200,1,50,4|0,0:0|0:0,0:0:0:0:
192,200,30163,2,0,L|192:240,1,25
88,168,30313,2,0,L|88:64,1,100,4|0,0:0|0:0,0:0:0:0:
280,16,30913,6,0,P|296:96|280:168,1,150,4|0,0:0|0:0,0:0:0:0:
360,32,31213,2,0,P|368:96|360:160,1,112.500004291535
432,40,31513,2,0,P|440:96|432:152,1,100,4|0,0:0|0:0,0:0:0:0:
431,359,31963,2,0,L|399:258,1,100,4|0,0:0|0:0,0:0:0:0:
320,240,32563,2,0,L|336:280,2,25
288,368,32863,1,0,0:0:0:0:
288,368,33013,2,0,L|248:264,1,100,0|4,0:0|0:0,0:0:0:0:
224,192,33613,1,4,0:0:0:0:
72,280,33913,5,4,0:0:0:0:
72,280,34213,2,0,L|160:338,1,100,0|4,0:0|0:0,0:0:0:0:
192,240,34813,2,0,L|152:168,1,75,4|0,0:0|0:0,0:0:0:0:
56,192,35113,2,0,L|64:136,1,50,4|0,0:0|0:0,0:0:0:0:
120,48,35338,2,0,L|144:136,1,75,0|4,0:0|0:0,0:0:0:0:
216,176,35713,2,0,L|248:80,1,100,4|0,0:0|0:0,0:0:0:0:
96,320,36313,5,4,0:0:0:0:
232,288,36463,1,0,0:0:0:0:
242,266,36538,1,0,0:0:0:0:
253,245,36613,1,4,0:0:0:0:
360,184,36763,2,0,L|360:240,2,31.25,0|0|4,0:0|0:0|0:0,0:0:0:0:
416,328,37063,1,0,0:0:0:0:
472,232,37213,2,0,L|496:168,1,62.5,4|0,0:0|0:0,0:0:0:0:
408,32,37513,1,4,0:0:0:0:
456,120,37663,1,0,0:0:0:0:
335,155,37813,2,0,L|335:235,1,62.5,4|0,0:0|0:0,0:0:0:0:
269,278,38113,2,0,P|334:265|333:214,1,125,4|4,0:0|0:0,0:0:0:0:
192,40,38713,6,0,L|152:120,1,75.0000028610231,4|0,0:0|0:0,0:0:0:0:
72,224,39013,1,0,0:0:0:0:
264,176,39163,1,0,0:0:0:0:
120,336,39313,5,4,0:0:0:0:
152,152,39463,1,0,0:0:0:0:
216,328,39613,1,0,0:0:0:0:
48,184,39763,1,0,0:0:0:0:
192,120,39913,1,4,0:0:0:0:
219,124,39988,1,0,0:0:0:0:
244,135,40063,1,0,0:0:0:0:
266,153,40138,1,0,0:0:0:0:
282,176,40213,1,4,0:0:0:0:
291,202,40288,1,0,0:0:0:0:
292,230,40363,1,0,0:0:0:0:
286,257,40438,1,0,0:0:0:0:
273,281,40513,1,4,0:0:0:0:
253,301,40588,1,0,0:0:0:0:
229,315,40663,1,0,0:0:0:0:
202,322,40738,1,0,0:0:0:0:
104,312,40813,2,0,L|120:248,1,37.5000014305115,4|0,0:0|0:0,0:0:0:0:
80,296,40963,2,0,L|104:200,1,75.0000028610231,0|4,0:0|0:0,0:0:0:0:
399,297,43363,5,0,0:0:0:0:
399,297,43513,5,0,0:0:0:0:
383,84,43663,1,0,0:0:0:0:
270,280,43813,1,0,0:0:0:0:
460,125,43963,1,0,0:0:0:0:
344,186,44113,2,0,L|416:204,2,62.5
168,152,44563,6,0,L|107:136,1,62.5
251,262,44863,1,0,0:0:0:0:
88,96,45013,1,0,0:0:0:0:
99,257,45163,1,0,0:0:0:0:
225,101,45313,2,0,L|226:29,2,62.5,4|0|0,0:0|0:0|0:0,0:0:0:0:
398,76,45763,6,0,L|397:168,1,75.0000028610231,0|4,0:0|0:0,0:0:0:0:
395,343,46063,1,0,0:0:0:0:
288,224,46213,1,0,0:0:0:0:
456,215,46363,1,0,0:0:0:0:
211,344,46513,2,0,L|210:251,1,75.0000028610231,4|0,0:0|0:0,0:0:0:0:
288,104,46813,2,0,L|289:186,1,75.0000028610231
152,256,47113,6,0,L|152:192,1,37.5000014305115,4|0,0:0|0:0,0:0:0:0:
152,24,47263,2,0,L|152:64,1,37.5000014305115
240,48,47413,2,0,L|224:96,1,37.5000014305115
80,344,47563,2,0,L|80:284,1,37.5000014305115
80,24,47713,2,0,L|80:184,1,150.000005722046,4|0,0:0|0:0,0:0:0:0:
176,48,48163,6,0,L|200:152,1,100,0|4,0:0|0:0,0:0:0:0:
235,276,48463,2,0,L|236:205,1,50
280,48,48613,2,0,L|280:112,1,50
120,280,48763,2,0,L|152:208,1,50
400,112,48913,2,0,L|352:160,1,50,4|0,0:0|0:0,0:0:0:0:
72,152,49063,2,0,L|184:152,1,100
336,184,49363,6,0,L|336:328,1,125,0|4,0:0|0:0,0:0:0:0:
256,40,49663,2,0,L|256:112,1,62.5
256,272,49813,2,0,L|256:209,1,62.5
400,8,49963,2,0,L|400:72,1,62.5
400,272,50113,2,0,L|400:334,1,62.5,4|0,0:0|0:0,0:0:0:0:
309,154,50263,2,0,L|312:298,1,125
219,187,50563,6,0,L|218:345,1,150.000005722046,0|4,0:0|0:0,0:0:0:0:
227,37,50863,1,0,0:0:0:0:
393,224,51013,1,0,0:0:0:0:
309,61,51163,2,0,L|322:148,2,75.0000028610231
338,300,51463,1,0,0:0:0:0:
165,88,51613,1,0,0:0:0:0:
248,144,51763,1,0,0:0:0:0:
233,173,51838,1,0,0:0:0:0:
218,203,51913,5,4,0:0:0:0:
128,352,52063,1,0,0:0:0:0:
128,352,52213,2,0,L|128:232,1,100,4|0,0:0|0:0,0:0:0:0:
56,96,52513,2,0,L|56:184,1,75,4|0,0:0|0:0,0:0:0:0:
152,216,52813,2,0,L|152:168,1,37.5000014305115,4|0,0:0|0:0,0:0:0:0:
208,32,53113,5,4,0:0:0:0:
208,32,53263,1,0,0:1:0:0:
224,248,53413,1,0,0:1:0:0:
112,144,53563,1,0,0:1:0:0:
312,152,53713,2,0,B|312:24,2,125,4|0|0,0:0|0:0|0:0,0:0:0:0:
464,256,54163,6,0,L|336:328,1,125,0|4,0:0|0:0,0:0:0:0:
216,152,54463,1,0,0:0:0:0:
232,336,54613,1,0,0:0:0:0:
112,264,54763,1,0,0:0:0:0:
112,48,54913,2,0,L|112:176,2,125,4|0|0,0:0|0:0|0:0,0:0:0:0:
208,232,55363,6,0,L|208:96,1,125,0|4,0:0|0:0,0:0:0:0:
312,144,55663,1,0,0:0:0:0:
480,48,55813,1,0,0:0:0:0:
336,232,55963,1,0,0:0:0:0:
392,48,56113,1,4,0:0:0:0:
480,192,56263,1,0,0:0:0:0:
337,127,56413,1,0,0:0:0:0:
379,284,56563,1,0,0:0:0:0:
369,184,56713,6,0,P|337:186|307:193,1,62.5,4|0,0:0|0:0,0:0:0:0:
285,211,56863,2,0,P|253:213|223:220,1,62.5
202,239,57014,2,0,P|170:240|141:249,1,62.5
120,368,57163,2,0,L|24:256,1,125,0|4,0:0|0:0,0:0:0:0:
112,128,57463,1,0,0:0:0:0:
112,168,57613,1,0,0:0:0:0:
192,32,57763,6,0,P|248:96|224:184,1,150.000005722046,0|4,0:0|0:0,0:0:0:0:
296,240,58063,2,0,P|328:216|336:176,1,75.0000028610231
400,224,58213,2,0,P|432:200|440:160,1,75.0000028610231
336,48,58363,2,0,P|368:88|424:88,1,75.0000028610231
264,52,58513,2,0,P|296:92|392:92,2,150.000005722046,4|0|0,0:0|0:0|0:0,0:0:0:0:
376,328,58963,6,0,P|360:232|320:176,1,150.000005722046,0|4,0:0|0:0,0:0:0:0:
171,75,59263,1,0,0:0:0:0:
204,209,59413,1,0,0:0:0:0:
291,303,59563,2,0,P|307:223|291:151,2,150.000005722046,0|4|0,0:0|0:0|0:0,0:0:0:0:
224,232,60013,1,0,0:0:0:0:
161,32,60163,6,0,L|201:186,1,150.000005722046,0|4,0:0|0:0,0:0:0:0:
314,276,60463,2,0,L|290:198,1,75.0000028610231
249,80,60613,2,0,L|225:2,1,75.0000028610231,4|0,0:0|0:0,0:0:0:0:
40,165,60763,2,0,L|130:165,1,75.0000028610231
381,168,60913,2,0,L|456:168,1,75.0000028610231,4|0,0:0|0:0,0:0:0:0:
115,165,61063,2,0,L|189:164,1,75.0000028610231
314,276,61213,2,0,L|385:129,1,150.000005722046,4|0,0:0|0:0,0:0:0:0:
457,136,61513,6,0,L|489:72,2,50,4|0|0,0:0|0:0|0:0,0:0:0:0:
411,265,61813,2,0,L|347:289,2,43.7500004172325,4|0|0,0:0|0:0|0:0,0:0:0:0:
346,167,62113,2,0,L|338:111,2,37.5000014305115,4|0|0,0:0|0:0|0:0,0:0:0:0:
267,257,62413,2,0,L|243:289,2,25,4|0|0,0:0|0:0|0:0,0:0:0:0:
106,125,62713,2,0,L|95:212,1,75.0000028610231
160,254,63163,1,0,0:0:0:0:
161,243,63313,6,0,L|172:160,1,75.0000028610231
192,48,63763,1,0,0:0:0:0:
280,112,63913,2,0,L|264:192,1,75.0000028610231
248,272,64363,1,0,0:0:0:0:
344,240,64513,6,0,L|360:160,1,75.0000028610231
400,64,64963,2,0,L|392:96,1,18.7500007152558
464,104,65113,2,0,L|448:184,1,75.0000028610231
304,216,65713,5,4,0:0:0:0:
336,312,65863,1,0,0:0:0:0:
416,248,66013,1,4,0:0:0:0:
440,160,66163,2,0,L|456:96,1,56.2500021457673
344,32,66463,1,4,0:0:0:0:
344,32,66613,1,0,0:0:0:0:
320,192,66763,1,0,0:0:0:0:
320,192,66913,2,0,L|352:128,1,56.2500021457673,4|0,0:0|0:0,0:0:0:0:
272,80,67213,2,0,L|272:48,4,18.7500007152558
92,107,67813,5,0,0:0:0:0:
36,177,67963,1,0,0:0:0:0:
31,313,68113,2,0,L|40:241,2,50
162,226,68563,1,0,0:0:0:0:
145,279,68713,1,0,0:0:0:0:
226,355,69013,2,0,L|259:256,1,100
344,197,69463,2,0,L|345:262,1,50
488,359,69913,5,0,0:0:0:0:
430,143,70213,1,0,0:0:0:0:
418,192,70363,1,0,0:0:0:0:
356,269,70513,2,0,L|398:301,2,37.5000014305115
486,181,71113,1,0,0:0:0:0:
408,56,71413,1,0,0:0:0:0:
315,140,71563,1,0,0:0:0:0:
388,249,71713,2,0,L|403:199,1,37.5000014305115
319,39,72013,2,0,L|316:130,1,75.0000028610231
240,224,72763,5,0,0:0:0:0:
160,80,72913,1,0,0:0:0:0:
80,168,73063,1,0,0:0:0:0:
157,155,73213,2,0,P|152:192|143:219,2,50
63,166,73813,2,0,L|52:111,1,50
123,265,74113,2,0,P|109:324|89:360,1,100
13,255,74563,1,0,0:0:0:0:
112,148,74713,1,0,0:0:0:0:
209,238,75013,2,0,L|230:300,1,50
296,354,75313,5,0,0:0:0:0:
296,354,75463,2,0,P|314:320|316:256,1,100
386,195,75913,2,0,L|394:235,1,25
451,315,76063,2,0,L|465:252,1,50
346,264,76363,1,0,0:0:0:0:
496,176,76513,2,0,L|391:168,1,100
272,160,76963,1,0,0:0:0:0:
344,80,77113,1,0,0:0:0:0:
58,333,77413,6,0,L|88:270,2,59.9999981689454
176,296,78013,1,0,0:0:0:0:
160,208,78163,1,0,0:0:0:0:
240,232,78313,1,0,0:0:0:0:
192,248,78613,1,0,0:0:0:0:
334,318,78763,2,0,L|261:354,1,59.9999981689454
272,206,79063,2,0,P|296:167|297:166,1,29.9999990844727
329,107,79213,2,0,P|363:189|350:240,1,119.999996337891
158,110,79813,6,0,L|194:55,2,59.9999981689454
72,152,80413,2,0,P|72:200|104:248,1,89.9999972534181
168,304,80713,2,0,P|184:240|168:184,1,119.999996337891
96,240,81163,1,0,0:0:0:0:
196,322,81313,2,0,L|176:284,1,29.9999990844727
285,266,81463,2,0,L|306:234,1,29.9999990844727
344,155,81613,2,0,P|376:218|382:276,1,119.999996337891
365,360,82213,1,0,0:0:0:0:
474,266,82363,1,0,0:0:0:0:
474,266,82513,6,0,L|456:208,1,50
424,96,82813,2,0,L|408:136,1,25
368,208,82963,2,0,L|336:152,1,50
304,40,83413,1,0,0:0:0:0:
216,48,83563,2,0,L|232:80,1,25
296,128,83713,2,0,P|224:152|208:144,1,100
112,64,84313,6,0,L|88:32,1,25
56,120,84463,2,0,L|24:120,1,25
64,208,84613,2,0,L|32:232,1,25
120,280,84763,2,0,L|112:320,1,25
208,328,84913,2,0,L|224:296,1,25
264,176,85063,2,0,L|240:192,1,25
304,360,85213,2,0,L|344:336,1,25
408,184,85363,2,0,L|368:200,2,25
440,328,85663,2,0,B|440:264,1,50
440,256,85888,1,0,0:0:0:0:
440,256,85963,1,0,0:0:0:0:
256,64,86113,5,0,0:0:0:0:
160,80,86263,1,0,0:0:0:0:
80,144,86413,2,0,P|48:184|80:208,1,100
256,176,86863,1,0,0:0:0:0:
221,189,86938,1,0,0:0:0:0:
186,203,87013,1,0,0:0:0:0:
88,304,87163,1,0,0:0:0:0:
176,352,87313,6,0,L|184:304,1,37.5000014305115
136,160,87463,2,0,L|136:248,1,75.0000028610231
240,184,87763,2,0,L|240:104,1,75.0000028610231
304,24,88063,2,0,L|296:64,2,37.5000014305115
352,184,88363,1,0,0:0:0:0:
464,72,88513,6,0,P|488:128|480:192,1,112.500004291535
392,117,88813,2,0,P|456:149|496:197,1,112.500004291535
483,178,89113,1,0,0:0:0:0:
464,304,89263,1,0,0:0:0:0:
443,272,89338,1,0,0:0:0:0:
422,241,89413,1,0,0:0:0:0:
304,200,89563,1,0,0:0:0:0:
304,200,89713,2,0,L|288:288,1,75.0000028610231
272,376,89938,1,0,0:0:0:0:
272,376,90013,1,0,0:0:0:0:
160,280,90163,6,0,P|152:232|160:200,1,75.0000028610231
216,72,90463,1,0,0:0:0:0:
112,32,90613,2,0,P|72:80|64:112,2,75.0000028610231
200,120,91213,1,0,0:0:0:0:
80,232,91513,6,0,P|144:272|184:264,1,112.500004291535
224,192,91813,2,0,L|264:272,1,75.0000028610231
344,352,92113,2,0,P|368:296|344:232,1,112.500004291535
384,144,92413,2,0,L|456:248,1,112.500004291535
384,344,92713,2,0,L|360:256,1,75.0000028610231
288,184,92938,2,0,P|272:232|272:264,1,75.0000028610231
384,224,93163,2,0,L|400:176,1,37.5000014305115
432,96,93313,1,0,0:0:0:0:
256,168,93613,5,0,0:0:0:0:
240,40,93913,2,0,L|136:72,1,100
16,112,94138,1,0,0:0:0:0:
16,112,94213,1,0,0:0:0:0:
136,280,94363,2,0,L|152:168,1,100
176,64,94663,1,0,0:0:0:0:
256,160,94813,2,0,P|264:224|248:264,1,100
192,360,95038,1,0,0:0:0:0:
192,360,95113,1,0,0:0:0:0:
48,272,95263,2,0,P|96:240|144:240,1,100
288,248,95563,1,0,0:0:0:0:
128,184,95713,6,0,P|152:248|184:280,1,100
320,360,96013,2,0,L|336:296,1,50
384,192,96163,2,0,P|408:256|408:312,1,100
344,344,96388,1,0,0:0:0:0:
323,312,96463,1,0,0:0:0:0:
306,279,96538,1,0,0:0:0:0:
295,243,96613,1,0,0:0:0:0:
288,208,96688,1,0,0:0:0:0:
271,175,96763,1,0,0:0:0:0:
239,155,96838,1,0,0:0:0:0:
202,153,96913,1,0,0:0:0:0:
170,171,96988,1,0,0:0:0:0:
149,202,97063,1,0,0:0:0:0:
145,239,97138,1,0,0:0:0:0:
157,274,97213,1,0,0:0:0:0:
184,299,97288,1,0,0:0:0:0:
220,310,97363,1,0,0:0:0:0:
256,304,97438,1,0,0:0:0:0:
312,272,97513,6,0,L|304:336,7,56.2500021457673
384,288,98113,2,0,L|392:224,8,56.2500021457673
368,152,100963,6,0,L|352:224,1,62.5
288,104,101263,2,0,P|320:64|336:16,1,75.0000028610231
208,192,101563,2,0,L|192:240,1,37.5000014305115
208,80,101713,2,0,L|216:40,1,37.5000014305115
80,184,101863,2,0,L|64:96,1,75.0000028610231
144,280,102163,6,0,L|203:214,1,75.0000028610231
312,248,102463,2,0,L|288:277,1,37.5000014305115
448,224,102613,2,0,L|459:188,1,37.5000014305115
352,312,102763,2,0,L|352:352,1,37.5000014305115
392,168,102913,2,0,L|392:112,1,37.5000014305115
432,64,103063,2,0,P|376:56|336:80,1,75.0000028610231
240,208,103363,5,0,0:0:0:0:
240,208,103513,2,0,P|288:200|320:176,1,75.0000028610231
328,88,103813,2,0,L|288:104,1,37.5000014305115
208,48,103963,2,0,L|264:24,1,37.5000014305115
184,144,104113,2,0,L|184:184,1,37.5000014305115
72,128,104263,2,0,L|72:88,1,37.5000014305115
248,128,104413,2,0,L|256:176,1,37.5000014305115
112,256,104563,2,0,L|105:219,1,37.5000014305115
288,216,104713,2,0,L|296:272,1,37.5000014305115
192,344,104863,2,0,L|186:306,1,37.5000014305115
371,264,105013,2,0,L|377:302,1,37.5000014305115
464,341,105163,2,0,L|462:285,1,37.5000014305115
392,144,105313,2,0,L|400:240,2,75.0000028610231
336,40,105763,5,0,0:0:0:0:
336,40,105913,2,0,L|304:128,2,87.500000834465
352,264,106363,2,0,L|336:208,1,43.7500004172325
198,79,106513,2,0,L|210:121,1,43.7500004172325
289,356,106663,2,0,L|253:253,1,87.500000834465
240,176,106963,5,0,0:0:0:0:
240,176,107113,2,0,L|200:264,2,87.500000834465
64,264,107563,2,0,L|112:264,1,43.7500004172325
387,264,107713,2,0,L|339:264,1,43.7500004172325
27,267,107863,2,0,L|131:267,1,87.500000834465
383,351,108163,6,0,L|387:263,1,87.500000834465
316,8,108463,2,0,L|314:60,1,43.7500004172325
288,320,108613,2,0,L|320:232,1,87.500000834465
400,32,108838,1,0,0:0:0:0:
400,32,108913,1,0,0:0:0:0:
404,298,109063,2,0,L|404:222,1,43.7500004172325
327,61,109213,2,0,L|326:151,1,87.500000834465
326,314,109438,1,0,0:0:0:0:
326,314,109513,5,0,0:0:0:0:
266,121,109663,1,0,0:0:0:0:
266,121,109813,2,0,P|232:176|248:216,1,87.500000834465
263,31,110113,2,0,L|185:89,1,87.500000834465
195,228,110413,2,0,P|248:192|174:180,1,175.00000166893
56,144,110863,6,0,L|120:64,2,100
112,336,111313,1,0,0:0:0:0:
208,128,111463,2,0,L|224:256,1,100
312,352,111763,1,0,0:0:0:0:
312,352,111913,6,0,L|336:240,1,100
280,152,112213,1,0,0:0:0:0:
191,256,112363,1,0,0:0:0:0:
193,20,112513,2,0,L|193:70,1,50
192,320,112663,2,0,L|192:207,1,100
193,99,112963,5,0,0:0:0:0:
464,56,113113,2,0,L|360:112,1,100
160,232,113413,1,0,0:0:0:0:
376,328,113563,1,0,0:0:0:0:
360,24,113713,1,0,0:0:0:0:
446,196,114013,5,0,0:0:0:0:
342,289,114163,1,0,0:0:0:0:
256,160,114313,2,0,L|296:112,1,50
152,80,114463,2,0,L|152:24,1,50
28,162,114613,2,0,L|48:208,1,50
240,258,114763,2,0,L|256:154,1,100
183,57,115063,1,0,0:0:0:0:
157,304,115213,2,0,L|131:203,1,100
208,120,115513,6,0,L|144:16,2,112.500004291535
304,64,115963,1,0,0:0:0:0:
448,288,116113,1,0,0:0:0:0:
398,8,116263,1,0,0:0:0:0:
400,127,116413,1,0,0:0:0:0:
472,208,116563,6,0,L|352:272,2,112.500004291535
312,170,117013,1,0,0:0:0:0:
136,322,117163,1,0,0:0:0:0:
225,84,117313,1,0,0:0:0:0:
50,232,117463,2,0,L|143:152,1,112.500004291535
384,328,117763,5,0,0:0:0:0:
384,328,117913,2,0,L|386:214,1,112.500004291535
390,116,118213,2,0,L|326:116,1,56.2500021457673
306,37,118363,2,0,L|258:85,1,56.2500021457673
122,172,118513,2,0,L|138:236,1,56.2500021457673
101,289,118663,2,0,L|170:306,1,56.2500021457673
360,319,118813,2,0,L|400:263,1,56.2500021457673
482,231,118963,2,0,L|440:176,1,56.2500021457673
312,64,119113,6,0,L|296:112,2,37.5000014305115
328,288,119413,2,0,L|312:248,2,31.25
224,160,119713,2,0,L|192:184,2,25
136,240,120013,2,0,L|160:240,2,18.7500007152558
28,147,120313,6,0,P|104:40|215:142,1,300
280,208,120913,2,0,L|310:7,1,200
445,357,121363,1,0,0:0:0:0:
456,200,121513,2,0,L|368:264,1,100
288,176,121738,2,0,P|240:224|279:291,1,150
202,340,122113,2,0,L|154:236,1,100
48,160,122413,5,0,0:0:0:0:
56,120,122563,1,0,0:0:0:0:
96,56,122713,1,0,0:0:0:0:
192,224,122863,1,0,0:0:0:0:
336,24,123013,1,0,0:0:0:0:
328,256,123163,2,0,L|328:192,2,50
464,80,123463,1,0,0:0:0:0:
448,256,123613,1,0,0:0:0:0:
328,256,123763,2,0,L|328:320,2,50
224,112,124063,1,0,0:0:0:0:
224,112,124213,2,0,L|224:288,1,150.000005722046
134,320,124738,1,0,0:0:0:0:
129,282,124813,1,0,0:0:0:0:
125,245,124888,2,0,B|108:127,1,112.500004291535
344,88,135913,6,0,L|384:88,1,37.5000014305115
320,200,136213,2,0,L|328:240,1,37.5000014305115
216,264,136513,2,0,L|200:312,1,37.5000014305115
104,224,136813,2,0,L|56:248,1,37.5000014305115
81,86,137113,6,0,L|177:74,1,87.500000834465
400,40,137338,1,0,0:0:0:0:
400,40,137413,1,0,0:0:0:0:
488,128,137563,2,0,L|432:232,1,87.500000834465
360,328,137863,2,0,L|352:272,1,43.7500004172325
280,288,138013,2,0,L|264:184,1,87.500000834465
240,24,138238,1,0,0:0:0:0:
240,24,138313,1,0,0:0:0:0:
144,112,138463,2,0,L|143:180,1,43.7500004172325
192,304,138613,2,0,L|192:248,1,43.7500004172325
272,168,138763,2,0,L|224:184,1,43.7500004172325
88,232,138913,2,0,L|0:264,1,87.500000834465
336,144,139138,1,0,0:0:0:0:
336,144,139213,1,0,0:0:0:0:
168,120,139363,1,0,0:0:0:0:
168,120,139438,1,0,0:0:0:0:
168,120,139513,6,0,L|288:120,1,100
504,120,139738,1,0,0:0:0:0:
504,120,139813,1,0,0:0:0:0:
472,320,139963,1,0,0:0:0:0:
368,64,140113,1,0,0:0:0:0:
384,352,140263,1,0,0:0:0:0:
240,0,140413,2,0,L|242:106,1,100
256,376,140638,1,0,0:0:0:0:
256,376,140713,5,0,0:0:0:0:
96,8,140863,1,0,0:0:0:0:
96,256,141013,2,0,L|96:144,1,100
208,80,141313,2,0,P|256:144|208:160,1,150
144,128,141613,2,0,P|97:174|153:209,1,150,0|0,0:3|0:3,0:3:0:0:
232,320,141913,2,0,L|288:72,1,225.000008583069
352,16,142513,6,0,L|344:264,1,225.000008583069
256,336,143263,2,0,L|240:248,1,75.0000028610231
144,304,143563,1,0,0:0:0:0:
96,16,143713,1,0,0:0:0:0:
120,128,143863,1,0,0:0:0:0:
144,216,144013,1,0,0:0:0:0:
160,288,144163,1,0,0:0:0:0:
336,320,144313,6,0,L|366:245,1,66.6666666666667
432,256,144663,2,0,L|426:192,1,50
360,128,144913,2,0,L|360:200,1,66.6666666666667
312,48,145363,6,0,L|368:48,2,50
216,48,145813,1,0,0:0:0:0:
120,48,145963,1,0,0:0:0:0:
56,48,146113,1,0,0:0:0:0:
32,48,146263,1,0,0:0:0:0:
80,232,146413,2,0,L|96:176,2,50
128,320,146863,5,0,0:0:0:0:
352,224,147013,1,0,0:0:0:0:
200,336,147163,1,0,0:0:0:0:
296,176,147313,1,0,0:0:0:0:
264,304,147463,1,0,0:0:0:0:
232,200,147613,1,0,0:0:0:0:
336,272,147763,5,0,0:0:0:0:
342,247,147838,1,0,0:0:0:0:
348,223,147913,1,0,0:0:0:0:
424,152,148063,2,0,L|424:184,2,25
360,48,148363,2,0,L|328:88,2,50
264,168,148813,2,0,L|216:128,1,50
128,112,149113,6,0,L|128:32,2,75.0000028610231
56,144,149563,2,0,L|48:200,1,37.5000014305115
136,208,149713,2,0,L|136:256,1,37.5000014305115
192,304,149863,2,0,P|208:248|208:216,1,75.0000028610231
248,112,150163,6,0,L|248:28,1,75.0000028610231
344,160,150463,2,0,L|304:160,1,37.5000014305115
144,160,150613,2,0,L|184:160,1,37.5000014305115
184,248,150763,2,0,L|216:224,1,37.5000014305115
304,72,150913,2,0,L|274:94,1,37.5000014305115
192,80,151063,2,0,L|192:0,1,75.0000028610231
80,56,151363,6,0,L|88:144,1,75.0000028610231
96,248,151663,1,0,0:0:0:0:
360,120,151813,1,0,0:0:0:0:
168,312,151963,1,0,0:0:0:0:
240,64,152113,1,0,0:0:0:0:
152,120,152263,1,0,0:0:0:0:
328,248,152413,1,0,0:0:0:0:
264,152,152563,1,0,0:0:0:0:
112,232,152713,6,0,L|112:184,2,37.5000014305115
208,248,153013,2,0,L|208:304,2,37.5000014305115
208,152,153313,6,0,L|208:104,2,37.5000014305115
112,120,153613,2,0,L|112:72,2,37.5000014305115
88,272,153913,6,0,L|176:296,2,87.500000834465
240,232,154513,2,0,L|192:216,2,37.5000014305115
344,320,155113,6,0,L|360:152,1,150
320,112,155413,2,0,L|344:248,1,112.500004291535
408,256,155713,2,0,L|408:160,1,75
368,56,156013,2,0,L|368:96,1,37.5000014305115
282,227,156313,6,0,L|266:132,2,75.0000028610231
181,72,156763,2,0,L|187:118,1,37.5000014305115
111,119,156913,2,0,L|119:174,1,37.5000014305115
178,338,157063,2,0,L|185:228,1,75.0000028610231
240,149,157363,5,0,0:0:0:0:
240,149,157513,2,0,L|266:67,2,75.0000028610231
350,26,157963,2,0,L|346:84,1,37.5000014305115
420,86,158113,2,0,L|419:124,1,37.5000014305115
413,380,158263,2,0,L|415:288,1,75.0000028610231
277,29,158563,5,0,0:0:0:0:
277,29,158713,2,0,L|219:43,1,37.5000014305115
19,107,158863,2,0,L|74:115,1,37.5000014305115
254,118,159013,2,0,L|214:126,1,37.5000014305115
36,214,159163,2,0,L|82:221,1,37.5000014305115
328,219,159313,2,0,L|283:224,1,37.5000014305115
77,325,159463,2,0,L|125:328,1,37.5000014305115
406,328,159613,6,0,L|328:330,2,75.0000028610231
120,233,160063,2,0,L|134:285,1,37.5000014305115
75,145,160213,2,0,L|59:183,1,37.5000014305115
133,56,160363,2,0,L|152:138,1,75.0000028610231
196,329,160663,1,0,0:0:0:0:
280,80,160813,1,0,0:0:0:0:
304,144,160963,1,0,0:0:0:0:
416,150,161113,5,0,0:0:0:0:
416,150,161263,2,0,L|442:44,2,100
372,224,161713,2,0,L|312:208,1,50
236,252,161863,2,0,L|208:140,1,100
49,100,162163,6,0,L|75:218,1,100
133,358,162463,2,0,L|162:302,1,50
231,317,162613,2,0,L|215:253,1,50
152,32,162763,2,0,L|167:93,1,50
112,200,162913,2,0,L|163:200,1,50
472,207,163063,2,0,L|362:206,1,100
324,149,163363,6,0,P|302:205|320:261,1,100
357,352,163663,1,0,0:0:0:0:
357,352,163813,1,0,0:0:0:0:
408,27,163963,1,0,0:0:0:0:
413,76,164038,1,0,0:0:0:0:
418,126,164113,1,0,0:0:0:0:
432,263,164263,1,0,0:0:0:0:
255,47,164413,1,0,0:0:0:0:
273,290,164563,1,0,0:0:0:0:
205,216,164713,6,0,P|214:140|206:138,1,100
146,159,165013,2,0,P|126:117|160:85,1,100,0|0,0:3|0:3,0:3:0:0:
132,240,165313,6,0,P|123:316|131:318,1,100
192,296,165613,2,0,P|212:337|178:370,1,100,0|0,0:3|0:3,0:3:0:0:
138,182,165913,5,0,0:0:0:0:
138,182,166063,2,0,L|202:318,2,125
216,24,166513,2,0,L|216:96,1,62.5
248,184,166663,2,0,L|280:40,1,125
376,328,166963,1,0,0:0:0:0:
376,328,167113,6,0,L|352:192,2,125
432,24,167563,2,0,L|432:96,1,62.5
432,224,167713,2,0,L|432:80,1,125
248,304,168013,2,0,L|248:168,1,125
248,80,168238,1,0,0:0:0:0:
248,80,168313,5,0,0:0:0:0:
120,72,168463,2,0,L|136:136,1,62.5
88,224,168613,2,0,L|96:160,1,62.5
256,200,168763,2,0,L|232:272,1,62.5
168,312,168913,2,0,L|208:256,1,62.5
363,30,169063,2,0,L|371:110,1,62.5
443,183,169213,2,0,L|435:103,1,62.5
289,152,169363,2,0,L|281:232,1,62.5
359,302,169513,2,0,L|351:214,1,62.5
168,87,169663,2,0,L|173:149,1,62.5
125,264,169813,2,0,L|117:176,1,62.5
184,32,169963,2,0,P|224:96|208:152,1,125
72,360,170263,1,0,0:0:0:0:
152,248,170413,1,0,0:0:0:0:
192,280,170563,1,0,0:0:0:0:
360,192,170713,5,0,0:0:0:0:
360,192,170863,2,0,L|328:336,2,137.500001311302
439,89,171313,2,0,L|353:91,1,68.7500006556511
6,95,171463,2,0,L|149:94,1,137.500001311302
114,251,171763,2,0,L|134:178,2,68.7500006556511
227,21,172063,1,0,0:0:0:0:
226,296,172213,1,0,0:0:0:0:
307,78,172363,1,0,0:0:0:0:
308,338,172513,1,0,0:0:0:0:
227,21,172663,2,0,L|230:186,1,137.500001311302
231,355,172963,6,0,L|230:218,1,137.500001311302
47,51,173263,2,0,L|100:104,1,68.7500006556511
96,199,173413,2,0,L|169:163,1,68.7500006556511
355,23,173563,2,0,L|355:112,1,68.7500006556511
356,321,173713,2,0,L|356:252,1,68.7500006556511
154,46,173863,2,0,L|155:113,1,68.7500006556511
80,175,174013,2,0,L|126:225,1,68.7500006556511
311,75,174163,2,0,L|315:167,1,68.7500006556511
388,234,174313,6,0,L|415:171,2,43.7500004172325
212,25,174613,2,0,L|223:87,2,43.7500004172325
188,283,174913,2,0,L|180:231,2,43.7500004172325
315,280,175213,2,0,L|310:328,2,43.7500004172325
414,110,175513,6,0,L|426:336,1,200
334,31,175963,1,0,0:0:0:0:
310,235,176113,1,0,0:0:0:0:
190,92,176413,5,0,0:0:0:0:
172,316,176563,1,0,0:0:0:0:
75,38,176713,2,0,L|94:244,1,200
166,218,177163,2,0,L|171:151,1,50
247,131,177313,2,0,L|246:342,1,200
354,200,177763,1,0,0:0:0:0:
403,299,177913,2,0,P|435:215|390:113,1,200
299,33,178513,5,0,0:0:0:0:
243,195,178663,1,0,0:0:0:0:
202,74,178813,1,0,0:0:0:0:
299,33,178963,2,0,B|311:151|311:150,1,100
288,282,179263,2,0,L|297:229,1,50
212,218,179413,2,0,L|200:110,1,100
114,29,179713,2,0,L|122:234,1,200
193,352,180313,6,0,L|221:129,1,200
305,357,180763,1,0,0:0:0:0:
336,21,180913,1,0,0:0:0:0:
420,292,181213,5,0,0:0:0:0:
464,185,181363,1,0,0:0:0:0:
326,262,181513,2,0,L|403:51,1,200
291,37,181963,2,0,P|286:106|286:107,1,50
366,86,182113,2,0,L|367:292,1,200
289,37,182563,1,0,0:0:0:0:
261,320,182713,5,0,0:0:0:0:
157,79,182863,1,0,0:0:0:0:
476,147,183013,1,0,0:0:0:0:
360,295,183163,1,0,0:0:0:0:
357,245,183238,1,0,0:0:0:0:
355,195,183313,1,0,0:0:0:0:
274,111,183463,1,0,0:0:0:0:
241,205,183613,1,0,0:0:0:0:
208,299,183763,1,0,0:0:0:0:
176,40,184813,5,0,0:0:0:0:
176,40,185113,5,0,0:0:0:0:
232,160,185263,2,0,L|256:88,2,62.5
128,344,185563,1,0,0:0:0:0:
128,344,185713,2,0,L|80:80,1,250
437,212,186163,6,0,L|431:87,1,125
360,168,186463,1,0,0:0:0:0:
343,107,186538,1,0,0:0:0:0:
327,47,186613,1,0,0:0:0:0:
400,360,186763,1,0,0:0:0:0:
272,342,186913,2,0,L|257:86,1,250
32,24,187363,6,0,L|48:176,1,125
96,352,187663,2,0,L|96:280,1,62.5
112,344,187813,2,0,L|112:272,1,62.5
120,8,187963,2,0,L|120:70,1,62.5
144,24,188113,2,0,L|144:86,1,62.5
203,256,188263,2,0,L|203:193,1,62.5
221,243,188413,2,0,L|221:180,1,62.5
346,41,188563,2,0,L|346:104,1,62.5
380,62,188713,2,0,L|380:124,1,62.5
257,258,188863,2,0,L|256:190,1,62.5
256,48,189013,2,0,L|256:110,1,62.5
160,357,189163,2,0,L|160:232,1,125
304,288,189463,1,0,0:0:0:0:
456,176,189613,1,0,0:0:0:0:
456,176,189763,6,0,L|448:312,1,125
336,152,190063,2,0,L|336:224,2,62.5
120,312,190363,1,0,0:0:0:0:
120,312,190513,2,0,L|384:304,1,250
488,208,190963,6,0,L|352:216,1,125
288,144,191263,1,0,0:0:0:0:
297,94,191338,1,0,0:0:0:0:
306,45,191413,1,0,0:0:0:0:
464,128,191563,1,0,0:0:0:0:
504,224,191713,2,0,L|240:216,1,250
48,96,192163,6,0,L|184:96,1,125
480,96,192463,1,0,0:0:0:0:
304,344,192613,1,0,0:0:0:0:
336,64,192763,1,0,0:0:0:0:
336,126,192838,1,0,0:0:0:0:
336,189,192913,5,0,0:0:0:0:
464,312,193063,1,0,0:0:0:0:
16,224,193213,1,0,0:0:0:0:
96,328,193363,1,0,0:0:0:0:
103,265,193438,1,0,0:0:0:0:
110,203,193513,5,0,0:0:0:0:
128,16,193663,1,0,0:0:0:0:
232,272,193813,2,0,L|232:136,1,125
288,16,194113,2,0,P|352:120|280:240,1,250
184,256,194713,5,0,0:0:0:0:
128,176,194863,2,0,L|96:224,2,37.5000014305115
80,88,195163,1,0,0:0:0:0:
208,24,195313,2,0,L|208:176,1,150.000005722046
288,352,195763,6,0,L|296:264,1,75.0000028610231
368,224,196063,2,0,L|368:280,2,37.5000014305115
416,360,196363,1,0,0:0:0:0:
464,272,196513,2,0,L|448:112,1,150.000005722046
304,32,196963,5,0,0:0:0:0:
272,160,197113,2,0,L|248:112,4,37.5000014305115
152,24,197563,2,0,L|152:112,1,75.0000028610231
64,152,197863,2,0,L|40:256,1,75.0000028610231
192,240,198163,2,0,L|200:320,1,75.0000028610231
64,152,198463,2,0,L|40:256,1,75.0000028610231
152,24,198763,2,0,L|152:112,1,75.0000028610231
264,24,199213,5,0,0:0:0:0:
264,24,199363,2,0,L|264:128,1,75.0000028610231
336,136,199663,1,0,0:0:0:0:
336,161,199738,1,0,0:0:0:0:
336,186,199813,1,0,0:0:0:0:
416,248,199963,1,0,0:0:0:0:
352,328,200113,2,0,L|240:328,1,100
48,288,200563,2,0,L|112:280,1,50
168,200,200863,1,0,0:0:0:0:
143,200,200938,1,0,0:0:0:0:
118,200,201013,1,0,0:0:0:0:
40,128,201163,1,0,0:0:0:0:
120,32,201313,2,0,L|232:32,1,100
454,80,201763,6,0,L|396:120,1,50
280,192,202063,1,0,0:0:0:0:
296,224,202213,1,0,0:0:0:0:
248,336,202363,1,0,0:0:0:0:
192,256,202513,1,0,0:0:0:0:
149,46,202663,2,0,L|152:104,1,50
200,176,202888,2,0,L|193:151,2,25
280,80,203113,2,0,L|272:128,1,37.5000014305115
336,208,203413,2,0,L|336:160,1,37.5000014305115
464,200,203713,2,0,L|448:248,1,37.5000014305115
384,336,204013,2,0,P|376:304|360:328,1,75.0000028610231
