osu file format v14

[General]
AudioFilename: audio.mp3
AudioLeadIn: 1665
PreviewTime: 39431
Countdown: 0
SampleSet: Soft
StackLeniency: 0.7
Mode: 0
LetterboxInBreaks: 0
WidescreenStoryboard: 0

[Editor]
DistanceSpacing: 1.2
BeatDivisor: 4
GridSize: 4
TimelineZoom: 1.5

[Metadata]
Title:Zenryoku Batankyuu (TV Version)
TitleUnicode:全力バタンキュー (TV Version)
Artist:AOP
ArtistUnicode:A応P
Creator:Pata-Mon
Version:Tt's Hard
Source:おそ松さん
Tags:DreaM117er TT Mouse Osomatsu-san Anime OP opening size
BeatmapID:933310
BeatmapSetID:430576

[Difficulty]
HPDrainRate:5
CircleSize:3.7
OverallDifficulty:6
ApproachRate:7
SliderMultiplier:1.52
SliderTickRate:1

[Events]
//Background and Video events
0,0,"BG.jpg",0,0
//Break Periods
//Storyboard Layer 0 (Background)
//Storyboard Layer 1 (Fail)
//Storyboard Layer 2 (Pass)
//Storyboard Layer 3 (Foreground)
//Storyboard Sound Samples

[TimingPoints]
335,387.096774193548,4,2,0,65,1,0
12722,-125,4,2,0,65,0,0
40593,-100,4,2,0,80,0,1
52205,-125,4,2,0,80,0,1
52980,-166.666666666667,4,2,0,65,0,0
62270,-125,4,2,0,65,0,0
62851,-125,4,2,0,70,0,0
63625,-125,4,2,0,75,0,0
65367,-100,4,2,0,80,0,1
77754,-100,4,2,0,65,0,0

[Colours]
Combo1 : 159,255,127
Combo2 : 255,95,95
Combo3 : 95,127,255
Combo4 : 239,127,207
Combo5 : 239,239,95
Combo6 : 191,127,223

[HitObjects]
95,54,335,6,0,P|138:107|228:68,2,152,4|0|0,0:1|1:0|0:0,0:0:0:0:
36,133,1302,1,0,0:0:0:0:
36,133,1496,2,0,L|48:215,1,76,0|0,1:0|0:0,0:0:0:0:
25,304,1883,6,0,P|61:287|116:305,1,76
146,368,2270,1,0,1:0:0:0:
229,331,2464,1,0,0:0:0:0:
312,352,2657,2,0,P|312:309|293:275,1,76
370,229,3044,2,0,P|401:258|458:265,1,76,0|0,1:0|0:0,0:0:0:0:
441,179,3431,6,0,L|461:17,2,152,4|0|0,0:0|1:0|0:0,0:0:0:0:
356,145,4399,1,0,0:0:0:0:
356,145,4593,2,0,L|368:63,1,76,0|0,1:0|0:0,0:0:0:0:
284,109,4980,6,0,P|213:107|178:21,1,152,0|0,0:0|1:0,0:0:0:0:
96,88,5560,1,2,0:3:0:0:
88,101,5657,1,2,0:3:0:0:
81,112,5754,2,0,L|105:188,1,76,0|2,1:0|0:0,0:0:0:0:
46,270,6141,2,0,L|31:352,1,76,0|2,1:0|0:0,0:0:0:0:
117,376,6528,6,0,P|160:347|256:372,1,152,4|0,0:1|1:0,0:0:0:0:
409,276,7302,2,0,P|366:305|319:302,1,76
265,258,7689,1,0,1:0:0:0:
265,258,7883,1,0,0:0:0:0:
359,176,8076,6,0,L|439:190,1,76
488,123,8464,2,0,P|499:73|476:31,2,76,0|0|0,1:0|0:0|0:0,0:0:0:0:
411,81,9044,1,0,0:0:0:0:
320,71,9238,2,0,L|238:81,1,76,0|0,1:0|0:0,0:0:0:0:
201,160,9625,6,0,P|219:87|159:43,2,152,4|0|0,0:0|1:0|0:0,0:0:0:0:
113,133,10593,1,0,0:0:0:0:
61,205,10786,2,0,P|58:260|72:282,1,76,0|0,1:0|0:0,0:0:0:0:
38,370,11173,6,0,L|149:354,1,76,8|2,0:3|0:3,0:0:0:0:
229,341,11560,2,0,L|314:329,1,76,0|2,1:0|0:0,0:0:0:0:
304,330,11851,1,0,0:3:0:0:
304,330,11947,1,0,0:3:0:0:
415,363,12141,1,2,0:0:0:0:
432,245,12334,2,0,L|418:204,3,38,0|0|2|0,0:0|0:0|0:0|0:0,0:0:0:0:
439,268,12722,6,0,L|471:139,1,121.6,4|2,0:0|0:0,0:0:0:0:
322,87,13496,2,0,P|357:88|387:70,1,60.8
340,7,13883,2,0,P|280:16|241:74,1,121.6,2|0,0:0|0:0,0:0:0:0:
261,141,14464,5,0,0:0:0:0:
261,141,14657,2,0,L|285:209,1,60.8,2|0,0:0|0:0,0:0:0:0:
274,276,15044,2,0,P|244:268|219:241,1,60.8
116,324,15431,2,0,P|137:301|144:265,1,60.8
66,265,15818,6,0,L|52:118,1,121.6,0|2,0:0|0:0,0:0:0:0:
96,76,16399,1,2,0:0:0:0:
161,120,16593,2,0,P|232:118|270:70,1,121.6,0|2,0:1|0:0,0:0:0:0:
264,83,17173,1,0,0:0:0:0:
331,187,17367,6,0,L|334:126,1,60.8
416,49,17754,2,2,L|412:109,1,60.8
462,190,18141,1,0,0:0:0:0:
438,285,18334,2,0,B|408:296|408:296|342:271|342:271|296:275,1,121.6,2|0,0:0|0:0,0:0:0:0:
242,306,18915,5,4,0:0:0:0:
242,306,19109,1,2,0:3:0:0:
166,354,19302,2,2,P|150:319|156:281,1,60.8,0|2,1:0|0:3,0:0:0:0:
71,256,19689,1,0,0:0:0:0:
150,204,19883,1,2,0:3:0:0:
150,204,19980,1,2,0:3:0:0:
150,204,20076,2,0,P|115:167|83:160,1,60.8,0|2,1:0|0:3,0:0:0:0:
14,176,20464,5,0,0:0:0:0:
14,176,20657,1,2,0:3:0:0:
52,82,20851,2,0,L|121:67,1,60.8,0|2,1:0|0:3,0:0:0:0:
202,46,21238,1,0,0:0:0:0:
279,104,21431,1,2,0:3:0:0:
279,104,21528,1,2,0:3:0:0:
279,104,21625,2,0,P|299:55|294:26,1,60.8,0|2,1:0|0:3,0:0:0:0:
373,21,22012,6,0,L|407:160,1,121.6,0|0,0:0|1:0,0:0:0:0:
425,214,22593,1,0,0:0:0:0:
489,258,22786,2,0,P|432:292|367:269,1,121.6,2|0,1:2|0:0,0:0:0:0:
306,227,23367,1,2,0:0:0:0:
253,302,23560,6,0,P|249:335|265:368,1,60.8,4|2,0:0|0:0,0:0:0:0:
137,363,23947,2,0,P|147:334|143:305,1,60.8,0|2,0:0|0:0,0:0:0:0:
196,231,24334,2,0,L|195:188,2,30.4,0|0|2,0:0|0:0|0:0,0:0:0:0:
100,223,24722,2,0,L|27:235,1,60.8,0|2,0:0|0:0,0:0:0:0:
38,134,25109,6,0,L|39:91,3,30.4
126,132,25496,2,0,L|161:129,3,30.4
149,81,25883,2,0,L|184:8,1,60.8,0|2,0:0|0:0,0:0:0:0:
238,100,26270,2,0,P|283:118|320:108,1,60.8,8|2,0:3|0:0,0:0:0:0:
380,72,26657,6,0,P|390:137|354:188,1,121.6,4|2,0:1|3:0,0:0:0:0:
184,261,27431,2,0,P|234:244|260:252,1,60.8,0|2,0:0|0:0,0:0:0:0:
235,323,27818,1,0,0:0:0:0:
235,323,28012,1,2,0:0:0:0:
110,308,28205,6,0,P|100:243|136:192,1,121.6,4|2,0:1|3:0,0:0:0:0:
22,33,28980,2,0,P|76:68|94:64,1,60.8,0|2,0:0|0:0,0:0:0:0:
161,85,29367,2,0,P|167:56|157:28,1,60.8,0|2,0:0|0:0,0:0:0:0:
247,65,29754,6,0,B|305:91|324:8|386:44,1,121.6,4|2,0:1|0:0,0:0:0:0:
475,191,30528,2,0,L|454:269,1,60.8
387,204,30915,1,2,0:0:0:0:
412,321,31109,1,0,0:0:0:0:
412,321,31302,6,0,P|382:308|346:312,1,60.8,0|2,0:0|0:0,0:0:0:0:
272,303,31689,2,0,P|274:333|287:361,1,60.8,0|2,0:0|0:0,0:0:0:0:
174,366,32076,2,0,P|185:338|184:308,1,60.8,0|2,0:0|0:0,0:0:0:0:
105,268,32464,1,2,0:0:0:0:
46,333,32657,1,2,0:0:0:0:
105,268,32851,6,0,L|76:124,2,121.6,8|2|0,0:3|0:0|0:0,0:0:0:0:
234,122,34012,2,0,P|200:113|180:78,1,60.8,2|0,0:0|0:0,0:0:0:0:
261,34,34399,6,0,L|392:49,2,121.6,8|2|0,0:3|0:0|0:0,0:0:0:0:
316,220,35560,1,2,0:0:0:0:
502,163,35947,6,0,L|425:152,1,60.8,8|2,0:3|0:0,0:0:0:0:
345,141,36334,1,0,0:0:0:0:
395,224,36528,2,0,P|379:271|353:286,1,60.8,8|2,0:3|0:0,0:0:0:0:
424,358,36915,1,0,0:0:0:0:
326,354,37109,2,0,L|179:340,1,121.6,8|0,0:3|0:0,0:0:0:0:
110,363,37689,5,0,0:0:0:0:
110,363,37883,2,0,P|128:312|121:286,1,60.8,2|0,0:0|0:0,0:0:0:0:
53,242,38270,2,0,L|-34:252,2,60.8,0|0|2,0:0|0:0|0:0,0:0:0:0:
109,162,38851,1,0,0:0:0:0:
187,219,39044,6,0,P|207:163|183:95,1,121.6,12|12,0:3|0:3,0:0:0:0:
268,46,39625,1,0,0:0:0:0:
363,64,39818,2,0,L|385:30,2,30.4,0|0|0,1:0|1:0|1:0,0:0:0:0:
307,134,40205,2,0,L|272:121,2,30.4,8|8|8,0:3|0:3|0:3,0:0:0:0:
408,192,40593,6,0,P|409:232|366:271,1,76,4|0,0:1|0:0,0:0:0:0:
300,262,40980,1,0,1:0:0:0:
369,359,41173,1,0,0:0:0:0:
242,326,41367,2,0,P|216:283|218:250,1,76
95,274,41754,2,0,P|94:326|76:355,1,76,0|0,1:0|0:0,0:0:0:0:
17,243,42141,6,0,P|46:206|144:206,1,152,0|0,0:0|1:0,0:0:0:0:
223,166,42722,1,0,0:0:0:0:
171,91,42915,2,0,P|167:58|182:15,1,76
256,67,43302,1,0,1:0:0:0:
256,67,43496,1,0,0:0:0:0:
333,113,43689,6,0,B|394:131|430:66|499:79,1,152,0|0,0:0|1:0,0:0:0:0:
404,244,44464,2,0,P|395:279|416:331,1,76
325,362,44851,2,0,L|238:348,1,76,0|0,1:0|0:0,0:0:0:0:
160,332,45238,5,0,0:0:0:0:
72,356,45431,1,0,0:0:0:0:
95,267,45625,2,0,P|131:243|189:248,1,76,0|0,1:0|0:0,0:0:0:0:
250,265,46012,2,0,L|237:216,2,38
341,267,46399,2,0,L|352:160,1,76,0|0,1:0|0:0,0:0:0:0:
278,135,46786,6,0,P|330:149|389:56,1,152,4|0,0:1|1:0,0:0:0:0:
219,27,47560,2,0,L|110:44,1,76
67,91,47947,2,0,P|52:52|55:16,1,76,0|0,1:0|0:0,0:0:0:0:
143,40,48334,6,0,L|115:216,1,152,0|0,0:0|1:0,0:0:0:0:
61,260,48915,1,0,0:0:0:0:
95,344,49109,2,0,L|76:379,2,38
186,341,49496,2,0,P|229:343|281:377,1,76,0|0,1:0|0:0,0:0:0:0:
348,370,49883,6,0,P|343:314|410:227,1,152,0|0,0:0|1:0,0:0:0:0:
484,238,50464,1,0,0:0:0:0:
484,238,50657,2,0,P|466:179|438:161,1,76
367,153,51044,2,0,P|320:181|306:226,1,76,0|0,1:0|0:0,0:0:0:0:
232,245,51431,6,0,B|171:257|127:227|127:227|119:252|93:262,1,152,0|0,0:0|1:0,0:0:0:0:
36,193,52012,1,0,1:0:0:0:
141,121,52205,2,0,P|153:71|113:8,1,121.6,8|0,0:3|0:3,0:0:0:0:
313,67,52980,6,0,P|338:76|356:60,1,45.5999986083985,4|2,0:0|0:0,0:0:0:0:
289,174,53367,2,0,P|284:147|261:140,1,45.5999986083985,0|2,1:0|0:2,0:2:0:0:
390,146,53754,2,0,P|371:158|370:181,1,45.5999986083985,0|2,0:0|0:0,0:0:0:0:
357,305,54141,2,0,P|379:304|391:286,1,45.5999986083985,0|2,1:0|0:0,0:0:0:0:
277,262,54528,6,0,P|269:287|286:304,1,45.5999986083985,4|2,0:0|0:0,0:0:0:0:
168,243,54915,2,0,P|193:236|200:213,1,45.5999986083985,0|2,1:0|0:0,0:0:0:0:
201,343,55302,2,0,P|188:325|165:324,1,45.5999986083985,0|2,0:0|0:0,0:0:0:0:
90,339,55689,2,0,P|67:357|64:384,1,45.5999986083985,0|2,1:0|0:0,0:0:0:0:
38,274,56076,6,0,P|70:235|59:187,2,91.199997216797,4|0|0,0:0|1:0|0:0,0:0:0:0:
61,115,57238,2,0,P|41:126|20:120,1,45.5999986083985,0|2,1:0|0:0,0:0:0:0:
69,36,57625,5,6,0:0:0:0:
144,6,57818,1,2,0:0:0:0:
196,68,58012,1,2,0:0:0:0:
147,139,58205,1,6,0:0:0:0:
208,201,58399,2,0,L|247:215,3,22.7999993041992,2|0|0|0,0:0|0:0|0:0|0:0,0:0:0:0:
171,222,58786,2,0,L|185:306,1,68.3999979125977,6|0,0:0|0:0,0:0:0:0:
190,334,59173,5,2,0:0:0:0:
290,310,59367,1,0,0:0:0:0:
376,364,59560,1,0,0:0:0:0:
500,265,59947,2,0,P|477:266|457:256,1,45.5999986083985,2|2,0:0|0:0,0:0:0:0:
376,364,60334,2,0,P|382:322|372:311,1,45.5999986083985,2|0,0:0|0:0,0:0:0:0:
395,203,60722,5,2,0:0:0:0:
462,126,60915,1,0,0:0:0:0:
441,25,61109,1,0,0:0:0:0:
291,73,61496,2,0,P|312:76|338:67,2,45.5999986083985,4|0|8,1:0|0:0|3:0,0:0:0:0:
221,21,62076,5,2,0:3:0:0:
212,31,62173,1,2,0:3:0:0:
204,40,62270,2,0,L|206:125,1,60.8,0|0,0:0|1:0,0:0:0:0:
206,187,62657,1,0,1:0:0:0:
122,205,62851,1,2,0:0:0:0:
118,219,62947,1,2,0:0:0:0:
112,233,63044,2,0,L|151:300,1,60.8,0|2,1:0|0:3,0:0:0:0:
194,353,63431,1,0,1:0:0:0:
253,296,63625,6,0,P|308:281|380:325,1,121.6,8|0,0:3|1:0,0:0:0:0:
303,359,64205,1,0,1:0:0:0:
428,359,64399,1,2,0:3:0:0:
428,359,64496,1,2,0:3:0:0:
428,359,64593,2,0,P|451:320|446:296,1,60.8,0|0,1:0|0:0,0:0:0:0:
412,229,64980,2,0,P|410:194|431:167,1,60.8,0|0,1:0|0:0,0:0:0:0:
510,146,65367,6,0,L|352:103,1,152,4|0,0:1|1:0,0:0:0:0:
293,158,65947,1,0,0:0:0:0:
216,110,66141,2,0,P|214:64|232:29,1,76
119,15,66528,2,0,P|95:79|66:93,1,76,0|0,1:0|0:0,0:0:0:0:
8,174,66915,6,0,P|8:232|81:284,1,152,0|0,0:0|1:0,0:0:0:0:
164,247,67496,1,0,0:0:0:0:
242,293,67689,2,0,P|252:345|240:379,1,76
166,336,68076,1,0,1:0:0:0:
166,336,68270,1,0,0:0:0:0:
246,366,68464,6,0,L|340:354,1,76
341,267,68851,2,0,L|416:257,1,76,0|0,1:0|0:0,0:0:0:0:
371,177,69238,1,0,0:0:0:0:
411,93,69431,1,0,0:0:0:0:
458,171,69625,2,0,P|493:136|500:102,1,76,0|0,1:0|0:0,0:0:0:0:
411,93,70012,6,0,B|365:116|306:52|260:76,1,152,0|0,0:0|1:0,0:0:0:0:
203,142,70593,1,0,0:0:0:0:
146,70,70786,2,2,P|126:63|105:67,2,38
88,141,71173,2,2,P|66:143|49:156,2,38
46,227,71560,6,0,L|16:375,1,152,4|0,0:1|1:0,0:0:0:0:
100,339,72141,1,0,0:0:0:0:
183,378,72334,2,0,P|192:326|173:288,1,76
260,257,72722,2,0,P|308:289|352:282,1,76,0|0,1:0|0:0,0:0:0:0:
362,366,73109,6,0,P|407:323|394:238,1,152,0|0,0:0|1:0,0:0:0:0:
340,174,73689,1,0,0:0:0:0:
402,111,73883,2,0,L|493:130,1,76
392,25,74270,2,0,L|293:38,1,76,0|0,1:0|0:0,0:0:0:0:
229,48,74657,5,0,0:0:0:0:
89,164,75044,2,0,P|117:124|112:95,1,76,0|0,1:0|0:0,0:0:0:0:
6,169,75431,2,0,L|31:338,1,152,0|0,0:0|1:0,0:0:0:0:
103,359,76012,1,0,1:0:0:0:
156,292,76205,6,0,P|187:274|241:279,2,76,0|0|0,0:0|1:0|1:0,0:0:0:0:
214,352,76786,1,2,0:3:0:0:
214,352,76883,1,2,0:3:0:0:
214,352,76980,2,0,L|306:371,1,76,0|0,1:0|1:0,0:0:0:0:
373,335,77367,1,8,0:3:0:0:
373,335,77560,1,0,0:0:0:0:
354,250,77754,6,0,P|359:183|447:159,2,152,4|0|0,0:1|1:0|0:0,0:0:0:0:
274,184,78722,1,0,0:0:0:0:
274,184,78915,2,0,P|228:182|188:221,1,76,0|0,1:0|0:0,0:0:0:0:
254,265,79302,6,0,L|239:344,1,76
146,312,79689,1,0,1:0:0:0:
61,354,79883,1,0,0:0:0:0:
15,274,80076,2,0,P|35:229|22:184,1,76
0,117,80464,2,0,P|-1:79|16:46,1,76,0|0,1:0|0:0,0:0:0:0:
80,99,80851,6,0,L|249:77,2,152,4|0|0,0:0|1:0|0:0,0:0:0:0:
131,173,81818,1,0,0:0:0:0:
131,173,82012,2,0,L|230:160,1,76,0|0,1:0|0:0,0:0:0:0:
294,188,82399,6,0,P|281:259|211:291,1,152,0|0,0:0|1:0,0:0:0:0:
264,375,82980,1,2,0:3:0:0:
264,375,83076,1,2,0:3:0:0:
264,375,83173,2,0,L|356:378,1,76,0|2,1:0|0:0,0:0:0:0:
421,379,83560,2,0,P|408:328|360:303,1,76,0|2,1:0|0:0,0:0:0:0:
383,222,83947,6,0,L|443:59,2,152,4|0|0,0:1|1:0|0:0,0:0:0:0:
323,147,84915,1,0,0:0:0:0:
323,147,85109,2,0,L|235:156,1,76,0|0,1:0|0:0,0:0:0:0:
162,128,85496,6,0,P|155:164|168:200,1,76
247,245,85883,1,0,1:0:0:0:
204,325,86076,1,0,0:0:0:0:
204,325,86173,1,0,0:0:0:0:
204,325,86270,2,0,L|100:336,1,76
47,291,86657,1,0,1:0:0:0:
47,291,86851,1,0,0:0:0:0:
69,202,87044,6,0,P|51:142|27:129,1,76,4|8,1:0|0:3,0:0:0:0:
79,52,87431,1,8,0:3:0:0:
167,76,87625,2,0,L|262:69,1,76,0|8,1:0|0:3,0:0:0:0:
320,23,88012,1,8,0:3:0:0:
304,146,88205,1,0,1:0:0:0:
420,102,88399,1,4,1:0:0:0:
