osu file format v14

[General]
AudioFilename: audio.mp3
AudioLeadIn: 1665
PreviewTime: 39431
Countdown: 0
SampleSet: None
StackLeniency: 0.7
Mode: 0
LetterboxInBreaks: 0
WidescreenStoryboard: 0

[Editor]
Bookmarks: 12722,26657,40593,52980,65367,77754
DistanceSpacing: 1.3
BeatDivisor: 2
GridSize: 4
TimelineZoom: 1

[Metadata]
Title:Zenryoku Batankyuu (TV Version)
TitleUnicode:全力バタンキュー (TV Version)
Artist:AOP
ArtistUnicode:A応P
Creator:Pata-Mon
Version:Normal
Source:おそ松さん
Tags:DreaM117er TT Mouse Osomatsu-san Anime OP opening size
BeatmapID:928841
BeatmapSetID:430576

[Difficulty]
HPDrainRate:4
CircleSize:3.5
OverallDifficulty:4
ApproachRate:5
SliderMultiplier:1.2
SliderTickRate:1

[Events]
//Background and Video events
0,0,"BG.jpg",0,0
//Break Periods
//Storyboard Layer 0 (Background)
//Storyboard Layer 1 (Fail)
//Storyboard Layer 2 (Pass)
//Storyboard Layer 3 (Foreground)
//Storyboard Sound Samples

[TimingPoints]
335,387.096774193548,4,3,0,50,1,0
40593,-100,4,3,0,50,0,1
52980,-100,4,3,0,50,0,0
65367,-100,4,3,0,50,0,1
77754,-100,4,3,0,50,0,0

[Colours]
Combo1 : 159,255,127
Combo2 : 255,95,95
Combo3 : 95,127,255
Combo4 : 239,127,207
Combo5 : 239,239,95
Combo6 : 191,127,223

[HitObjects]
338,357,335,6,0,P|359:301|367:241,1,120,4|2,0:0|0:0,0:0:0:0:
223,183,1109,2,0,P|231:123|252:67,1,120,4|2,0:0|0:0,0:0:0:0:
319,108,1689,6,0,P|378:99|434:78,1,120
467,148,2270,2,0,L|492:202,1,60,2|0,0:0|0:0,0:0:0:0:
420,234,2657,2,0,L|470:343,1,120,4|2,0:0|0:0,0:0:0:0:
315,326,3431,6,0,L|264:216,1,120,4|2,0:0|0:0,0:0:0:0:
200,74,4205,2,0,P|151:108|119:159,1,120,4|2,0:0|0:0,0:0:0:0:
112,237,4786,1,0,0:0:0:0:
112,237,4980,6,0,L|232:237,1,120,4|2,0:0|0:0,0:0:0:0:
368,161,5754,2,0,P|351:136|329:115,2,60,4|0|2,0:0|0:0|0:0,0:0:0:0:
387,237,6334,1,0,0:0:0:0:
368,313,6528,6,0,P|308:310|250:293,1,120,4|2,0:0|0:0,0:0:0:0:
213,142,7302,2,0,P|155:125|95:122,1,120,4|2,0:0|0:0,0:0:0:0:
40,177,7883,6,0,P|17:122|39:68,1,120
113,44,8464,2,0,P|143:45|173:49,1,60,2|0,0:0|0:0,0:0:0:0:
247,72,8851,2,0,P|285:115|283:174,1,120,4|2,0:0|0:0,0:0:0:0:
283,330,9625,6,0,P|224:319|174:286,1,120,4|2,0:0|0:0,0:0:0:0:
62,177,10399,2,0,P|30:228|18:286,1,120,4|2,0:0|0:0,0:0:0:0:
97,286,10980,1,0,0:0:0:0:
97,286,11173,6,0,P|155:297|205:330,2,120,4|2|4,0:0|0:0|0:0,0:0:0:0:
174,151,12334,1,2,0:0:0:0:
96,16,12722,5,4,0:0:0:0:
252,16,13109,1,2,0:0:0:0:
408,16,13496,2,0,L|438:67,1,60,4|0,0:0|0:0,0:0:0:0:
386,126,13883,2,0,L|416:177,1,60,2|0,0:0|0:0,0:0:0:0:
364,236,14270,5,4,0:0:0:0:
364,236,14464,2,0,P|304:230|248:208,2,120
416,177,15431,2,0,L|455:131,2,60,2|0|4,0:0|0:0|0:0,0:0:0:0:
267,132,16205,6,0,L|306:86,1,60
256,25,16593,2,0,P|197:32|143:57,1,120,4|2,0:0|0:0,0:0:0:0:
81,105,17173,6,0,P|106:159|111:218,1,120
33,208,17754,2,0,P|30:178|17:151,2,60,2|0|4,0:0|0:0|0:0,0:0:0:0:
62,280,18334,2,0,B|108:312|150:286|150:286|172:299,1,120
219,237,18915,6,0,L|339:237,1,120,4|2,0:0|0:0,0:0:0:0:
478,168,19689,2,0,P|468:226|464:286,1,120,4|2,0:0|0:0,0:0:0:0:
464,365,20270,1,0,0:0:0:0:
397,325,20464,5,4,0:0:0:0:
397,325,20657,2,0,P|338:314|278:310,1,120
200,310,21238,1,4,0:0:0:0:
154,247,21431,2,0,P|142:219|141:189,2,60,0|2|0,0:0|0:0|0:0,0:0:0:0:
219,203,22012,5,4,0:0:0:0:
374,203,22399,2,0,P|379:173|396:148,1,60,2|0,0:0|0:0,0:0:0:0:
451,202,22786,2,0,P|441:260|408:310,1,120,4|2,0:0|0:0,0:0:0:0:
360,371,23367,2,0,P|340:348|330:320,1,60,0|4,0:0|0:0,0:0:0:0:
309,245,23754,5,2,2:0:0:0:
232,233,23947,2,0,L|177:257,1,60,2|2,2:0|2:0,2:0:0:0:
100,245,24334,2,0,L|45:269,1,60,2|2,2:0|2:0,2:0:0:0:
74,342,24722,2,0,L|129:318,1,60,2|2,2:0|2:0,2:0:0:0:
199,352,25109,6,0,P|243:318|287:352,1,120,4|2,2:3|2:0,2:0:0:0:
443,352,25883,2,0,L|463:295,1,60
398,252,26270,2,0,L|377:195,1,60,2|0,0:0|0:0,0:0:0:0:
443,152,26657,5,4,0:0:0:0:
287,152,27044,1,2,0:0:0:0:
199,281,27431,2,0,L|149:247,1,60
79,281,27818,2,0,L|57:226,1,60,2|0,0:0|0:0,0:0:0:0:
28,152,28205,5,4,0:0:0:0:
184,152,28593,1,2,0:0:0:0:
338,131,28980,2,0,P|363:147|392:151,1,60
447,97,29367,2,0,P|421:80|392:75,1,60,2|0,0:0|0:0,0:0:0:0:
316,55,29754,6,0,P|263:32|209:53,1,120,4|2,0:0|0:0,0:0:0:0:
169,120,30334,1,0,0:0:0:0:
155,197,30528,1,4,0:0:0:0:
96,146,30722,2,0,P|60:99|36:44,2,120
155,197,31689,6,0,P|171:222|176:251,1,60,2|0,0:0|0:0,0:0:0:0:
176,329,32076,2,0,P|205:324|230:308,1,60
294,262,32464,2,0,P|318:245|348:240,1,60,2|0,0:0|0:0,0:0:0:0:
405,187,32851,6,0,B|430:211|425:251|425:251|448:295,2,120,4|2|4,0:0|0:0|0:0,0:0:0:0:
328,322,34012,1,2,0:0:0:0:
248,187,34399,6,0,P|204:226|177:279,1,120,4|2,0:0|0:0,0:0:0:0:
328,322,35173,2,0,P|372:282|399:229,1,120,4|2,0:0|0:0,0:0:0:0:
399,73,35947,6,0,P|340:84|290:117,1,120,4|0,0:0|0:0,0:0:0:0:
225,73,36528,2,0,P|175:105|116:116,1,120,4|0,0:0|0:0,0:0:0:0:
51,73,37109,1,4,0:0:0:0:
256,192,37302,12,4,39044,0:0:0:0:
196,280,40593,5,4,0:0:0:0:
73,184,40980,2,0,L|13:184,2,60,2|0|4,0:0|0:0|0:0,0:0:0:0:
108,113,41560,2,0,P|153:74|210:58,1,120
229,134,42141,6,0,P|288:142|347:133,1,120,4|2,0:0|0:0,0:0:0:0:
366,58,42722,2,0,P|423:74|468:112,1,120
437,184,43303,2,0,L|474:230,1,60,2|0,0:0|0:0,0:0:0:0:
418,284,43689,6,0,P|360:267|315:229,2,120,4|2|4,0:0|0:0|0:0,0:0:0:0:
474,339,44657,2,0,P|495:284|473:230,1,120
417,175,45238,5,4,0:0:0:0:
417,175,45431,2,0,P|400:152|394:122,1,60,0|2,0:0|0:0,0:0:0:0:
385,45,45818,2,0,P|325:50|268:68,1,120
190,69,46399,2,0,P|196:98|212:123,1,60,2|0,0:0|0:0,0:0:0:0:
161,182,46786,6,0,P|126:134|112:76,1,120,4|2,0:0|0:0,0:0:0:0:
268,68,47560,1,4,0:0:0:0:
268,68,47754,2,0,P|327:73|384:93,1,120
454,127,48334,5,4,0:0:0:0:
355,248,48722,1,2,0:0:0:0:
289,207,48915,2,0,P|231:220|178:248,1,120
230,306,49496,2,0,P|246:331|252:360,1,60,2|0,0:0|0:0,0:0:0:0:
173,359,49883,6,0,P|115:348|56:360,1,120,4|2,0:0|0:0,0:0:0:0:
37,284,50464,2,0,P|32:254|37:224,1,60,0|4,0:0|0:0,0:0:0:0:
193,224,51044,2,0,P|197:253|192:283,1,60,2|0,0:0|0:0,0:0:0:0:
173,359,51431,6,0,P|231:369|290:358,1,120,4|2,0:0|0:0,0:0:0:0:
362,328,52012,1,0,0:0:0:0:
300,280,52205,2,0,P|323:226|362:180,1,120,4|2,0:0|0:0,0:0:0:0:
230,97,52980,6,0,P|171:85|112:96,1,120,4|2,0:0|0:0,0:0:0:0:
171,241,53754,1,4,0:0:0:0:
322,202,54141,1,2,0:0:0:0:
171,163,54528,6,0,P|112:151|53:163,1,120,4|2,0:0|0:0,0:0:0:0:
112,307,55302,1,4,0:0:0:0:
263,268,55689,1,2,0:0:0:0:
414,229,56076,6,0,P|436:284|443:344,2,120,4|2|4,0:0|0:0|0:0,0:0:0:0:
263,268,57238,2,0,P|237:284|208:290,1,60,2|0,0:0|0:0,0:0:0:0:
208,212,57625,5,4,0:0:0:0:
208,133,57818,2,0,P|232:117|261:111,2,60,2|2|2,2:0|2:0|2:0,2:0:0:0:
140,173,58399,2,0,P|131:201|132:231,1,60,2|2,2:0|2:0,2:0:0:0:
187,287,58786,2,0,P|188:316|179:345,1,60,2|0,0:0|0:0,0:0:0:0:
111,306,59173,5,4,0:0:0:0:
56,250,59367,1,4,0:0:0:0:
38,174,59560,1,4,0:0:0:0:
194,174,59947,2,0,L|254:174,2,60,2|2|2,0:0|0:0|0:0,0:0:0:0:
111,306,60722,5,4,0:0:0:0:
56,250,60916,1,4,0:0:0:0:
38,174,61109,1,4,0:0:0:0:
194,174,61496,2,0,P|200:203|215:228,1,60,2|0,0:0|0:0,0:0:0:0:
272,174,61883,2,0,P|265:144|250:119,1,60,2|0,0:0|0:0,0:0:0:0:
256,192,62270,12,4,64593,0:0:0:0:
129,339,65367,6,0,P|146:281|181:233,1,120,4|2,0:0|0:0,0:0:0:0:
239,181,65947,1,0,0:0:0:0:
312,153,66141,1,4,0:0:0:0:
312,153,66334,2,0,P|347:201|364:258,1,120
286,258,66915,5,4,0:0:0:0:
170,153,67302,1,2,0:0:0:0:
140,80,67496,2,0,P|99:122|98:180,1,120
158,231,68076,2,0,P|174:256|180:285,1,60,2|0,0:0|0:0,0:0:0:0:
101,285,68463,5,4,0:0:0:0:
256,285,68851,2,0,P|262:314|279:339,1,60,2|0,0:0|0:0,0:0:0:0:
335,285,69238,1,4,0:0:0:0:
391,339,69431,2,0,B|412:315|412:284|412:284|412:224,1,120
411,146,70012,6,0,P|352:154|293:145,1,120,4|2,0:0|0:0,0:0:0:0:
215,135,70593,2,0,P|155:126|96:134,1,120
19,146,71173,2,0,P|29:174|49:196,1,60,2|0,0:0|0:0,0:0:0:0:
113,241,71560,5,4,0:0:0:0:
263,196,71947,2,0,P|289:209|319:215,2,60,2|0|4,0:0|0:0|0:0,0:0:0:0:
215,133,72528,2,0,P|255:90|311:69,1,120
378,109,73109,6,0,P|384:139|384:169,2,60,4|0|2,0:0|0:0|0:0,0:0:0:0:
379,32,73689,2,0,P|433:54|456:107,1,120
458,185,74270,2,0,P|452:214|439:241,1,60,2|0,0:0|0:0,0:0:0:0:
361,241,74657,5,4,0:0:0:0:
205,241,75044,2,0,L|205:181,1,60,2|0,0:0|0:0,0:0:0:0:
148,127,75431,2,0,B|127:150|127:182|127:182|127:214|105:236,1,120,4|2,0:0|0:0,0:0:0:0:
49,182,76012,6,0,B|37:142|48:100|48:100|105:-44|294:42|239:170,1,420,0|2,0:0|0:0,0:0:0:0:
339,290,77754,6,0,P|397:279|447:246,2,120,4|2|4,0:0|0:0|0:0,0:0:0:0:
339,135,78915,1,2,0:0:0:0:
339,135,79109,6,0,P|280:123|230:90,1,120
163,49,79689,2,0,P|141:70|126:96,1,60,2|0,0:0|0:0,0:0:0:0:
148,171,80076,2,0,P|132:196|111:217,1,60,4|0,0:0|0:0,0:0:0:0:
47,263,80464,2,0,P|62:288|83:309,1,60,2|0,0:0|0:0,0:0:0:0:
157,279,80851,6,0,P|199:238|225:184,1,120,4|2,0:0|0:0,0:0:0:0:
256,31,81625,2,0,P|303:67|359:87,1,120,4|2,0:0|0:0,0:0:0:0:
372,11,82205,1,0,0:0:0:0:
372,11,82399,6,0,P|422:41|436:98,1,120,4|2,0:0|0:0,0:0:0:0:
436,176,82980,1,0,0:0:0:0:
436,253,83173,2,0,P|465:248|490:231,2,60,4|0|2,0:0|0:0|0:0,0:0:0:0:
358,267,83754,1,0,0:0:0:0:
302,321,83947,6,0,P|324:266|302:212,1,120,4|2,0:0|0:0,0:0:0:0:
156,155,84722,2,0,P|134:100|156:46,1,120,4|2,0:0|0:0,0:0:0:0:
211,100,85302,6,0,P|270:97|329:85,1,120
407,85,85883,2,0,P|402:114|385:139,1,60,2|0,0:0|0:0,0:0:0:0:
333,197,86270,2,0,P|316:222|311:251,1,60,4|0,0:0|0:0,0:0:0:0:
350,319,86657,2,0,P|343:348|327:373,1,60,2|0,0:0|0:0,0:0:0:0:
271,318,87044,6,0,P|212:310|157:287,2,120,4|2|4,0:0|0:0|0:0,0:0:0:0:
426,318,88205,1,2,0:0:0:0:
465,250,88399,1,2,0:0:0:0:
