osu file format v14

[General]
AudioFilename: audio.mp3
AudioLeadIn: 0
PreviewTime: 57758
Countdown: 0
SampleSet: Soft
StackLeniency: 0.7
Mode: 0
LetterboxInBreaks: 0
WidescreenStoryboard: 0

[Editor]
DistanceSpacing: 0.8
BeatDivisor: 4
GridSize: 4
TimelineZoom: 1

[Metadata]
Title:Maboroshi Wink (TV Version)
TitleUnicode:まぼろしウインク(TV Version)
Artist:AOP
ArtistUnicode:A応P
Creator:Hazu-
Version:Normal
Source:おそ松さん
Tags:Cris- Underforest osomatsu-san osomatsusan second season opening aoup san feat zero osomatsu karamatsu choromatsu ichimatsu jyushimatsu todomatsu matsuno
BeatmapID:1522225
BeatmapSetID:717608

[Difficulty]
HPDrainRate:4
CircleSize:3
OverallDifficulty:4
ApproachRate:5
SliderMultiplier:1.2
SliderTickRate:1

[Events]
//Background and Video events
0,0,"Maboroshi Wink.jpg",0,0
//Break Periods
//Storyboard Layer 0 (Background)
//Storyboard Layer 1 (Fail)
//Storyboard Layer 2 (Pass)
//Storyboard Layer 3 (Foreground)
//Storyboard Sound Samples

[TimingPoints]
2333,425.531914893617,4,2,1,50,1,0
5737,-100,4,2,1,60,0,0
6056,-100,4,2,1,5,0,0
6162,-100,4,2,1,60,0,0
6907,-100,4,2,1,5,0,0
7013,-100,4,2,1,50,0,0
8609,-100,4,2,1,5,0,0
8715,-100,4,2,1,50,0,0
10843,-100,4,2,1,40,0,0
12545,-100,4,2,1,50,0,0
15843,-100,4,2,1,5,0,0
15950,-100,4,2,1,70,0,0
19247,-100,4,2,1,5,0,0
19354,-100,4,2,1,70,0,0
26056,-100,4,2,1,5,0,0
26162,-100,4,2,1,70,0,0
29567,-100,4,2,1,60,0,0
58503,-100,4,2,1,70,0,1
85737,-100,4,2,1,70,0,0

[Colours]
Combo1 : 255,157,255
Combo2 : 255,91,91
Combo3 : 74,165,255
Combo4 : 160,218,97
Combo5 : 172,131,218
Combo6 : 248,218,99

[HitObjects]
304,88,2333,6,0,P|296:132|288:228,1,120,6|0,0:0|3:0,0:0:0:0:
296,256,2971,1,2,0:0:0:0:
204,288,3396,2,0,P|164:280|124:276,1,60,2|2,0:0|3:2,0:0:0:0:
52,248,4035,2,0,P|24:176|40:120,1,120,14|10,0:0|0:0,0:0:0:0:
60,96,4673,1,0,0:0:0:0:
60,96,4886,2,0,P|124:108|192:116,1,120,8|2,0:3|0:0,0:0:0:0:
268,84,5737,6,0,P|332:72|400:64,1,120,6|2,0:0|0:0,0:0:0:0:
428,152,6588,2,0,P|368:159|309:170,1,120,6|2,0:0|0:0,0:0:0:0:
212,176,7439,2,0,B|224:220|224:220|208:308,1,120,6|2,0:0|0:0,0:0:0:0:
196,340,8077,1,0,0:0:0:0:
196,340,8290,2,0,P|256:320|332:340,1,120,6|2,0:0|0:0,0:0:0:0:
404,344,9141,6,0,P|396:292|388:208,1,120,6|2,0:0|0:0,0:0:0:0:
480,192,9992,2,0,P|485:132|494:72,1,120,6|2,0:0|0:0,0:0:0:0:
404,36,10843,2,0,P|336:20|284:40,1,120,14|10,0:0|0:0,0:0:0:0:
256,68,11481,1,10,0:0:0:0:
256,68,11694,2,0,P|199:84|142:67,1,120,14|10,0:0|0:0,0:0:0:0:
64,124,12545,6,0,P|80:176|88:264,2,120,14|2|2,0:0|3:2|3:2,0:0:0:0:
108,40,13822,2,0,P|152:36|184:40,1,60,14|8,0:0|0:0,0:0:0:0:
204,68,14247,2,0,P|304:60|348:52,1,120,10|10,0:0|0:0,0:0:0:0:
416,88,15098,2,0,P|424:56|436:28,2,60,10|8|8,0:0|0:0|0:0,0:0:0:0:
364,168,15950,6,0,P|380:224|392:308,2,120,6|10|2,0:0|0:0|0:0,0:0:0:0:
320,80,17226,2,0,P|284:72|236:72,1,60,10|2,0:0|0:0,0:0:0:0:
220,92,17652,2,0,P|164:100|96:68,1,120,6|10,0:0|0:0,0:0:0:0:
16,48,18503,2,0,P|24:88|28:128,1,60,10|2,0:0|0:0,0:0:0:0:
20,156,18928,1,10,0:0:0:0:
92,220,19354,6,0,P|84:268|80:340,2,120,6|10|2,0:0|0:0|0:0,0:0:0:0:
164,156,20630,2,0,P|168:124|176:88,1,60,10|2,0:0|0:0,0:0:0:0:
216,72,21056,2,0,P|280:48|344:80,1,120,6|10,0:0|0:0,0:0:0:0:
388,136,21907,2,0,P|334:159|277:144,1,120,2|10,0:0|0:0,0:0:0:0:
184,168,22758,6,0,P|196:216|204:308,2,120,6|10|2,0:0|0:0|0:0,0:0:0:0:
100,120,24035,2,0,P|105:90|113:61,1,60,10|2,0:0|0:0,0:0:0:0:
160,52,24460,2,0,P|216:28|292:52,1,120,6|10,0:0|0:0,0:0:0:0:
368,28,25311,2,0,P|360:64|356:104,1,60,10|2,0:0|0:0,0:0:0:0:
372,132,25737,1,10,0:0:0:0:
424,212,26162,6,0,P|416:272|412:352,2,120,6|10|2,0:0|0:0|0:0,0:0:0:0:
372,132,27439,2,0,P|336:124|304:124,1,60,10|2,0:0|0:0,0:0:0:0:
268,144,27864,2,0,P|192:144|144:128,1,120,6|10,0:0|0:0,0:0:0:0:
60,100,28715,2,0,P|72:152|76:240,1,120,10|10,0:0|0:0,0:0:0:0:
120,304,29567,5,6,3:2:0:0:
200,252,29992,1,10,3:2:0:0:
280,304,30418,2,0,P|324:296|408:288,1,120,2|10,3:2|3:2,0:0:0:0:
444,308,31056,1,2,0:0:0:0:
444,308,31269,2,0,P|476:244|460:180,1,120,2|10,3:2|3:2,0:0:0:0:
404,128,32120,2,0,P|360:124|340:124,1,60,2|8,3:2|0:0,0:0:0:0:
300,100,32545,2,0,P|256:96|236:96,1,60,10|0,3:2|0:0,0:0:0:0:
196,72,32971,6,0,P|204:112|216:212,1,120,2|10,3:2|3:2,0:0:0:0:
120,216,33822,2,0,P|112:156|101:97,1,120,2|10,3:2|3:2,0:0:0:0:
196,72,34673,1,2,3:2:0:0:
280,120,35098,1,10,3:2:0:0:
368,84,35524,2,0,P|392:92|428:116,1,60,2|2,3:2|0:0,0:0:0:0:
468,112,35950,2,0,P|479:134|487:177,1,60,10|10,3:2|0:0,0:0:0:0:
512,208,36375,6,0,P|500:260|496:340,1,120,6|10,3:2|3:2,0:0:0:0:
404,352,37226,2,0,P|352:332|272:340,1,120,2|10,3:2|3:2,0:0:0:0:
244,352,37864,1,0,0:0:0:0:
244,352,38077,2,0,P|184:355|128:334,1,120,2|10,3:2|3:2,0:0:0:0:
52,276,38928,1,2,3:2:0:0:
92,188,39354,2,0,P|88:156|84:108,1,60,10|0,3:2|0:0,0:0:0:0:
116,92,39779,6,0,P|176:64|232:76,1,120,2|10,3:2|3:2,0:0:0:0:
316,108,40630,2,0,P|374:116|426:89,1,120,2|10,3:2|3:2,0:0:0:0:
464,60,41269,1,8,0:3:0:0:
464,60,41481,1,6,3:2:0:0:
504,148,41907,1,10,3:2:0:0:
444,224,42333,2,0,P|404:216|364:212,1,60,2|2,3:2|0:0,0:0:0:0:
340,228,42758,2,0,P|300:220|260:216,1,60,10|10,3:2|0:0,0:0:0:0:
224,240,43184,6,0,P|248:288|228:368,1,120,6|10,3:2|3:2,0:0:0:0:
144,360,44034,2,0,P|120:312|140:232,1,120,8|10,3:2|3:2,0:0:0:0:
176,164,44886,1,6,3:2:0:0:
176,164,45098,2,0,P|220:156|308:148,1,120,2|10,0:0|0:0,0:0:0:0:
356,76,45950,2,0,P|400:84|488:92,1,120,10|2,0:0|0:0,0:0:0:0:
512,60,46588,6,0,P|504:112|500:184,1,120,6|14,3:2|3:2,0:0:0:0:
448,260,47439,2,0,P|404:240|316:256,1,120,0|2,3:0|3:2,0:0:0:0:
256,300,48290,2,0,P|264:332|268:380,2,60,6|2|10,3:2|0:0|3:2,0:0:0:0:
216,212,49141,1,0,3:0:0:0:
176,124,49567,2,0,P|179:94|187:65,1,60,8|8,3:2|0:3,0:0:0:0:
232,44,49992,6,0,P|296:28|364:56,1,120,6|14,3:2|3:2,0:0:0:0:
400,124,50843,2,0,P|336:140|268:112,1,120,0|10,3:0|3:2,0:0:0:0:
192,140,51694,1,6,3:2:0:0:
192,140,51907,2,0,P|208:200|216:280,1,120,2|2,0:0|0:0,0:0:0:0:
124,284,52758,2,0,P|116:224|100:166,1,120,10|8,0:0|0:0,0:0:0:0:
60,140,53396,5,6,0:0:0:0:
248,184,54247,1,6,0:0:0:0:
428,112,55098,2,0,P|416:176|412:232,1,120,8|8,0:0|0:0,0:0:0:0:
432,324,55950,2,0,P|372:304|304:316,1,120,8|8,0:0|0:0,0:0:0:0:
228,348,56801,1,2,0:0:0:0:
152,292,57226,1,2,0:0:0:0:
60,324,57652,2,0,P|68:268|72:200,1,120,2|4,0:0|0:1,0:0:0:0:
112,116,58503,6,0,P|152:88|240:104,1,120,6|10,3:2|3:2,0:0:0:0:
308,136,59354,2,0,P|366:142|416:111,1,120,2|8,3:2|3:2,0:0:0:0:
452,80,59992,1,2,0:0:0:0:
452,80,60205,1,6,3:2:0:0:
500,164,60630,2,0,P|492:216|488:304,1,120,8|10,3:2|3:2,0:0:0:0:
412,340,61481,2,0,P|368:336|324:336,1,60,8|2,3:2|0:0,0:0:0:0:
308,352,61907,6,0,P|311:292|320:232,1,120,6|8,3:2|3:2,0:0:0:0:
228,200,62758,2,0,P|224:140|215:80,1,120,2|10,3:2|3:2,0:0:0:0:
120,72,63609,2,0,P|128:131|132:191,1,120,6|10,3:2|3:2,0:0:0:0:
140,288,64460,1,10,3:2:0:0:
236,280,64886,1,10,3:2:0:0:
228,183,65311,6,0,P|303:155|360:168,1,120,6|10,3:2|3:2,0:0:0:0:
436,184,66162,2,0,P|424:252|420:320,1,120,2|10,3:2|3:2,0:0:0:0:
436,348,66801,1,2,0:0:0:0:
436,348,67013,1,6,3:2:0:0:
340,360,67439,2,0,P|276:348|204:344,1,120,8|8,3:2|3:2,0:0:0:0:
144,284,68290,2,0,P|108:280|64:280,1,60,8|2,3:2|0:0,0:0:0:0:
36,292,68715,6,0,P|44:236|48:172,1,120,6|10,3:2|3:2,0:0:0:0:
120,108,69567,2,0,P|160:92|236:116,1,120,2|10,3:2|3:2,0:0:0:0:
308,168,70418,2,0,P|364:184|419:163,1,120,6|10,3:2|3:2,0:0:0:0:
492,100,71269,1,10,3:2:0:0:
448,16,71694,1,10,3:2:0:0:
356,48,72120,6,0,P|324:44|224:40,1,120,6|10,3:2|3:2,0:0:0:0:
140,32,72971,2,0,P|152:80|160:160,1,120,2|10,3:2|3:2,0:0:0:0:
188,188,73609,1,2,0:0:0:0:
188,188,73822,1,6,3:2:0:0:
108,240,74247,2,0,P|120:288|128:368,1,120,8|10,3:2|3:2,0:0:0:0:
224,360,75098,2,0,P|256:348|296:344,1,60,8|2,3:2|0:0,0:0:0:0:
320,316,75524,6,0,P|380:324|456:332,1,120,6|10,3:2|3:2,0:0:0:0:
456,236,76375,2,0,P|396:229|336:221,1,120,2|10,3:2|3:2,0:0:0:0:
240,228,77226,2,0,B|248:180|248:180|232:92,1,120,6|10,3:2|3:2,0:0:0:0:
300,40,78077,1,10,3:2:0:0:
388,76,78503,1,10,3:2:0:0:
480,48,78928,6,0,P|472:108|468:180,1,120,6|10,3:2|3:2,0:0:0:0:
408,244,79779,1,10,3:2:0:0:
348,172,80205,2,0,L|352:92,1,60,10|2,3:2|0:0,0:0:0:0:
320,76,80630,2,0,P|264:56|200:76,1,120,6|10,3:2|3:2,0:0:0:0:
136,132,81481,1,10,3:2:0:0:
40,128,81907,2,0,P|48:164|52:208,1,60,10|2,3:2|0:0,0:0:0:0:
80,224,82332,6,0,P|72:276|64:364,1,120,6|10,3:2|3:2,0:0:0:0:
160,368,83184,1,10,3:2:0:0:
236,308,83609,2,0,P|280:308|308:312,1,60,10|2,3:2|0:0,0:0:0:0:
340,328,84035,2,0,P|316:264|332:204,1,120,14|10,3:2|3:2,0:0:0:0:
420,192,84886,1,10,3:2:0:0:
404,96,85311,1,14,3:2:0:0:
310,119,85737,6,0,P|264:120|180:108,1,120,6|2,3:2|3:2,0:0:0:0:
104,72,86588,1,2,3:2:0:0:
44,144,87013,2,0,P|56:184|60:220,1,60,6|0,0:0|3:0,0:0:0:0:
52,248,87439,2,0,P|112:220|184:232,1,120,12|8,0:0|0:0,0:0:0:0:
248,272,88290,2,0,P|307:274|360:247,1,120,8|8,0:0|0:0,0:0:0:0:
392,212,88928,1,8,0:0:0:0:
