osu file format v14

[General]
AudioFilename: audio.mp3
AudioLeadIn: 0
PreviewTime: 57758
Countdown: 0
SampleSet: Soft
StackLeniency: 0.7
Mode: 0
LetterboxInBreaks: 0
WidescreenStoryboard: 0

[Editor]
DistanceSpacing: 0.8
BeatDivisor: 4
GridSize: 16
TimelineZoom: 1.7

[Metadata]
Title:Maboroshi Wink (TV Version)
TitleUnicode:まぼろしウインク(TV Version)
Artist:AOP
ArtistUnicode:A応P
Creator:Hazu-
Version:Forest's Insane
Source:おそ松さん
Tags:Cris- Underforest osomatsu-san osomatsusan second season opening aoup san feat zero osomatsu karamatsu choromatsu ichimatsu jyushimatsu todomatsu matsuno
BeatmapID:1534825
BeatmapSetID:717608

[Difficulty]
HPDrainRate:6
CircleSize:4
OverallDifficulty:7
ApproachRate:8.5
SliderMultiplier:1.6
SliderTickRate:1

[Events]
//Background and Video events
0,0,"Maboroshi Wink.jpg",0,0
//Break Periods
//Storyboard Layer 0 (Background)
//Storyboard Layer 1 (Fail)
//Storyboard Layer 2 (Pass)
//Storyboard Layer 3 (Foreground)
//Storyboard Sound Samples

[TimingPoints]
2333,425.531914893617,4,2,1,50,1,0
5737,-133.333333333333,4,2,1,60,0,0
7013,-133.333333333333,4,2,1,50,0,0
10843,-100,4,2,1,40,0,0
12545,-100,4,2,1,50,0,0
15950,-100,4,2,1,70,0,0
29567,-100,4,2,1,60,0,0
53822,-100,4,2,1,40,0,0
54247,-100,4,2,1,60,0,0
54673,-100,4,2,1,40,0,0
55098,-100,4,2,1,60,0,0
56375,-100,4,2,1,40,0,0
56801,-100,4,2,1,60,0,0
58503,-83.3333333333333,4,2,1,70,0,1
85737,-100,4,2,1,70,0,0

[Colours]
Combo1 : 255,157,255
Combo2 : 255,91,91
Combo3 : 74,165,255
Combo4 : 160,218,97
Combo5 : 172,131,218
Combo6 : 248,218,99

[HitObjects]
164,143,2333,6,0,L|184:42,1,80,6|0,0:0|0:0,0:0:0:0:
241,217,2758,1,0,3:0:0:0:
241,217,2864,1,2,0:0:0:0:
241,217,2971,1,2,0:0:0:0:
74,201,3184,5,0,3:0:0:0:
74,201,3290,2,0,P|47:265|59:301,1,80,0|2,0:0|0:0,0:0:0:0:
70,302,3609,2,0,L|168:317,1,80,2|0,3:2|0:0,0:0:0:0:
316,271,4035,6,0,L|322:206,1,40,14|0,0:0|0:0,0:0:0:0:
407,197,4247,2,0,L|413:262,1,40,10|0,0:0|0:0,0:0:0:0:
306,282,4460,6,0,L|312:217,1,40,10|0,0:0|0:0,0:0:0:0:
414,187,4672,2,0,L|420:252,1,40,10|0,0:0|0:0,0:0:0:0:
295,292,4886,6,0,L|301:227,1,40,8|2,0:3|0:0,0:0:0:0:
424,178,5098,2,0,L|430:243,1,40,2|2,0:0|0:0,0:0:0:0:
286,302,5311,6,0,L|292:237,1,40,2|2,0:0|0:0,0:0:0:0:
434,168,5523,2,0,L|440:233,1,40,2|2,0:0|0:0,0:0:0:0:
439,355,5737,5,6,0:0:0:0:
439,355,6588,1,6,0:0:0:0:
73,29,7439,5,6,0:0:0:0:
73,29,8290,1,6,0:0:0:0:
197,71,8503,2,0,L|281:54,1,60.0000022888184,0|2,0:0|0:0,0:0:0:0:
256,60,9141,5,6,0:0:0:0:
256,324,9992,1,6,0:0:0:0:
126,114,10843,6,0,P|79:103|43:113,1,80,14|8,0:0|0:0,0:0:0:0:
24,140,11162,1,8,0:0:0:0:
24,140,11269,2,0,L|32:201,1,40,10|8,0:0|0:0,0:0:0:0:
73,245,11481,2,0,L|65:306,1,40,8|8,0:0|0:0,0:0:0:0:
160,249,11694,6,0,L|154:209,1,40,14|8,0:0|0:0,0:0:0:0:
241,254,11907,2,0,L|233:315,1,40,10|8,0:0|0:0,0:0:0:0:
322,230,12120,2,0,L|314:169,1,40,10|10,0:0|0:0,0:0:0:0:
411,259,12332,2,0,L|405:298,1,40,10|10,0:0|0:0,0:0:0:0:
482,184,12545,5,14,0:0:0:0:
482,184,12971,2,0,P|486:140|461:94,1,80,2|0,3:2|0:0,0:0:0:0:
320,133,13396,2,0,P|352:155|392:155,1,80,2|0,3:2|0:0,0:0:0:0:
449,23,13822,2,0,P|405:43|386:73,1,80,14|8,0:0|0:0,0:0:0:0:
285,211,14247,5,10,0:0:0:0:
255,56,14460,1,0,0:0:0:0:
285,211,14673,1,10,0:0:0:0:
255,56,14886,1,0,0:0:0:0:
143,168,15098,2,0,L|247:155,1,80,10|8,0:0|0:0,0:0:0:0:
334,46,15524,2,0,L|254:55,1,80,8|0,0:0|0:0,0:0:0:0:
304,236,15950,6,0,P|331:170|308:109,1,120,6|0,0:0|0:0,0:0:0:0:
319,125,16375,2,0,P|376:135|430:119,1,80,10|0,0:0|0:0,0:0:0:0:
492,233,16801,2,0,L|471:342,1,80,2|0,0:0|0:0,0:0:0:0:
358,379,17226,2,0,L|342:300,1,80,10|2,0:0|0:0,0:0:0:0:
328,162,17652,5,6,0:0:0:0:
247,233,17864,1,0,0:0:0:0:
394,225,18077,1,10,0:0:0:0:
242,154,18290,1,0,0:0:0:0:
262,324,18503,1,10,0:0:0:0:
328,162,18715,1,2,0:0:0:0:
171,254,18928,2,0,L|73:267,1,80,10|0,0:0|0:0,0:0:0:0:
210,160,19354,6,0,L|336:144,1,120,6|0,0:0|0:0,0:0:0:0:
329,144,19779,2,0,P|344:190|333:240,1,80,10|0,0:0|0:0,0:0:0:0:
253,315,20205,2,0,P|238:269|249:219,1,80,2|0,0:0|0:0,0:0:0:0:
413,277,20630,2,0,P|428:323|417:373,1,80,10|2,0:0|0:0,0:0:0:0:
253,315,21056,6,0,L|189:323,3,40,6|0|2|0,0:0|0:0|0:0|0:0,0:0:0:0:
129,351,21481,2,0,L|65:343,3,40,10|2|2|2,0:0|0:0|0:0|0:0,0:0:0:0:
34,278,21907,2,0,L|-13:245,1,40,2|2,0:0|0:0,0:0:0:0:
98,219,22120,2,0,L|73:165,1,40,2|2,0:0|0:0,0:0:0:0:
176,168,22332,2,0,L|179:115,1,40,10|2,0:0|0:0,0:0:0:0:
267,177,22545,2,0,L|302:131,1,40,10|10,0:0|0:0,0:0:0:0:
366,81,22758,6,0,B|428:69|431:105|500:82,1,120,6|0,0:0|0:0,0:0:0:0:
484,86,23184,2,0,L|496:178,1,80,10|0,0:0|0:0,0:0:0:0:
372,252,23609,2,0,L|382:172,1,80,2|0,0:0|0:0,0:0:0:0:
475,260,24035,2,0,L|485:339,1,80,10|2,0:0|0:0,0:0:0:0:
497,173,24460,5,6,0:0:0:0:
380,153,24673,1,0,0:0:0:0:
380,153,24779,1,0,0:0:0:0:
380,153,24886,1,10,0:0:0:0:
492,49,25098,1,0,0:0:0:0:
329,28,25311,1,10,0:0:0:0:
329,28,25418,1,0,0:0:0:0:
329,28,25524,1,2,0:0:0:0:
400,164,25737,2,0,L|496:154,1,80,10|0,0:0|0:0,0:0:0:0:
350,99,26162,6,0,P|321:150|339:215,1,120,6|0,0:0|0:0,0:0:0:0:
333,207,26588,2,0,P|282:224|247:218,1,80,10|0,0:0|0:0,0:0:0:0:
120,211,27013,2,0,L|103:108,1,80,2|0,0:0|0:0,0:0:0:0:
236,34,27439,2,0,L|219:137,1,80,10|2,0:0|0:0,0:0:0:0:
247,251,27864,6,0,B|286:262|286:262|354:246,1,80,6|0,0:0|0:0,0:0:0:0:
449,120,28290,2,0,B|410:110|410:110|371:121,1,80,10|0,0:0|0:0,0:0:0:0:
289,175,28715,1,10,0:0:0:0:
405,292,28928,5,2,0:0:0:0:
289,175,29141,1,10,0:0:0:0:
405,292,29354,1,10,0:0:0:0:
414,259,29460,1,8,0:0:0:0:
424,225,29567,6,0,L|437:142,1,80,6|0,3:2|0:0,0:0:0:0:
323,206,29992,2,0,L|311:286,1,80,10|0,3:2|0:0,0:0:0:0:
236,172,30418,2,0,P|280:123|341:114,1,120,2|0,3:2|0:0,0:0:0:0:
360,119,30843,1,10,3:2:0:0:
323,206,31056,1,2,0:0:0:0:
216,67,31269,6,0,L|130:76,1,80,2|0,3:2|0:0,0:0:0:0:
56,184,31694,2,0,L|136:193,1,80,10|0,3:2|0:0,0:0:0:0:
226,164,32120,1,2,3:2:0:0:
205,267,32332,1,8,0:0:0:0:
150,121,32545,1,10,3:2:0:0:
96,257,32758,1,0,0:0:0:0:
96,257,32864,1,0,0:0:0:0:
96,257,32971,1,2,3:2:0:0:
290,240,33184,5,2,0:0:0:0:
290,240,33290,1,2,0:0:0:0:
290,240,33396,1,10,3:2:0:0:
290,240,33503,2,0,P|290:278|332:330,1,80,2|0,0:0|0:0,0:0:0:0:
409,250,33822,6,0,L|345:263,3,40,2|2|2|2,3:2|0:0|0:0|0:0,0:0:0:0:
403,335,34247,1,10,3:2:0:0:
504,234,34460,1,0,0:0:0:0:
338,164,34673,6,0,P|300:153|254:156,1,80,2|2,3:2|0:0,0:0:0:0:
250,242,34992,1,2,0:0:0:0:
250,242,35098,2,0,P|295:255|352:243,1,80,10|2,3:2|0:0,0:0:0:0:
437,153,35524,6,0,L|449:93,3,40,2|2|2|2,3:2|0:0|0:0|0:0,0:0:0:0:
392,59,35950,1,10,3:2:0:0:
376,46,36056,1,2,0:0:0:0:
357,39,36162,1,10,0:0:0:0:
336,40,36269,1,2,0:0:0:0:
320,51,36375,6,0,L|310:144,1,80,6|0,3:2|0:0,0:0:0:0:
168,182,36801,2,0,L|159:102,1,80,10|0,3:2|0:0,0:0:0:0:
252,199,37226,1,2,3:2:0:0:
154,304,37439,1,0,0:0:0:0:
286,358,37652,2,0,L|294:278,1,80,10|0,3:2|0:0,0:0:0:0:
365,180,38077,6,0,P|395:170|457:186,1,80,2|0,3:2|0:0,0:0:0:0:
335,77,38503,2,0,P|296:84|257:74,1,80,10|0,3:2|0:0,0:0:0:0:
173,28,38928,1,2,3:2:0:0:
218,145,39141,1,8,0:0:0:0:
299,10,39354,1,10,3:2:0:0:
154,107,39567,1,0,0:0:0:0:
154,107,39673,1,0,0:0:0:0:
154,107,39779,1,2,3:2:0:0:
297,194,39992,5,2,0:0:0:0:
297,194,40098,1,2,0:0:0:0:
297,194,40205,1,10,3:2:0:0:
297,194,40311,2,0,B|322:187|322:187|377:195,1,80,2|0,0:0|0:0,0:0:0:0:
368,272,40630,6,0,L|308:265,3,40,2|2|8|2,3:2|0:0|3:2|0:0,0:0:0:0:
247,282,41056,2,0,L|187:275,3,40,10|8|8|0,3:2|0:3|0:3|0:0,0:0:0:0:
131,240,41481,6,0,P|102:196|100:160,1,80,6|2,3:2|0:0,0:0:0:0:
153,104,41801,1,2,0:0:0:0:
153,104,41907,2,0,L|219:109,1,40,10|2,3:2|0:0,0:0:0:0:
282,70,42120,2,0,L|348:65,1,40,0|0,0:0|0:0,0:0:0:0:
373,157,42333,6,0,L|307:152,1,40,2|2,3:2|0:0,0:0:0:0:
248,195,42546,2,0,L|182:200,1,40,2|2,0:0|0:0,0:0:0:0:
95,222,42758,1,10,3:2:0:0:
109,259,42864,1,2,0:0:0:0:
134,289,42970,1,10,0:0:0:0:
168,310,43077,1,2,0:0:0:0:
207,319,43183,5,6,3:2:0:0:
352,262,43396,1,0,0:0:0:0:
227,154,43609,2,0,L|197:45,1,80,10|0,3:2|0:0,0:0:0:0:
200,61,43928,1,8,0:0:0:0:
196,43,44035,1,8,3:2:0:0:
346,84,44247,1,2,0:0:0:0:
290,199,44460,2,0,P|246:228|200:225,1,80,10|0,3:2|0:0,0:0:0:0:
95,175,44886,5,6,3:2:0:0:
55,303,45098,2,0,L|64:390,1,80,2|8,0:0|3:2,0:0:0:0:
211,309,45524,2,0,L|219:229,1,80,10|0,0:0|3:2,0:0:0:0:
160,107,45950,1,10,0:0:0:0:
130,222,46162,1,8,3:2:0:0:
242,135,46375,1,2,0:0:0:0:
88,145,46588,5,6,3:2:0:0:
219,229,46801,1,0,0:0:0:0:
88,145,47013,2,0,L|96:231,1,80,14|0,3:2|0:0,0:0:0:0:
152,358,47439,1,0,3:0:0:0:
152,358,47545,1,8,0:0:0:0:
152,358,47652,1,8,0:0:0:0:
219,229,47864,1,2,3:2:0:0:
257,346,48077,1,0,0:0:0:0:
368,218,48290,6,0,P|415:209|466:222,1,80,6|2,3:2|0:0,0:0:0:0:
324,298,48715,2,0,P|290:265|281:222,1,80,10|8,3:2|0:0,0:0:0:0:
278,218,49035,1,8,0:0:0:0:
275,200,49141,1,0,3:0:0:0:
334,75,49354,1,8,0:0:0:0:
370,215,49567,2,0,P|389:210|415:210,3,40,8|8|8|8,3:2|0:0|0:3|0:3,0:0:0:0:
490,244,49992,6,0,L|472:347,1,80,6|0,3:2|0:0,0:0:0:0:
347,384,50418,2,0,L|333:305,1,80,14|0,3:2|0:0,0:0:0:0:
328,285,50737,1,0,0:0:0:0:
322,264,50843,1,0,3:0:0:0:
229,170,51056,1,8,0:0:0:0:
365,130,51269,1,10,3:2:0:0:
228,254,51481,1,0,0:0:0:0:
193,89,51694,5,6,3:2:0:0:
285,138,51907,2,0,L|382:128,1,80,2|8,0:0|3:2,0:0:0:0:
227,211,52333,2,0,L|130:201,1,80,2|0,0:0|3:0,0:0:0:0:
226,317,52758,1,10,0:0:0:0:
332,211,52971,1,8,3:2:0:0:
423,357,53184,5,8,0:0:0:0:
423,357,53290,1,8,0:0:0:0:
423,357,53396,1,6,0:0:0:0:
51,53,54247,5,6,0:0:0:0:
472,185,55098,6,0,P|429:202|351:173,1,120,8|8,0:0|0:0,0:0:0:0:
285,146,55524,2,0,L|275:205,3,40,8|8|8|8,0:0|0:0|0:0|0:0,0:0:0:0:
240,264,55950,5,8,0:0:0:0:
221,271,56056,1,8,0:0:0:0:
201,274,56162,1,8,0:0:0:0:
181,272,56269,1,8,0:0:0:0:
162,266,56375,5,8,0:0:0:0:
134,236,56481,1,8,0:0:0:0:
120,199,56587,1,8,0:0:0:0:
120,160,56694,1,8,0:0:0:0:
131,122,56801,5,2,0:0:0:0:
256,192,56907,12,4,58077,0:1:0:0:
77,68,58503,6,0,L|196:77,1,95.9999970703126,6|0,3:2|3:0,0:0:0:0:
244,117,58822,1,8,0:0:0:0:
244,117,58928,2,0,P|254:154|235:212,1,95.9999970703126,10|0,3:2|3:0,0:0:0:0:
82,163,59354,6,0,P|131:150|187:167,1,95.9999970703126,2|0,3:2|3:0,0:0:0:0:
133,235,59673,1,8,0:0:0:0:
133,235,59779,2,0,L|151:343,1,95.9999970703126,8|2,3:2|0:0,0:0:0:0:
253,224,60205,5,6,3:2:0:0:
48,278,60418,1,2,3:2:0:0:
253,224,60630,1,8,3:2:0:0:
73,163,60843,1,2,0:0:0:0:
216,124,61056,6,0,L|317:114,1,95.9999970703126,10|0,3:2|0:0,0:0:0:0:
459,105,61481,1,8,3:2:0:0:
371,39,61694,1,2,0:0:0:0:
394,178,61907,6,0,P|407:228|393:281,1,95.9999970703126,6|2,3:2|0:0,0:0:0:0:
258,353,62333,2,0,P|245:303|259:250,1,95.9999970703126,8|2,3:2|0:0,0:0:0:0:
314,145,62758,1,2,3:2:0:0:
314,145,62864,1,0,0:0:0:0:
314,145,62971,1,2,0:0:0:0:
324,300,63184,1,10,3:2:0:0:
235,175,63396,1,2,0:0:0:0:
398,207,63609,6,0,L|494:195,1,95.9999970703126,6|2,3:2|0:0,0:0:0:0:
324,88,64035,2,0,L|420:100,1,95.9999970703126,10|2,3:2|0:0,0:0:0:0:
272,176,64460,2,0,P|240:171|210:156,3,47.9999985351563,10|10|2|10,3:2|0:0|0:0|0:0,0:0:0:0:
131,114,64886,1,10,3:2:0:0:
117,159,64992,1,2,0:0:0:0:
124,206,65098,1,10,0:0:0:0:
151,246,65205,1,2,0:0:0:0:
192,270,65311,6,0,P|251:272|295:304,1,95.9999970703126,6|0,3:2|3:0,0:0:0:0:
351,345,65630,1,8,0:0:0:0:
351,345,65737,2,0,L|366:236,1,95.9999970703126,10|0,3:2|3:0,0:0:0:0:
442,79,66162,2,0,L|455:174,1,95.9999970703126,2|0,3:2|3:0,0:0:0:0:
367,156,66481,1,8,0:0:0:0:
367,156,66588,2,0,P|317:168|251:144,1,95.9999970703126,10|2,3:2|0:0,0:0:0:0:
148,37,67013,5,6,3:2:0:0:
319,91,67226,1,2,3:2:0:0:
148,37,67439,1,8,3:2:0:0:
283,8,67652,1,2,0:0:0:0:
153,136,67865,6,0,L|173:249,1,95.9999970703126,8|0,3:2|0:0,0:0:0:0:
284,360,68290,1,8,3:2:0:0:
262,227,68503,1,2,0:0:0:0:
169,350,68715,6,0,P|120:358|66:343,1,95.9999970703126,6|2,3:2|0:0,0:0:0:0:
169,230,69141,2,0,P|215:219|262:227,1,95.9999970703126,10|2,3:2|0:0,0:0:0:0:
367,325,69567,1,2,3:2:0:0:
330,181,69779,1,2,0:0:0:0:
228,308,69992,1,10,3:2:0:0:
403,244,70205,1,2,0:0:0:0:
249,134,70418,6,0,L|227:74,3,47.9999985351563,6|2|2|2,3:2|0:0|0:0|0:0,0:0:0:0:
353,38,70843,2,0,L|336:83,3,47.9999985351563,10|2|2|2,3:2|0:0|0:0|0:0,0:0:0:0:
372,169,71269,1,10,3:2:0:0:
403,159,71375,1,10,0:0:0:0:
436,164,71481,1,2,0:0:0:0:
464,183,71588,1,10,0:0:0:0:
481,212,71694,1,10,3:2:0:0:
483,245,71800,1,2,0:0:0:0:
471,276,71907,1,10,0:0:0:0:
447,299,72013,1,2,0:0:0:0:
419,316,72120,6,0,L|300:307,1,95.9999970703126,6|0,3:2|3:0,0:0:0:0:
260,258,72439,1,8,0:0:0:0:
260,258,72545,2,0,P|250:221|269:163,1,95.9999970703126,10|0,3:2|3:0,0:0:0:0:
422,212,72971,6,0,P|373:225|317:208,1,95.9999970703126,2|0,3:2|3:0,0:0:0:0:
373,137,73290,1,8,0:0:0:0:
373,137,73396,2,0,L|355:29,1,95.9999970703126,10|2,3:2|0:0,0:0:0:0:
266,167,73822,5,6,3:2:0:0:
464,106,74035,1,2,3:2:0:0:
259,160,74247,1,8,3:2:0:0:
439,221,74460,1,2,0:0:0:0:
296,260,74673,6,0,L|195:270,1,95.9999970703126,10|0,3:2|0:0,0:0:0:0:
53,279,75098,1,8,3:2:0:0:
141,359,75311,1,2,0:0:0:0:
118,206,75524,6,0,P|105:156|119:103,1,95.9999970703126,6|2,3:2|0:0,0:0:0:0:
254,31,75950,2,0,P|267:81|253:134,1,95.9999970703126,10|2,3:2|0:0,0:0:0:0:
211,277,76375,1,2,3:2:0:0:
354,188,76588,1,2,0:0:0:0:
181,153,76801,1,10,3:2:0:0:
343,275,77013,1,2,0:0:0:0:
172,364,77226,6,0,L|123:359,3,47.9999985351563,6|2|2|2,3:2|0:0|0:0|0:0,0:0:0:0:
26,287,77652,2,0,L|75:282,3,47.9999985351563,10|2|2|2,3:2|0:0|0:0|0:0,0:0:0:0:
205,245,78077,2,0,L|156:240,3,47.9999985351563,10|10|2|10,3:2|0:0|0:0|0:0,0:0:0:0:
43,196,78503,2,0,P|23:166|100:149,1,143.999995605469,10|2,3:2|0:0,0:0:0:0:
95,139,78928,6,0,L|78:17,1,95.9999970703126,6|0,3:2|0:0,0:0:0:0:
193,184,79354,2,0,L|176:62,1,95.9999970703126,10|0,3:2|0:0,0:0:0:0:
291,226,79779,2,0,L|274:104,1,95.9999970703126,10|0,3:2|0:0,0:0:0:0:
393,257,80205,2,0,L|376:135,1,95.9999970703126,10|2,3:2|0:0,0:0:0:0:
453,310,80630,6,0,P|405:338|349:328,1,95.9999970703126,6|0,3:2|0:0,0:0:0:0:
203,251,81056,2,0,P|251:223|307:233,1,95.9999970703126,10|0,3:2|0:0,0:0:0:0:
465,325,81481,2,0,P|417:353|361:343,1,95.9999970703126,10|0,3:2|0:0,0:0:0:0:
215,266,81907,2,0,P|263:238|319:248,1,95.9999970703126,10|2,3:2|0:0,0:0:0:0:
452,246,82332,6,0,B|465:193|465:193|457:127,1,95.9999970703126,6|0,3:2|0:0,0:0:0:0:
332,42,82758,2,0,B|319:95|319:95|323:136,1,95.9999970703126,10|0,3:2|0:0,0:0:0:0:
198,250,83184,2,0,B|211:197|211:197|203:131,1,95.9999970703126,10|0,3:2|0:0,0:0:0:0:
78,46,83610,2,0,B|65:99|65:99|69:140,1,95.9999970703126,10|2,3:2|0:0,0:0:0:0:
82,307,84035,6,0,L|133:329,3,47.9999985351563,14|2|10|2,3:2|0:0|0:0|0:0,0:0:0:0:
204,357,84460,2,0,L|258:349,3,47.9999985351563,10|2|10|2,3:2|0:0|0:0|0:0,0:0:0:0:
332,340,84886,2,0,L|352:286,1,47.9999985351563,10|10,3:2|0:0,0:0:0:0:
379,222,85098,2,0,L|363:158,1,47.9999985351563,2|10,0:0|0:0,0:0:0:0:
304,126,85311,2,0,L|251:97,1,47.9999985351563,14|2,3:2|0:0,0:0:0:0:
179,110,85524,2,0,L|98:124,1,47.9999985351563,10|2,0:0|0:0,0:0:0:0:
79,192,85737,5,6,3:2:0:0:
79,192,86162,2,0,P|46:161|36:110,1,80,2|0,3:2|0:0,0:0:0:0:
170,48,86588,2,0,P|158:86|128:111,1,80,2|0,3:2|0:0,0:0:0:0:
0,47,87013,2,0,P|45:34|79:45,1,80,14|8,0:0|0:0,0:0:0:0:
152,184,87439,5,12,0:0:0:0:
339,205,87652,1,8,0:0:0:0:
152,184,87864,1,8,0:0:0:0:
230,325,88077,1,8,0:0:0:0:
260,107,88290,6,0,P|296:48|318:38,1,80,8|8,0:0|0:0,0:0:0:0:
339,205,88715,1,8,0:0:0:0:
159,151,88928,1,8,0:0:0:0:
