osu file format v14

[General]
AudioFilename: audio.mp3
AudioLeadIn: 0
PreviewTime: 57758
Countdown: 0
SampleSet: Soft
StackLeniency: 0.7
Mode: 0
LetterboxInBreaks: 0
WidescreenStoryboard: 0

[Editor]
DistanceSpacing: 0.8
BeatDivisor: 4
GridSize: 4
TimelineZoom: 1

[Metadata]
Title:Maboroshi Wink (TV Version)
TitleUnicode:まぼろしウインク(TV Version)
Artist:AOP
ArtistUnicode:A応P
Creator:Hazu-
Version:Extramatsu
Source:おそ松さん
Tags:Cris- Underforest osomatsu-san osomatsusan second season opening aoup san feat zero osomatsu karamatsu choromatsu ichimatsu jyushimatsu todomatsu matsuno
BeatmapID:1515937
BeatmapSetID:717608

[Difficulty]
HPDrainRate:7
CircleSize:4
OverallDifficulty:8
ApproachRate:9
SliderMultiplier:1.8
SliderTickRate:1

[Events]
//Background and Video events
0,0,"Maboroshi Wink.jpg",0,0
//Break Periods
//Storyboard Layer 0 (Background)
//Storyboard Layer 1 (Fail)
//Storyboard Layer 2 (Pass)
//Storyboard Layer 3 (Foreground)
//Storyboard Sound Samples

[TimingPoints]
2333,425.531914893617,4,2,1,50,1,0
5737,-100,4,2,1,60,0,0
6056,-100,4,2,1,5,0,0
6162,-100,4,2,1,60,0,0
6907,-100,4,2,1,5,0,0
7013,-100,4,2,1,50,0,0
8609,-100,4,2,1,5,0,0
8715,-100,4,2,1,50,0,0
10843,-100,4,2,1,40,0,0
12545,-100,4,2,1,50,0,0
15843,-100,4,2,1,5,0,0
15950,-100,4,2,1,70,0,0
19247,-100,4,2,1,5,0,0
19354,-100,4,2,1,70,0,0
26056,-100,4,2,1,5,0,0
26162,-100,4,2,1,70,0,0
29567,-111.111111111111,4,2,1,60,0,0
58503,-100,4,2,1,70,0,1
85737,-100,4,2,1,70,0,0

[Colours]
Combo1 : 255,157,255
Combo2 : 255,91,91
Combo3 : 74,165,255
Combo4 : 160,218,97
Combo5 : 172,131,218
Combo6 : 248,218,99

[HitObjects]
196,52,2333,6,0,P|200:88|204:148,1,90,6|0,0:0|0:0,0:0:0:0:
312,268,2758,1,0,3:0:0:0:
320,252,2864,1,2,0:0:0:0:
328,236,2971,2,0,P|325:191|320:146,1,90,2|0,0:0|3:0,0:0:0:0:
132,280,3396,1,2,0:0:0:0:
140,292,3503,1,2,0:0:0:0:
148,304,3609,2,0,P|188:316|244:316,1,90,2|0,3:2|0:0,0:0:0:0:
472,224,4035,5,14,0:0:0:0:
500,189,4141,1,0,0:0:0:0:
508,145,4247,1,10,0:0:0:0:
495,103,4354,1,0,0:0:0:0:
463,72,4460,1,10,0:0:0:0:
420,60,4567,1,0,0:0:0:0:
376,70,4673,1,10,0:0:0:0:
343,100,4779,1,0,0:0:0:0:
328,142,4886,5,8,0:3:0:0:
293,170,4992,1,2,0:0:0:0:
251,184,5098,1,2,0:0:0:0:
206,179,5205,1,2,0:0:0:0:
168,156,5311,1,2,0:0:0:0:
131,131,5418,1,2,0:0:0:0:
87,120,5524,1,2,0:0:0:0:
43,128,5630,1,2,0:0:0:0:
5,150,5737,6,0,P|16:208|24:296,1,135,6|0,0:0|0:0,0:0:0:0:
56,312,6162,2,0,P|52:260|44:200,1,90,2|0,0:0|0:0,0:0:0:0:
208,72,6588,6,0,P|264:48|356:76,1,135,6|0,0:0|0:0,0:0:0:0:
356,96,7013,2,0,P|308:68|248:72,1,90,2|0,0:0|0:0,0:0:0:0:
508,196,7439,5,6,0:0:0:0:
332,200,7652,1,0,0:0:0:0:
480,112,7864,1,2,0:0:0:0:
432,292,8077,1,0,0:0:0:0:
244,156,8290,6,0,P|192:144|120:192,1,135,6|0,0:0|0:0,0:0:0:0:
100,212,8715,2,0,P|96:144|92:112,1,90,2|0,0:0|0:0,0:0:0:0:
224,304,9141,5,6,0:0:0:0:
24,316,9354,1,0,0:0:0:0:
192,212,9567,1,2,0:0:0:0:
104,376,9779,1,0,0:0:0:0:
84,144,9992,5,6,0:0:0:0:
272,196,10205,1,0,0:0:0:0:
68,232,10418,1,2,0:0:0:0:
240,112,10630,1,0,0:0:0:0:
200,320,10843,6,0,L|152:316,3,45,14|8|8|8,0:0|0:0|0:0|0:0,0:0:0:0:
68,232,11269,2,0,L|112:235,3,45,10|8|8|8,0:0|0:0|0:0|0:0,0:0:0:0:
200,192,11694,5,14,0:0:0:0:
238,168,11801,1,8,0:0:0:0:
282,161,11907,1,10,0:0:0:0:
323,176,12013,1,8,0:0:0:0:
354,208,12120,1,10,0:0:0:0:
382,243,12226,1,10,0:0:0:0:
422,262,12333,1,10,0:0:0:0:
467,261,12439,1,10,0:0:0:0:
507,240,12545,5,14,0:0:0:0:
276,380,12971,1,2,3:2:0:0:
144,144,13396,1,2,3:2:0:0:
375,4,13822,1,14,0:0:0:0:
460,44,14035,1,8,0:0:0:0:
472,52,14141,1,8,0:0:0:0:
484,60,14247,6,0,P|480:108|480:168,1,90,10|0,0:0|0:0,0:0:0:0:
312,236,14673,2,0,P|316:188|316:128,1,90,10|0,0:0|0:0,0:0:0:0:
368,356,15098,1,10,0:0:0:0:
200,260,15311,1,8,0:0:0:0:
484,224,15524,2,0,P|476:284|472:392,1,135,8|0,0:0|0:0,0:0:0:0:
392,372,15950,6,0,P|392:352|400:256,1,90,6|0,0:0|0:0,0:0:0:0:
296,128,16375,2,0,P|299:172|300:217,1,90,10|0,0:0|0:0,0:0:0:0:
207,357,16801,2,0,P|131:344|172:280,1,180,2|10,0:0|0:0,0:0:0:0:
16,236,17439,2,0,P|20:266|20:282,1,45,2|0,0:0|0:0,0:0:0:0:
8,128,17652,5,6,0:0:0:0:
224,172,17864,1,0,0:0:0:0:
92,32,18077,1,10,0:0:0:0:
164,248,18290,1,0,0:0:0:0:
164,248,18396,1,8,0:0:0:0:
164,248,18503,5,10,0:0:0:0:
228,48,18715,1,2,0:0:0:0:
48,196,18928,2,0,P|56:244|64:352,1,135,10|0,0:0|0:0,0:0:0:0:
136,368,19354,6,0,P|168:352|240:344,1,90,6|0,0:0|0:0,0:0:0:0:
416,312,19779,2,0,P|371:305|330:286,1,90,10|0,0:0|0:0,0:0:0:0:
205,163,20205,2,0,P|213:227|221:363,1,180,2|10,0:0|0:0,0:0:0:0:
320,124,20843,2,0,P|316:180|316:204,1,45,2|0,0:0|0:0,0:0:0:0:
336,16,21056,5,6,0:0:0:0:
456,168,21269,1,2,0:0:0:0:
224,108,21481,2,0,P|228:148|228:168,3,45,10|2|2|2,0:0|0:0|0:0|0:0,0:0:0:0:
176,252,21907,5,2,0:0:0:0:
138,275,22013,1,2,0:0:0:0:
93,277,22119,1,2,0:0:0:0:
54,256,22226,1,2,0:0:0:0:
30,218,22332,1,10,0:0:0:0:
29,174,22438,1,2,0:0:0:0:
50,134,22545,1,10,0:0:0:0:
88,111,22651,1,10,0:0:0:0:
132,109,22758,6,0,P|188:112|240:116,1,90,6|0,0:0|0:0,0:0:0:0:
328,264,23184,2,0,P|283:267|238:269,1,90,10|0,0:0|0:0,0:0:0:0:
464,164,23609,2,0,P|456:224|452:352,1,180,2|10,0:0|0:0,0:0:0:0:
344,160,24247,2,0,P|348:120|352:92,1,45,2|0,0:0|0:0,0:0:0:0:
336,276,24460,5,6,0:0:0:0:
464,164,24673,1,0,0:0:0:0:
248,200,24886,1,10,0:0:0:0:
472,268,25098,1,0,0:0:0:0:
472,268,25205,1,8,0:0:0:0:
472,268,25311,5,10,0:0:0:0:
376,64,25524,1,2,0:0:0:0:
344,312,25737,2,0,P|280:304|188:300,1,135,10|0,0:0|0:0,0:0:0:0:
176,332,26162,6,0,P|192:332|272:336,1,90,6|0,0:0|0:0,0:0:0:0:
412,204,26588,2,0,P|396:204|316:200,1,90,10|0,0:0|0:0,0:0:0:0:
140,232,27013,2,0,P|182:156|147:76,1,180,2|10,0:0|0:0,0:0:0:0:
328,36,27652,2,0,P|324:64|320:96,1,45,2|0,0:0|0:0,0:0:0:0:
360,168,27864,5,6,0:0:0:0:
240,60,28077,1,0,0:0:0:0:
464,112,28290,1,10,0:0:0:0:
212,172,28503,1,0,0:0:0:0:
212,172,28609,1,8,0:0:0:0:
212,172,28715,5,10,0:0:0:0:
392,40,28928,1,2,0:0:0:0:
360,268,29141,1,10,0:0:0:0:
315,263,29247,1,8,0:0:0:0:
270,260,29353,1,10,0:0:0:0:
225,257,29460,1,8,0:0:0:0:
180,256,29567,6,0,P|188:304|192:360,1,80.9999975280763,6|0,3:2|0:0,0:0:0:0:
92,232,29992,2,0,P|99:279|103:335,1,80.9999975280763,10|0,3:2|0:0,0:0:0:0:
160,160,30418,2,0,P|224:120|312:148,1,161.999995056153,2|10,3:2|3:2,0:0:0:0:
376,200,31056,1,2,0:0:0:0:
388,28,31269,6,0,P|384:64|380:120,1,80.9999975280763,2|0,3:2|0:0,0:0:0:0:
468,152,31694,2,0,P|471:111|475:71,1,80.9999975280763,10|0,3:2|0:0,0:0:0:0:
376,200,32120,1,2,3:2:0:0:
376,200,32226,1,8,0:0:0:0:
376,200,32332,1,8,0:0:0:0:
280,156,32545,2,0,P|232:156|184:164,1,80.9999975280763,10|0,3:2|0:0,0:0:0:0:
92,224,32971,5,2,3:2:0:0:
104,56,33184,2,0,L|108:104,3,40.4999987640381,2|2|10|2,0:0|0:0|3:2|0:0,0:0:0:0:
128,120,33609,1,2,0:0:0:0:
196,24,33822,2,0,L|200:72,3,40.4999987640381,2|2|2|2,3:2|0:0|0:0|0:0,0:0:0:0:
228,88,34247,2,0,P|232:128|236:192,1,80.9999975280763,10|0,3:2|0:0,0:0:0:0:
172,264,34673,5,2,3:2:0:0:
336,268,34886,2,0,L|292:264,3,40.4999987640381,2|2|10|2,0:0|0:0|3:2|0:0,0:0:0:0:
260,240,35311,1,2,0:0:0:0:
439,188,35524,5,2,3:2:0:0:
471,211,35630,1,2,0:0:0:0:
487,248,35736,1,2,0:0:0:0:
482,288,35843,1,2,0:0:0:0:
458,320,35949,1,10,3:2:0:0:
421,335,36055,1,2,0:0:0:0:
381,329,36162,1,10,0:0:0:0:
350,305,36268,1,2,0:0:0:0:
335,267,36375,6,0,P|336:232|340:176,1,80.9999975280763,6|0,3:2|0:0,0:0:0:0:
244,288,36801,2,0,P|245:247|248:207,1,80.9999975280763,10|0,3:2|0:0,0:0:0:0:
60,136,37227,2,0,P|62:176|64:216,1,80.9999975280763,2|0,3:2|0:0,0:0:0:0:
150,157,37652,2,0,P|152:197|154:237,1,80.9999975280763,10|0,3:2|0:0,0:0:0:0:
232,56,38077,6,0,P|276:52|332:68,1,80.9999975280763,2|0,3:2|0:0,0:0:0:0:
348,140,38503,2,0,P|308:147|268:143,1,80.9999975280763,10|0,3:2|0:0,0:0:0:0:
428,80,38928,1,2,3:2:0:0:
428,80,39035,1,8,0:0:0:0:
428,80,39141,1,8,0:0:0:0:
468,160,39354,2,0,P|464:192|460:248,1,80.9999975280763,10|0,3:2|0:0,0:0:0:0:
512,332,39779,5,2,3:2:0:0:
372,288,39992,2,0,L|376:336,3,40.4999987640381,2|2|10|2,0:0|0:0|3:2|0:0,0:0:0:0:
364,364,40418,1,0,0:0:0:0:
264,248,40631,2,0,L|268:296,3,40.4999987640381,2|2|8|2,3:2|0:0|3:2|0:0,0:0:0:0:
256,324,41056,1,10,3:2:0:0:
260,336,41162,1,8,0:3:0:0:
264,348,41269,1,8,0:3:0:0:
372,288,41481,5,6,3:2:0:0:
184,216,41694,2,0,L|188:264,3,40.4999987640381,2|2|10|2,0:0|0:0|3:2|0:0,0:0:0:0:
176,292,42120,1,0,0:0:0:0:
79,116,42333,5,2,3:2:0:0:
100,82,42439,1,2,0:0:0:0:
135,62,42545,1,2,0:0:0:0:
175,62,42652,1,2,0:0:0:0:
210,82,42758,1,10,3:2:0:0:
231,116,42864,1,2,0:0:0:0:
233,156,42971,1,10,0:0:0:0:
216,192,43077,1,2,0:0:0:0:
183,215,43184,6,0,P|144:212|88:212,1,80.9999975280763,6|0,3:2|0:0,0:0:0:0:
60,296,43609,2,0,P|100:296|140:299,1,80.9999975280763,10|0,3:2|0:0,0:0:0:0:
216,324,43928,1,8,0:0:0:0:
232,328,44035,1,8,3:2:0:0:
184,216,44247,1,2,0:0:0:0:
344,284,44460,2,0,P|340:316|336:380,1,80.9999975280763,10|0,3:2|0:0,0:0:0:0:
300,136,44886,5,6,3:2:0:0:
468,192,45098,2,0,P|420:192|368:196,1,80.9999975280763,2|8,0:0|3:2,0:0:0:0:
227,275,45524,1,10,0:0:0:0:
201,243,45630,1,8,0:0:0:0:
191,204,45736,1,0,3:2:0:0:
197,165,45843,1,8,0:0:0:0:
219,131,45950,2,0,P|267:135|323:135,1,80.9999975280763,10|8,0:0|3:2,0:0:0:0:
88,200,46375,1,2,0:0:0:0:
120,16,46588,6,0,P|124:56|128:112,1,80.9999975280763,6|0,3:2|0:0,0:0:0:0:
8,184,47013,2,0,P|4:143|0:103,1,80.9999975280763,14|0,3:2|0:0,0:0:0:0:
144,212,47439,1,0,3:0:0:0:
144,212,47545,1,8,0:0:0:0:
144,212,47652,1,8,0:0:0:0:
28,296,47864,1,2,3:2:0:0:
80,144,48077,1,0,0:0:0:0:
144,320,48290,5,6,3:2:0:0:
8,212,48503,1,2,0:0:0:0:
240,236,48715,2,0,P|236:277|236:340,1,80.9999975280763,10|8,3:2|0:0,0:0:0:0:
296,364,49035,1,8,0:0:0:0:
296,376,49141,1,0,3:0:0:0:
316,192,49354,1,8,0:0:0:0:
144,288,49567,1,8,3:2:0:0:
111,264,49673,1,8,0:0:0:0:
91,229,49779,1,8,0:3:0:0:
88,189,49886,1,8,0:3:0:0:
102,152,49992,6,0,P|144:144|192:140,1,80.9999975280763,6|0,3:2|0:0,0:0:0:0:
288,32,50418,2,0,P|246:40|198:44,1,80.9999975280763,14|0,3:2|0:0,0:0:0:0:
384,104,50843,1,0,3:0:0:0:
384,104,50950,1,8,0:0:0:0:
384,104,51056,1,8,0:0:0:0:
256,168,51269,1,10,3:2:0:0:
288,32,51481,1,0,0:0:0:0:
360,204,51694,5,6,3:2:0:0:
164,152,51907,2,0,P|168:116|172:52,1,80.9999975280763,2|8,0:0|3:2,0:0:0:0:
256,248,52333,2,0,P|252:284|248:348,1,80.9999975280763,2|0,0:0|3:0,0:0:0:0:
172,348,52652,1,8,0:0:0:0:
168,364,52758,1,10,0:0:0:0:
340,248,52971,1,8,3:2:0:0:
76,224,53184,1,8,0:0:0:0:
80,236,53290,1,8,0:0:0:0:
84,248,53396,5,6,0:0:0:0:
388,96,54035,1,2,0:0:0:0:
280,64,54247,2,0,P|292:112|304:196,2,121.499996292114,6|2|2,0:0|0:0|0:0,0:0:0:0:
136,36,55098,5,8,0:0:0:0:
96,43,55204,1,8,0:0:0:0:
66,69,55310,1,8,0:0:0:0:
54,108,55417,1,8,0:0:0:0:
63,147,55523,1,8,0:0:0:0:
90,176,55629,1,8,0:0:0:0:
129,186,55736,1,8,0:0:0:0:
168,176,55842,1,8,0:0:0:0:
196,147,55950,5,8,0:0:0:0:
224,118,56057,1,8,0:0:0:0:
263,108,56163,1,8,0:0:0:0:
302,118,56270,1,8,0:0:0:0:
329,147,56376,1,8,0:0:0:0:
338,186,56482,1,8,0:0:0:0:
326,225,56589,1,8,0:0:0:0:
296,251,56695,1,8,0:0:0:0:
256,258,56801,6,0,P|216:252|192:244,1,40.4999987640381,2|2,0:0|0:0,0:0:0:0:
452,224,57013,2,0,P|472:225|491:229,1,40.4999987640381,2|2,0:0|0:0,0:0:0:0:
268,180,57226,6,0,P|240:143|228:118,1,40.4999987640381,2|2,0:0|0:0,0:0:0:0:
446,305,57438,2,0,P|459:321|472:340,1,40.4999987640381,2|2,0:0|0:0,0:0:0:0:
332,120,57652,6,0,P|338:76|347:49,1,40.4999987640381,2|2,0:0|0:0,0:0:0:0:
368,333,57864,2,0,P|365:354|361:375,1,40.4999987640381,2|2,0:0|0:0,0:0:0:0:
420,112,58077,6,0,P|459:81|480:72,1,40.4999987640381,4|2,0:1|0:0,0:0:0:0:
279,309,58289,2,0,P|259:323|238:338,1,40.4999987640381,2|2,0:0|0:0,0:0:0:0:
476,232,58503,6,0,P|468:284|464:352,1,90,6|0,3:2|3:0,0:0:0:0:
388,340,58822,1,8,0:0:0:0:
384,356,58928,1,10,3:2:0:0:
404,164,59141,1,0,3:0:0:0:
188,268,59354,2,0,P|228:260|284:256,1,90,2|0,3:2|3:0,0:0:0:0:
360,268,59673,1,8,0:0:0:0:
376,264,59779,1,8,3:2:0:0:
208,160,59992,1,2,0:0:0:0:
140,360,60205,5,6,3:2:0:0:
288,248,60418,1,2,3:2:0:0:
288,248,60524,1,8,0:0:0:0:
288,248,60630,1,8,3:2:0:0:
100,188,60843,1,2,0:0:0:0:
240,348,61056,5,10,3:2:0:0:
284,343,61162,1,8,0:0:0:0:
329,339,61268,1,0,0:0:0:0:
376,336,61375,1,8,0:0:0:0:
420,334,61481,2,0,P|412:280|408:240,1,90,8|2,3:2|0:0,0:0:0:0:
304,96,61907,5,6,3:2:0:0:
500,152,62120,1,2,0:0:0:0:
224,172,62333,1,8,3:2:0:0:
432,84,62545,1,2,0:0:0:0:
192,48,62758,5,2,3:2:0:0:
360,160,62971,1,2,0:0:0:0:
136,208,63184,1,10,3:2:0:0:
300,80,63396,1,2,0:0:0:0:
72,48,63609,6,0,P|76:68|80:116,1,45,6|2,3:2|0:0,0:0:0:0:
224,220,63822,2,0,P|220:200|216:152,1,45,2|2,0:0|0:0,0:0:0:0:
160,12,64035,2,0,P|164:32|168:80,1,45,10|2,3:2|0:0,0:0:0:0:
312,184,64248,2,0,P|308:164|304:116,1,45,2|2,0:0|0:0,0:0:0:0:
128,184,64460,5,10,3:2:0:0:
96,215,64566,1,10,0:0:0:0:
84,258,64672,1,2,0:0:0:0:
92,302,64779,1,10,0:0:0:0:
120,336,64885,1,10,3:2:0:0:
161,354,64991,1,2,0:0:0:0:
205,351,65098,1,10,0:0:0:0:
243,327,65204,1,2,0:0:0:0:
265,288,65311,6,0,P|260:240|252:192,1,90,6|0,3:2|3:0,0:0:0:0:
260,120,65630,1,8,0:0:0:0:
256,108,65737,1,10,3:2:0:0:
168,260,65950,1,0,3:0:0:0:
360,168,66162,2,0,P|365:216|373:264,1,90,2|0,3:2|3:0,0:0:0:0:
365,336,66481,1,8,0:0:0:0:
369,348,66588,1,10,3:2:0:0:
457,196,66801,1,2,0:0:0:0:
252,272,67013,5,6,3:2:0:0:
464,308,67226,1,2,3:2:0:0:
464,308,67332,1,8,0:0:0:0:
464,308,67439,1,8,3:2:0:0:
376,120,67652,1,2,0:0:0:0:
308,352,67864,5,8,3:2:0:0:
266,367,67970,1,8,0:0:0:0:
221,362,68076,1,0,0:0:0:0:
184,338,68183,1,8,0:0:0:0:
161,300,68290,2,0,P|168:240|176:200,1,90,8|2,3:2|0:0,0:0:0:0:
44,64,68715,5,6,3:2:0:0:
68,256,68928,1,2,0:0:0:0:
200,96,69141,1,10,3:2:0:0:
36,160,69354,1,2,0:0:0:0:
256,224,69567,5,2,3:2:0:0:
116,116,69779,1,2,0:0:0:0:
161,300,69992,1,10,3:2:0:0:
280,116,70205,1,2,0:0:0:0:
24,128,70418,6,0,P|28:152|32:204,1,45,6|2,3:2|0:0,0:0:0:0:
228,244,70631,2,0,P|225:221|221:199,1,45,2|2,0:0|0:0,0:0:0:0:
100,72,70843,2,0,P|104:96|108:148,1,45,10|2,3:2|0:0,0:0:0:0:
304,188,71056,2,0,P|301:165|297:143,1,45,2|2,0:0|0:0,0:0:0:0:
144,300,71269,5,10,3:2:0:0:
172,334,71375,1,10,0:0:0:0:
212,355,71481,1,2,0:0:0:0:
256,353,71588,1,10,0:0:0:0:
294,329,71694,1,10,3:2:0:0:
329,301,71800,1,2,0:0:0:0:
372,290,71907,1,10,0:0:0:0:
415,301,72013,1,2,0:0:0:0:
449,330,72120,6,0,P|444:272|440:220,1,90,6|0,3:2|3:0,0:0:0:0:
464,160,72439,1,8,0:0:0:0:
460,144,72545,1,10,3:2:0:0:
296,224,72758,1,0,3:0:0:0:
336,28,72971,2,0,P|344:68|348:120,1,90,2|0,3:2|3:0,0:0:0:0:
384,192,73290,1,8,0:0:0:0:
388,208,73396,1,10,3:2:0:0:
456,48,73609,1,2,0:0:0:0:
248,164,73822,5,6,3:2:0:0:
484,232,74035,1,2,3:2:0:0:
484,232,74141,1,8,0:0:0:0:
484,232,74247,1,8,3:2:0:0:
372,56,74460,1,2,0:0:0:0:
316,288,74673,5,10,3:2:0:0:
271,284,74779,1,8,0:0:0:0:
226,281,74885,1,0,0:0:0:0:
181,280,74992,1,8,0:0:0:0:
136,279,75098,2,0,P|144:320|148:376,1,90,8|2,3:2|0:0,0:0:0:0:
24,144,75524,5,6,3:2:0:0:
192,192,75737,1,2,0:0:0:0:
16,252,75950,1,10,3:2:0:0:
156,108,76163,1,2,0:0:0:0:
168,320,76375,5,2,3:2:0:0:
64,156,76588,1,2,0:0:0:0:
240,240,76801,1,10,3:2:0:0:
16,252,77013,1,2,0:0:0:0:
192,88,77226,6,0,P|188:112|184:152,1,45,6|2,3:2|0:0,0:0:0:0:
100,324,77439,2,0,P|104:300|108:260,1,45,2|2,0:0|0:0,0:0:0:0:
276,140,77652,2,0,P|272:164|268:204,1,45,10|2,3:2|0:0,0:0:0:0:
184,376,77865,2,0,P|188:352|192:312,1,45,2|2,0:0|0:0,0:0:0:0:
364,216,78077,5,10,3:2:0:0:
408,220,78183,1,10,0:0:0:0:
442,248,78289,1,2,0:0:0:0:
457,290,78396,1,10,0:0:0:0:
447,333,78502,1,10,3:2:0:0:
415,364,78608,1,2,0:0:0:0:
372,373,78715,1,10,0:0:0:0:
330,358,78821,1,2,0:0:0:0:
304,324,78928,6,0,P|256:312|204:308,1,90,6|0,3:2|0:0,0:0:0:0:
444,188,79354,2,0,P|396:199|344:203,1,90,10|0,3:2|0:0,0:0:0:0:
176,216,79779,1,10,3:2:0:0:
140,188,79885,1,8,0:0:0:0:
122,148,79991,1,0,0:0:0:0:
124,103,80098,1,8,0:0:0:0:
146,65,80205,2,0,P|200:56|248:52,1,90,10|2,3:2|0:0,0:0:0:0:
8,152,80630,6,0,P|5:107|0:62,1,90,6|0,3:2|0:0,0:0:0:0:
136,152,81056,2,0,P|131:196|128:242,1,90,10|0,3:2|0:0,0:0:0:0:
48,348,81481,1,10,3:2:0:0:
88,328,81587,1,8,0:0:0:0:
132,324,81693,1,0,0:0:0:0:
175,336,81800,1,8,0:0:0:0:
211,363,81907,2,0,P|248:356|308:352,1,90,10|2,3:2|0:0,0:0:0:0:
376,180,82332,5,6,3:2:0:0:
460,328,82545,1,0,0:0:0:0:
428,116,82758,1,10,3:2:0:0:
376,280,82971,1,0,0:0:0:0:
324,64,83184,1,10,3:2:0:0:
286,39,83290,1,8,0:0:0:0:
242,30,83396,1,0,0:0:0:0:
198,36,83503,1,8,0:0:0:0:
159,57,83609,2,0,P|168:112|172:160,1,90,10|2,3:2|0:0,0:0:0:0:
96,284,84035,6,0,P|99:306|100:328,3,45,14|2|10|2,3:2|0:0|0:0|0:0,0:0:0:0:
284,236,84460,2,0,P|280:213|279:191,3,45,10|2|10|2,3:2|0:0|0:0|0:0,0:0:0:0:
116,92,84886,5,10,3:2:0:0:
93,130,84992,1,10,0:0:0:0:
93,174,85098,1,2,0:0:0:0:
116,212,85205,1,10,0:0:0:0:
154,233,85311,1,14,3:2:0:0:
193,255,85417,1,2,0:0:0:0:
216,293,85524,1,10,0:0:0:0:
216,337,85630,1,2,0:0:0:0:
194,376,85737,6,0,P|168:372|84:368,1,90,6|0,3:2|0:0,0:0:0:0:
308,264,86162,2,0,P|334:268|418:272,1,90,2|0,3:2|0:0,0:0:0:0:
168,120,86588,2,0,P|152:168|212:264,1,135,2|0,3:2|0:0,0:0:0:0:
204,260,87013,1,6,0:0:0:0:
288,104,87226,1,0,3:0:0:0:
292,116,87332,1,0,3:0:0:0:
296,128,87439,5,12,0:0:0:0:
116,48,87652,1,8,0:0:0:0:
360,36,87864,1,8,0:0:0:0:
164,168,88077,1,8,0:0:0:0:
404,152,88290,5,8,0:0:0:0:
228,52,88503,1,8,0:0:0:0:
320,260,88715,1,8,0:0:0:0:
368,24,88928,1,8,0:0:0:0:
