osu file format v14

[General]
AudioFilename: audio.mp3
AudioLeadIn: 0
PreviewTime: 57758
Countdown: 0
SampleSet: Soft
StackLeniency: 0.7
Mode: 0
LetterboxInBreaks: 0
WidescreenStoryboard: 0

[Editor]
DistanceSpacing: 1
BeatDivisor: 4
GridSize: 4
TimelineZoom: 1

[Metadata]
Title:Maboroshi Wink (TV Version)
TitleUnicode:まぼろしウインク(TV Version)
Artist:AOP
ArtistUnicode:A応P
Creator:Hazu-
Version:Easy
Source:おそ松さん
Tags:Cris- Underforest osomatsu-san osomatsusan second season opening aoup san feat zero osomatsu karamatsu choromatsu ichimatsu jyushimatsu todomatsu matsuno
BeatmapID:1517535
BeatmapSetID:717608

[Difficulty]
HPDrainRate:3
CircleSize:3
OverallDifficulty:3
ApproachRate:3
SliderMultiplier:0.899999999999999
SliderTickRate:1

[Events]
//Background and Video events
0,0,"Maboroshi Wink.jpg",0,0
//Break Periods
//Storyboard Layer 0 (Background)
//Storyboard Layer 1 (Fail)
//Storyboard Layer 2 (Pass)
//Storyboard Layer 3 (Foreground)
//Storyboard Sound Samples

[TimingPoints]
2333,425.531914893617,4,2,1,50,1,0
5737,-100,4,2,1,60,0,0
6056,-100,4,2,1,5,0,0
6162,-100,4,2,1,60,0,0
6907,-100,4,2,1,5,0,0
7013,-100,4,2,1,50,0,0
8609,-100,4,2,1,5,0,0
8715,-100,4,2,1,50,0,0
10843,-100,4,2,1,40,0,0
12545,-100,4,2,1,50,0,0
15843,-100,4,2,1,5,0,0
15950,-100,4,2,1,70,0,0
19247,-100,4,2,1,5,0,0
19354,-100,4,2,1,70,0,0
26056,-100,4,2,1,5,0,0
26162,-100,4,2,1,70,0,0
29567,-100,4,2,1,60,0,0
58503,-100,4,2,1,70,0,1
85737,-100,4,2,1,70,0,0

[Colours]
Combo1 : 255,157,255
Combo2 : 255,91,91
Combo3 : 74,165,255
Combo4 : 160,218,97
Combo5 : 172,131,218
Combo6 : 248,218,99

[HitObjects]
104,192,2333,6,0,P|100:132|88:44,2,135,6|2|2,0:0|0:0|3:2,0:0:0:0:
152,268,4035,2,0,B|280:332|280:216|424:296,1,270,14|2,0:0|0:0,0:0:0:0:
496,324,5737,6,0,P|492:288|488:220,1,89.9999999999999,6|2,0:0|0:0,0:0:0:0:
428,164,6588,2,0,P|432:128|436:60,1,89.9999999999999,6|2,0:0|0:0,0:0:0:0:
344,68,7439,2,0,P|341:112|336:157,2,89.9999999999999,6|2|6,0:0|0:0|0:0,0:0:0:0:
268,20,8715,1,2,0:0:0:0:
196,76,9141,6,0,P|160:76|104:68,1,89.9999999999999,6|2,0:0|0:0,0:0:0:0:
20,48,9992,2,0,P|24:80|28:144,1,89.9999999999999,6|2,0:0|0:0,0:0:0:0:
12,228,10843,2,0,B|60:216|103:221|103:221|136:248|178:264|178:264|232:252|286:256,1,270,14|10,0:0|0:0,0:0:0:0:
348,212,12545,6,0,P|392:208|444:204,2,89.9999999999999,14|2|2,0:0|3:2|3:2,0:0:0:0:
268,176,13822,1,14,0:0:0:0:
224,252,14247,2,0,P|228:288|232:352,1,89.9999999999999,10|10,0:0|0:0,0:0:0:0:
144,360,15098,2,0,P|141:315|136:270,1,89.9999999999999,10|8,0:0|0:0,0:0:0:0:
88,192,15950,6,0,P|85:147|80:102,2,89.9999999999999,6|10|2,0:0|0:0|0:0,0:0:0:0:
48,272,17226,1,10,0:0:0:0:
136,296,17652,2,0,P|184:292|232:292,1,89.9999999999999,6|10,0:0|0:0,0:0:0:0:
308,332,18503,2,0,P|356:328|404:328,1,89.9999999999999,10|10,0:0|0:0,0:0:0:0:
476,280,19354,6,0,P|480:336|484:372,2,89.9999999999999,6|10|2,0:0|0:0|0:0,0:0:0:0:
436,200,20630,1,10,0:0:0:0:
360,252,21056,2,0,B|232:296|232:176|100:228,1,270,6|10,0:0|0:0,0:0:0:0:
16,200,22758,6,0,P|24:248|28:300,2,89.9999999999999,6|10|2,0:0|0:0|0:0,0:0:0:0:
48,116,24035,1,10,0:0:0:0:
136,136,24460,2,0,P|184:136|236:128,1,89.9999999999999,6|10,0:0|0:0,0:0:0:0:
308,96,25311,2,0,P|352:90|397:90,1,89.9999999999999,10|10,0:0|0:0,0:0:0:0:
484,116,26162,6,0,P|480:80|476:20,2,89.9999999999999,6|10|2,0:0|0:0|0:0,0:0:0:0:
448,196,27439,1,10,0:0:0:0:
408,276,27864,2,0,P|410:320|415:365,1,89.9999999999999,6|10,0:0|0:0,0:0:0:0:
328,380,28715,2,0,P|323:335|320:290,1,89.9999999999999,10|10,0:0|0:0,0:0:0:0:
268,216,29567,6,0,P|224:196|96:248,1,180,6|2,3:2|3:2,0:0:0:0:
44,300,30843,1,10,3:2:0:0:
0,220,31269,2,0,B|6:160|6:160|32:106|32:106|39:39,1,180,2|2,3:2|3:2,0:0:0:0:
124,16,32545,1,10,3:2:0:0:
168,96,32971,6,0,P|204:92|272:88,1,89.9999999999999,2|10,3:2|3:2,0:0:0:0:
344,116,33822,2,0,P|380:112|448:108,1,89.9999999999999,2|10,3:2|3:2,0:0:0:0:
448,196,34673,2,0,P|403:198|358:203,2,89.9999999999999,2|10|2,3:2|3:2|3:2,0:0:0:0:
504,268,35950,1,10,3:2:0:0:
440,332,36375,6,0,P|395:334|240:348,1,180,6|2,3:2|3:2,0:0:0:0:
176,376,37652,1,10,3:2:0:0:
116,308,38077,2,0,P|88:236|128:128,1,180,2|2,3:2|3:2,0:0:0:0:
172,72,39354,1,10,3:2:0:0:
260,92,39779,6,0,P|308:84|352:80,1,89.9999999999999,2|10,3:2|3:2,0:0:0:0:
364,168,40630,2,0,P|319:172|274:179,1,89.9999999999999,2|10,3:2|3:2,0:0:0:0:
196,224,41481,2,0,P|151:219|106:212,2,89.9999999999999,6|10|2,3:2|3:2|3:2,0:0:0:0:
272,268,42758,1,10,3:2:0:0:
352,232,43184,5,6,3:2:0:0:
424,284,43609,2,0,P|440:216|364:144,1,180,10|10,3:2|3:2,0:0:0:0:
280,120,44886,2,0,P|232:128|132:140,2,135,6|10|8,3:2|0:0|3:2,0:0:0:0:
348,60,46588,5,6,3:2:0:0:
272,16,47013,2,0,P|200:28|80:40,1,180,14|2,3:2|3:2,0:0:0:0:
32,108,48290,1,6,3:2:0:0:
116,140,48715,2,0,P|152:136|212:128,2,89.9999999999999,10|0|8,3:2|3:0|3:2,0:0:0:0:
32,108,49992,5,6,3:2:0:0:
0,192,50418,2,0,P|8:256|16:384,1,180,14|10,3:2|3:2,0:0:0:0:
104,348,51694,2,0,P|99:286|92:204,2,135,6|2|8,3:2|0:0|3:2,0:0:0:0:
192,360,53396,5,6,0:0:0:0:
272,200,54247,1,6,0:0:0:0:
112,116,55098,2,0,P|120:156|124:220,1,89.9999999999999,8|8,0:0|0:0,0:0:0:0:
44,244,55950,2,0,P|47:288|56:332,1,89.9999999999999,8|8,0:0|0:0,0:0:0:0:
140,364,56801,2,0,B|268:396|268:296|404:328,1,270,2|4,0:0|0:1,0:0:0:0:
480,368,58503,6,0,P|492:320|484:268,1,89.9999999999999,6|10,3:2|3:2,0:0:0:0:
468,192,59354,2,0,P|456:148|460:104,1,89.9999999999999,2|8,3:2|3:2,0:0:0:0:
412,28,60205,2,0,P|460:16|516:36,2,89.9999999999999,6|8|10,3:2|3:2|3:2,0:0:0:0:
332,68,61481,1,8,3:2:0:0:
252,108,61907,6,0,P|208:117|165:105,1,89.9999999999999,6|8,3:2|3:2,0:0:0:0:
84,64,62758,2,0,P|72:100|92:164,1,89.9999999999999,2|10,3:2|3:2,0:0:0:0:
88,240,63609,2,0,B|174:226|174:226|259:249|259:249|370:231,1,270,6|10,3:2|3:2,0:0:0:0:
428,184,65311,6,0,P|444:220|432:280,1,89.9999999999999,6|10,3:2|3:2,0:0:0:0:
396,348,66162,2,0,P|352:340|292:336,1,89.9999999999999,2|10,3:2|3:2,0:0:0:0:
220,312,67013,2,0,P|176:320|116:324,2,89.9999999999999,6|8|8,3:2|3:2|3:2,0:0:0:0:
308,336,68290,1,8,3:2:0:0:
368,272,68715,6,0,P|364:224|356:180,1,89.9999999999999,6|10,3:2|3:2,0:0:0:0:
416,112,69566,2,0,P|412:64|404:20,1,89.9999999999999,2|10,3:2|3:2,0:0:0:0:
316,24,70418,2,0,P|208:72|236:212,1,270,6|10,3:2|3:2,0:0:0:0:
308,240,72120,6,0,P|352:232|412:228,1,89.9999999999999,6|10,3:2|3:2,0:0:0:0:
412,316,72971,2,0,P|367:319|322:327,1,89.9999999999999,2|10,3:2|3:2,0:0:0:0:
236,352,73822,2,0,P|191:348|146:340,2,89.9999999999999,6|8|10,3:2|3:2|3:2,0:0:0:0:
322,326,75098,1,8,3:2:0:0:
408,300,75524,6,0,P|452:303|497:311,1,89.9999999999999,6|10,3:2|3:2,0:0:0:0:
512,220,76375,2,0,P|516:164|504:124,1,89.9999999999999,2|10,3:2|3:2,0:0:0:0:
436,76,77226,2,0,B|352:60|352:60|160:92,1,270,6|10,3:2|3:2,0:0:0:0:
92,44,78928,6,0,P|48:48|0:56,2,89.9999999999999,6|10|10,3:2|3:2|3:2,0:0:0:0:
170,90,80205,1,10,3:2:0:0:
244,140,80630,2,0,P|288:136|336:128,2,89.9999999999999,6|10|10,3:2|3:2|3:2,0:0:0:0:
180,200,81907,1,10,3:2:0:0:
120,132,82332,6,0,P|124:88|128:28,1,89.9999999999999,6|10,3:2|3:2,0:0:0:0:
36,32,83184,2,0,P|32:76|28:121,1,89.9999999999999,10|10,3:2|3:2,0:0:0:0:
20,212,84035,2,0,P|72:300|236:268,1,270,14|14,3:2|3:2,0:0:0:0:
304,244,85737,6,0,P|352:240|408:244,1,89.9999999999999,6|2,3:2|3:2,0:0:0:0:
392,152,86588,2,0,P|347:149|302:153,1,89.9999999999999,2|6,3:2|0:0,0:0:0:0:
216,128,87439,2,0,P|171:131|126:129,1,89.9999999999999,12|8,0:0|0:0,0:0:0:0:
44,92,88290,1,8,0:0:0:0:
4,172,88715,2,0,L|6:216,1,45,8|8,0:0|0:0,0:0:0:0:
