osu file format v14

[General]
AudioFilename: audio.mp3
AudioLeadIn: 0
PreviewTime: 57758
Countdown: 0
SampleSet: Soft
StackLeniency: 0.7
Mode: 0
LetterboxInBreaks: 0
WidescreenStoryboard: 0

[Editor]
DistanceSpacing: 1.2
BeatDivisor: 4
GridSize: 4
TimelineZoom: 1.7

[Metadata]
Title:Maboroshi Wink (TV Version)
TitleUnicode:まぼろしウインク(TV Version)
Artist:AOP
ArtistUnicode:A応P
Creator:Hazu-
Version:Cris' Hard
Source:おそ松さん
Tags:Cris- Underforest osomatsu-san osomatsusan second season opening aoup san feat zero osomatsu karamatsu choromatsu ichimatsu jyushimatsu todomatsu matsuno
BeatmapID:1522224
BeatmapSetID:717608

[Difficulty]
HPDrainRate:5
CircleSize:4
OverallDifficulty:6
ApproachRate:7
SliderMultiplier:1.4
SliderTickRate:1

[Events]
//Background and Video events
0,0,"Maboroshi Wink.jpg",0,0
//Break Periods
//Storyboard Layer 0 (Background)
//Storyboard Layer 1 (Fail)
//Storyboard Layer 2 (Pass)
//Storyboard Layer 3 (Foreground)
//Storyboard Sound Samples

[TimingPoints]
2333,425.531914893617,4,2,1,50,1,0
5737,-100,4,2,1,60,0,0
7013,-100,4,2,1,50,0,0
10843,-100,4,2,1,40,0,0
12545,-100,4,2,1,50,0,0
15950,-100,4,2,1,70,0,0
29567,-100,4,2,1,60,0,0
53822,-100,4,2,1,40,0,0
54247,-100,4,2,1,60,0,0
54673,-100,4,2,1,40,0,0
55098,-100,4,2,1,60,0,0
56375,-100,4,2,1,40,0,0
56801,-100,4,2,1,60,0,0
58503,-100,4,2,1,70,0,1
85737,-100,4,2,1,70,0,0

[Colours]
Combo1 : 255,157,255
Combo2 : 255,91,91
Combo3 : 74,165,255
Combo4 : 160,218,97
Combo5 : 172,131,218
Combo6 : 248,218,99

[HitObjects]
196,48,2333,6,0,P|188:84|196:116,1,70,6|0,0:0|0:0,0:0:0:0:
268,160,2758,2,0,P|304:168|336:160,1,70,0|2,3:0|0:0,0:0:0:0:
404,112,3184,1,0,3:0:0:0:
472,160,3396,2,0,L|464:196,1,35,2|2,0:0|0:0,0:0:0:0:
452,236,3609,2,0,B|460:268|460:268|452:304,1,70,2|0,3:2|0:0,0:0:0:0:
404,376,4035,6,0,L|370:368,3,35,14|0|10|0,0:0|0:0|0:0|0:0,0:0:0:0:
328,356,4460,2,0,L|293:363,3,35,10|0|10|0,0:0|0:0|0:0|0:0,0:0:0:0:
252,368,4886,2,0,L|216:360,3,35,8|2|2|2,0:3|0:0|0:0|0:0,0:0:0:0:
176,352,5311,2,0,L|140:360,3,35,2|2|2|2,0:0|0:0|0:0|0:0,0:0:0:0:
100,372,5737,6,0,B|128:304|80:304|100:236,1,140,6|2,0:0|0:0,0:0:0:0:
224,124,6588,2,0,P|164:96|96:124,1,140,6|2,0:0|0:0,0:0:0:0:
160,180,7226,1,0,0:0:0:0:
224,236,7439,6,0,P|260:244|292:236,1,70,6|0,0:0|0:0,0:0:0:0:
356,180,7864,2,0,P|364:148|356:112,1,70,2|0,0:0|0:0,0:0:0:0:
288,64,8290,1,6,0:0:0:0:
276,148,8503,1,0,0:0:0:0:
356,180,8715,2,0,L|425:172,1,70,2|0,0:0|0:0,0:0:0:0:
488,112,9141,6,0,P|512:172|480:240,1,140,6|2,0:0|0:0,0:0:0:0:
425,171,9779,1,0,0:0:0:0:
368,236,9992,2,0,B|328:256|328:256|232:236,1,140,6|2,0:0|0:0,0:0:0:0:
156,204,10630,1,0,0:0:0:0:
80,236,10843,6,0,P|72:204|80:168,1,70,14|8,0:0|0:0,0:0:0:0:
104,132,11162,1,8,0:0:0:0:
104,132,11269,2,0,L|138:124,3,35,10|8|8|8,0:0|0:0|0:0|0:0,0:0:0:0:
180,112,11694,2,0,L|216:120,3,35,14|8|10|8,0:0|0:0|0:0|0:0,0:0:0:0:
256,124,12120,2,0,L|292:116,3,35,10|10|10|10,0:0|0:0|0:0|0:0,0:0:0:0:
332,112,12545,6,0,P|392:136|460:112,1,140,14|2,0:0|3:2,0:0:0:0:
460,280,13396,2,0,P|400:256|332:280,1,140,2|14,3:2|0:0,0:0:0:0:
272,340,14035,1,8,0:0:0:0:
212,280,14247,5,10,0:0:0:0:
272,220,14460,1,0,0:0:0:0:
212,160,14673,2,0,P|176:152|144:160,1,70,10|0,0:0|0:0,0:0:0:0:
84,220,15098,1,10,0:0:0:0:
84,220,15311,1,8,0:0:0:0:
24,160,15524,2,0,P|16:124|24:92,1,70,8|0,0:0|0:0,0:0:0:0:
80,28,15950,6,0,B|124:36|124:36|172:20|172:20|216:28,1,140,6|10,0:0|0:0,0:0:0:0:
272,92,16588,1,0,0:0:0:0:
210,150,16801,2,0,P|271:178|333:150,1,140,2|10,0:0|0:0,0:0:0:0:
272,92,17439,1,2,0:0:0:0:
210,150,17652,6,0,P|218:182|210:218,1,70,6|0,0:0|0:0,0:0:0:0:
134,182,18077,2,0,P|102:190|66:182,1,70,10|0,0:0|0:0,0:0:0:0:
101,105,18503,2,0,P|93:72|101:38,1,70,10|2,0:0|0:0,0:0:0:0:
177,74,18928,2,0,P|211:65|245:74,1,70,10|0,0:0|0:0,0:0:0:0:
210,150,19354,6,0,B|234:194|234:194|210:282,1,140,6|10,0:0|0:0,0:0:0:0:
148,338,19992,1,0,0:0:0:0:
86,280,20205,2,0,P|150:252|210:280,1,140,2|10,0:0|0:0,0:0:0:0:
276,332,20843,1,2,0:0:0:0:
344,280,21056,6,0,B|380:288|380:288|412:280,1,70,6|2,0:0|0:0,0:0:0:0:
480,228,21481,2,0,B|488:192|488:192|480:160,1,70,10|2,0:0|0:0,0:0:0:0:
412,108,21907,2,0,L|378:115,3,35,2|2|2|2,0:0|0:0|0:0|0:0,0:0:0:0:
336,124,22332,2,0,L|300:116,3,35,10|2|10|10,0:0|0:0|0:0|0:0,0:0:0:0:
260,108,22758,6,0,B|232:176|288:176|260:244,1,140,6|10,0:0|0:0,0:0:0:0:
208,312,23396,1,0,0:0:0:0:
264,376,23609,2,0,B|308:364|308:364|352:380|352:380|398:368,1,140,2|10,0:0|0:0,0:0:0:0:
464,312,24247,1,2,0:0:0:0:
396,260,24460,6,0,L|388:188,1,70,6|0,0:0|0:0,0:0:0:0:
308,164,24886,2,0,L|316:236,1,70,10|0,0:0|0:0,0:0:0:0:
240,272,25311,2,0,L|232:200,1,70,10|2,0:0|0:0,0:0:0:0:
152,172,25737,2,0,L|160:244,1,70,10|0,0:0|0:0,0:0:0:0:
168,324,26162,6,0,B|136:312|108:324|108:324|96:312|96:312|64:324|36:312,1,140,6|10,0:0|0:0,0:0:0:0:
0,236,26800,1,0,0:0:0:0:
36,160,27013,2,0,B|56:124|36:92|36:92|68:112|100:92,1,140,2|10,0:0|0:0,0:0:0:0:
160,32,27651,1,2,0:0:0:0:
220,92,27864,6,0,B|256:100|256:100|288:92,1,70,6|0,0:0|0:0,0:0:0:0:
348,32,28290,2,0,B|384:24|384:24|416:32,1,70,10|0,0:0|0:0,0:0:0:0:
476,92,28715,2,0,L|484:128,3,35,10|0|2|0,0:0|0:0|0:0|0:0,0:0:0:0:
492,168,29140,2,0,L|484:204,3,35,10|8|10|8,0:0|0:0|0:0|0:0,0:0:0:0:
472,244,29567,6,0,P|439:252|405:244,1,70,6|0,3:2|0:0,0:0:0:0:
327,208,29992,2,0,P|318:241|326:274,1,70,10|0,3:2|0:0,0:0:0:0:
404,243,30418,2,0,P|404:172|356:128,1,140,2|10,3:2|3:2,0:0:0:0:
327,208,31056,1,2,0:0:0:0:
404,243,31269,6,0,L|476:251,1,70,2|0,3:2|0:0,0:0:0:0:
464,336,31694,2,0,L|392:328,1,70,10|0,3:2|0:0,0:0:0:0:
328,380,32120,1,2,3:2:0:0:
328,380,32226,1,8,0:0:0:0:
328,380,32332,1,8,0:0:0:0:
260,328,32545,2,0,P|228:320|192:328,1,70,10|0,3:2|0:0,0:0:0:0:
124,380,32971,5,2,3:2:0:0:
56,328,33184,2,0,L|20:320,4,35,2|2|10|2|2,0:0|0:0|3:2|0:0|0:0,0:0:0:0:
124,276,33822,2,0,L|160:268,4,35,2|2|2|2|10,3:2|0:0|0:0|0:0|3:2,0:0:0:0:
56,224,34460,1,0,0:0:0:0:
124,172,34673,5,2,3:2:0:0:
56,120,34886,2,0,L|48:84,4,35,2|2|10|2|2,0:0|0:0|3:2|0:0|0:0,0:0:0:0:
124,172,35524,2,0,L|117:206,3,35,2|2|2|2,3:2|0:0|0:0|0:0,0:0:0:0:
108,248,35950,2,0,L|116:288,3,35,10|0|10|0,3:2|0:0|0:0|0:0,0:0:0:0:
124,324,36375,6,0,B|160:332|160:332|192:324,1,70,6|0,3:2|0:0,0:0:0:0:
268,284,36801,2,0,B|300:276|300:276|336:284,1,70,10|0,3:2|0:0,0:0:0:0:
412,324,37226,2,0,L|419:254,1,70,2|0,3:2|0:0,0:0:0:0:
476,188,37652,2,0,L|468:116,1,70,10|0,3:2|0:0,0:0:0:0:
420,48,38077,6,0,B|352:72|352:20|284:48,1,140,2|10,3:2|3:2,0:0:0:0:
207,83,38715,1,0,0:0:0:0:
131,47,38928,2,0,P|123:83|131:115,1,70,2|8,3:2|0:0,0:0:0:0:
208,151,39354,2,0,P|215:117|207:83,1,70,10|0,3:2|0:0,0:0:0:0:
131,115,39779,5,2,3:2:0:0:
56,152,39992,2,0,L|20:144,4,35,2|2|10|2|0,0:0|0:0|3:2|0:0|0:0,0:0:0:0:
96,228,40630,2,0,L|130:235,3,35,2|2|8|2,3:2|0:0|3:2|0:0,0:0:0:0:
172,236,41056,2,0,L|206:228,3,35,10|8|8|0,3:2|0:3|0:3|0:0,0:0:0:0:
248,220,41481,5,6,3:2:0:0:
316,272,41694,2,0,L|308:308,4,35,2|2|10|2|0,0:0|0:0|3:2|0:0|0:0,0:0:0:0:
384,220,42332,2,0,L|376:180,3,35,2|2|2|2,3:2|0:0|0:0|0:0,0:0:0:0:
372,144,42758,2,0,L|380:104,3,35,10|2|10|2,3:2|0:0|0:0|0:0,0:0:0:0:
388,68,43184,6,0,P|352:76|320:68,1,70,6|0,3:2|0:0,0:0:0:0:
244,28,43609,2,0,P|208:20|176:28,1,70,10|0,3:2|0:0,0:0:0:0:
100,68,44035,2,0,L|96:32,2,35,8|0|2,3:2|0:0|0:0,0:0:0:0:
108,152,44460,2,0,L|116:221,1,70,10|0,3:2|0:0,0:0:0:0:
56,280,44886,6,0,P|118:305|179:276,1,140,6|8,3:2|3:2,0:0:0:0:
244,220,45524,1,10,0:0:0:0:
320,276,45737,1,0,3:2:0:0:
320,276,45843,1,8,0:0:0:0:
320,276,45950,1,10,0:0:0:0:
384,220,46162,2,0,P|392:188|384:152,1,70,8|2,3:2|0:0,0:0:0:0:
340,80,46588,6,0,B|270:87,1,70,6|0,3:2|0:0,0:0:0:0:
208,144,47013,2,0,B|136:136,1,70,14|0,3:2|0:0,0:0:0:0:
68,88,47439,2,0,L|72:52,2,35,0|8|8,3:0|0:0|0:0,0:0:0:0:
0,136,47864,2,0,P|-8:168|0:204,1,70,2|0,3:2|0:0,0:0:0:0:
44,276,48290,6,0,B|112:304|112:248|180:276,1,140,6|10,3:2|3:2,0:0:0:0:
264,320,48928,1,8,0:0:0:0:
264,320,49035,1,8,0:0:0:0:
264,320,49141,2,0,L|300:312,3,35,0|0|8|0,3:0|0:0|0:0|0:0,0:0:0:0:
340,308,49567,2,0,L|376:316,3,35,8|8|8|8,3:2|0:0|0:3|0:3,0:0:0:0:
416,328,49992,6,0,P|408:296|416:260,1,70,6|0,3:2|0:0,0:0:0:0:
472,196,50418,2,0,P|480:160|472:128,1,70,14|0,3:2|0:0,0:0:0:0:
416,64,50843,2,0,L|412:28,2,35,0|8|8,3:0|0:0|0:0,0:0:0:0:
360,128,51269,2,0,B|328:136|328:136|292:128,1,70,10|0,3:2|0:0,0:0:0:0:
216,92,51694,6,0,B|188:164|244:164|216:228,1,140,6|8,3:2|3:2,0:0:0:0:
152,280,52333,1,2,0:0:0:0:
84,228,52545,1,0,3:0:0:0:
84,228,52652,1,8,0:0:0:0:
84,228,52758,1,10,0:0:0:0:
116,148,52971,2,0,P|152:140|184:148,1,70,8|8,3:2|0:0,0:0:0:0:
216,227,53396,6,0,B|260:215|260:215|308:231|308:231|350:219,1,140,6|0,0:0|0:0,0:0:0:0:
456,88,54247,2,0,B|412:100|412:100|364:84|364:84|321:95,1,140,6|0,0:0|0:0,0:0:0:0:
256,192,55098,12,8,56375,0:0:0:0:
92,344,56801,6,0,L|84:308,3,35,2|2|2|2,0:0|0:0|0:0|0:0,0:0:0:0:
72,268,57226,2,0,L|79:233,3,35,2|2|2|2,0:0|0:0|0:0|0:0,0:0:0:0:
92,192,57652,2,0,L|84:156,3,35,2|2|2|2,0:0|0:0|0:0|0:0,0:0:0:0:
76,116,58077,2,0,P|112:124|144:116,1,70,4|2,0:1|0:0,0:0:0:0:
212,68,58503,6,0,B|236:68|256:88|256:88|292:52|338:67,1,140,6|10,3:2|3:2,0:0:0:0:
316,148,59141,1,0,3:0:0:0:
340,228,59354,2,0,B|293:243|257:207|257:207|237:227|213:227,1,140,2|8,3:2|3:2,0:0:0:0:
140,184,59992,1,2,0:0:0:0:
68,228,60205,6,0,P|36:236|0:228,1,70,6|2,3:2|3:2,0:0:0:0:
0,144,60630,2,0,P|36:136|68:144,1,70,8|2,3:2|0:0,0:0:0:0:
140,184,61056,1,10,3:2:0:0:
216,144,61269,1,0,0:0:0:0:
292,184,61481,2,0,B|300:256,1,70,8|2,3:2|0:0,0:0:0:0:
376,288,61907,6,0,B|384:216,1,70,6|2,3:2|0:0,0:0:0:0:
460,184,62333,2,0,B|468:256,1,70,8|2,3:2|0:0,0:0:0:0:
448,336,62758,1,2,3:2:0:0:
376,288,62971,1,2,0:0:0:0:
308,336,63184,2,0,P|274:343|240:335,1,70,10|2,3:2|0:0,0:0:0:0:
172,288,63609,6,0,P|152:292|136:292,3,35,6|2|2|2,3:2|0:0|0:0|0:0,0:0:0:0:
96,284,64035,2,0,P|76:276|64:264,3,35,10|2|2|2,3:2|0:0|0:0|0:0,0:0:0:0:
48,228,64460,2,0,P|44:208|44:192,3,35,10|10|2|10,3:2|0:0|0:0|0:0,0:0:0:0:
56,152,64886,2,0,P|64:132|76:120,3,35,10|0|10|0,3:2|0:0|0:0|0:0,0:0:0:0:
108,96,65311,6,0,B|176:120|176:72|244:96,1,140,6|10,3:2|3:2,0:0:0:0:
320,132,65950,1,0,3:0:0:0:
396,96,66162,2,0,B|420:164|372:164|396:232,1,140,2|10,3:2|3:2,0:0:0:0:
444,304,66801,1,2,0:0:0:0:
396,372,67013,6,0,L|326:364,1,70,6|2,3:2|3:2,0:0:0:0:
264,304,67439,2,0,L|192:312,1,70,8|2,3:2|0:0,0:0:0:0:
128,364,67864,1,8,3:2:0:0:
60,312,68077,1,0,0:0:0:0:
124,255,68290,6,0,P|132:222|124:188,1,70,8|2,3:2|0:0,0:0:0:0:
92,108,68715,2,0,P|124:100|160:108,1,70,6|2,3:2|0:0,0:0:0:0:
228,56,69141,2,0,P|260:64|296:56,1,70,10|2,3:2|0:0,0:0:0:0:
364,108,69567,1,2,3:2:0:0:
432,56,69779,1,2,0:0:0:0:
500,108,69992,2,0,L|492:180,1,70,10|2,3:2|0:0,0:0:0:0:
476,260,70418,6,0,L|440:252,3,35,6|2|2|2,3:2|0:0|0:0|0:0,0:0:0:0:
400,244,70843,2,0,L|364:252,3,35,10|2|2|2,3:2|0:0|0:0|0:0,0:0:0:0:
324,260,71269,2,0,L|288:252,3,35,10|10|2|10,3:2|0:0|0:0|0:0,0:0:0:0:
248,244,71694,2,0,L|212:252,3,35,10|2|10|2,3:2|0:0|0:0|0:0,0:0:0:0:
172,260,72120,6,0,P|200:200|172:136,1,140,6|10,3:2|3:2,0:0:0:0:
112,200,72758,1,0,3:0:0:0:
172,260,72971,2,0,P|232:288|296:260,1,140,2|10,3:2|3:2,0:0:0:0:
232,200,73609,1,2,0:0:0:0:
172,260,73822,6,0,L|164:332,1,70,6|2,3:2|3:2,0:0:0:0:
80,344,74247,2,0,L|72:272,1,70,8|2,3:2|0:0,0:0:0:0:
112,200,74673,1,10,3:2:0:0:
60,132,74886,1,0,0:0:0:0:
112,64,75098,2,0,B|144:56|144:56|180:64,1,70,8|2,3:2|0:0,0:0:0:0:
232,132,75524,6,0,L|301:124,1,70,6|2,3:2|0:0,0:0:0:0:
360,64,75950,2,0,L|432:72,1,70,10|2,3:2|0:0,0:0:0:0:
496,124,76375,1,2,3:2:0:0:
428,176,76588,1,2,0:0:0:0:
492,232,76801,2,0,P|500:268|492:300,1,70,10|2,3:2|0:0,0:0:0:0:
428,356,77226,6,0,L|388:348,3,35,6|2|2|2,3:2|0:0|0:0|0:0,0:0:0:0:
352,340,77652,2,0,L|312:348,3,35,10|2|2|2,3:2|0:0|0:0|0:0,0:0:0:0:
276,352,78077,2,0,L|236:344,3,35,10|10|2|10,3:2|0:0|0:0|0:0,0:0:0:0:
200,336,78503,2,0,L|160:344,3,35,10|0|10|0,3:2|0:0|0:0|0:0,0:0:0:0:
124,352,78928,6,0,L|116:282,1,70,6|0,3:2|0:0,0:0:0:0:
60,220,79354,2,0,L|68:148,1,70,10|0,3:2|0:0,0:0:0:0:
116,80,79779,2,0,B|180:108|180:52|252:80,1,140,10|10,3:2|3:2,0:0:0:0:
288,156,80418,1,2,0:0:0:0:
252,232,80630,6,0,P|284:240|320:232,1,70,6|0,3:2|0:0,0:0:0:0:
288,156,81056,2,0,P|254:147|220:156,1,70,10|0,3:2|0:0,0:0:0:0:
168,224,81481,2,0,P|136:172|156:100,1,140,10|10,3:2|3:2,0:0:0:0:
220,156,82120,1,2,0:0:0:0:
168,224,82332,6,0,L|96:232,1,70,6|0,3:2|0:0,0:0:0:0:
108,316,82758,2,0,L|177:308,1,70,10|0,3:2|0:0,0:0:0:0:
248,260,83184,2,0,B|284:252|312:280|312:280|340:252|376:260,1,140,10|10,3:2|3:2,0:0:0:0:
440,316,83822,1,2,0:0:0:0:
504,260,84035,6,0,P|508:240|508:224,3,35,14|2|10|2,3:2|0:0|0:0|0:0,0:0:0:0:
504,184,84461,2,0,P|496:164|484:152,3,35,10|2|10|2,3:2|0:0|0:0|0:0,0:0:0:0:
448,136,84886,2,0,P|428:132|412:132,3,35,10|10|2|10,3:2|0:0|0:0|0:0,0:0:0:0:
372,144,85312,2,0,P|352:152|340:164,3,35,14|0|10|0,3:2|0:0|0:0|0:0,0:0:0:0:
316,196,85737,6,0,P|254:224|192:196,1,140,6|2,3:2|3:2,0:0:0:0:
256,135,86375,1,0,0:0:0:0:
316,196,86588,2,0,P|324:228|316:264,1,70,2|0,3:2|0:0,0:0:0:0:
256,324,87013,2,0,P|220:332|188:324,1,70,6|0,0:0|3:0,0:0:0:0:
128,264,87439,5,12,0:0:0:0:
68,324,87652,1,8,0:0:0:0:
8,264,87864,2,0,L|0:192,1,70,8|8,0:0|0:0,0:0:0:0:
68,144,88290,2,0,L|76:72,1,70,8|8,0:0|0:0,0:0:0:0:
140,20,88715,1,8,0:0:0:0:
204,76,88928,1,8,0:0:0:0:
