osu file format v14

[General]
AudioFilename: Kunshi Ayauku mo Chikou yore.mp3
AudioLeadIn: 0
PreviewTime: 53459
Countdown: 0
SampleSet: Soft
StackLeniency: 0.7
Mode: 0
LetterboxInBreaks: 0
WidescreenStoryboard: 0

[Editor]
DistanceSpacing: 1.4
BeatDivisor: 4
GridSize: 4
TimelineZoom: 1

[Metadata]
Title:Kunshi Ayauku mo Chikou Yore (TV Size)
TitleUnicode:君氏危うくも近うよれ(TV Size)
Artist:AOP
ArtistUnicode:A応P
Creator:Hazu-
Version:alacat's Normal
Source:おそ松さん
Tags:kyuukai alacat -nanoripe- underforest osomatsu-san osomatsusan second season opening aoup san osomatsu karamatsu choromatsu ichimatsu jyushimatsu todomatsu matsuno あさき mafumafu konami
BeatmapID:1432337
BeatmapSetID:676605

[Difficulty]
HPDrainRate:4
CircleSize:3.5
OverallDifficulty:4
ApproachRate:5
SliderMultiplier:1.2
SliderTickRate:1

[Events]
//Background and Video events
0,0,"Kunshi Ayauku mo Chikou yore.jpg",0,0
Video,500,"video.avi"
//Break Periods
//Storyboard Layer 0 (Background)
//Storyboard Layer 1 (Fail)
//Storyboard Layer 2 (Pass)
//Storyboard Layer 3 (Foreground)
//Storyboard Sound Samples

[TimingPoints]
589,370.37037037037,4,2,3,55,1,0
4848,-100,4,2,1,55,0,0
6082,-100,4,2,2,55,0,0
6514,-100,4,2,1,60,0,0
15403,-100,4,2,3,60,0,0
17996,-100,4,2,1,60,0,0
18366,-100,4,2,1,30,0,0
29663,-100,4,2,1,40,0,0
30218,-100,4,2,1,50,0,0
53181,-100,4,2,2,50,0,0
53922,-100,4,2,1,70,0,1
64477,-100,4,2,3,70,0,1
65033,-100,4,2,1,70,0,1
76329,-100,4,2,3,70,0,1
76885,-100,4,2,1,70,0,1
77626,-100,4,2,1,70,0,0
86514,-100,4,2,3,70,0,0
89107,-100,4,2,1,70,0,0

[Colours]
Combo1 : 255,140,192
Combo2 : 255,85,85
Combo3 : 62,158,255
Combo4 : 156,206,100
Combo5 : 179,116,248
Combo6 : 253,227,85

[HitObjects]
256,344,589,5,8,0:0:0:0:
256,344,1885,2,0,L|256:284,1,60,8|8,0:0|0:0,0:0:0:0:
256,40,3366,6,0,L|256:100,1,60,8|8,0:0|0:0,0:0:0:0:
148,244,4107,2,0,L|148:184,1,60,8|8,0:0|0:0,0:0:0:0:
44,124,4663,2,0,L|44:184,1,60,8|6,0:0|0:0,0:0:0:0:
44,304,5218,2,0,P|112:364|200:356,1,180,2|2,0:0|0:0,0:0:0:0:
256,252,6144,1,2,0:0:0:0:
312,360,6514,6,0,P|364:368|428:340,1,120,6|10,0:0|0:0,0:0:0:0:
504,252,7255,2,0,L|512:192,1,60,10|0,0:0|0:0,0:0:0:0:
500,132,7626,1,10,0:0:0:0:
460,88,7811,2,0,B|368:56|368:116|284:88,1,180,6|10,0:0|0:0,0:0:0:0:
244,44,8551,1,0,0:0:0:0:
244,44,8737,2,0,P|184:36|124:56,1,120,2|10,0:0|0:0,0:0:0:0:
28,120,9477,6,0,L|20:56,2,60,6|0|10,0:0|0:0|0:0,0:0:0:0:
136,172,10218,2,0,L|128:231,1,60,10|0,0:0|0:0,0:0:0:0:
120,292,10588,1,8,0:0:0:0:
120,292,10774,2,0,P|60:272|4:272,2,120,6|6|6,0:0|0:0|0:0,0:0:0:0:
216,368,11885,1,2,3:2:0:0:
216,368,12070,1,10,3:2:0:0:
324,320,12440,5,6,0:0:0:0:
296,204,12811,1,8,0:0:0:0:
268,88,13181,2,0,L|204:80,2,60,10|0|10,0:0|0:0|0:0,0:0:0:0:
320,120,13737,2,0,P|404:104|488:144,1,180,6|10,0:0|0:0,0:0:0:0:
508,200,14477,1,0,0:0:0:0:
508,200,14663,2,0,L|492:320,1,120,10|10,0:0|0:0,0:0:0:0:
384,368,15403,6,0,B|312:368|260:328|260:328|220:360,1,180,8|2,0:0|0:0,0:0:0:0:
132,280,16329,2,0,L|72:280,2,60,2|2|2,0:0|0:0|0:0,0:0:0:0:
180,244,16885,6,0,B|192:216|192:216|172:156,2,90,12|8|12,0:0|0:0|0:0,0:0:0:0:
72,192,17811,2,0,L|12:192,1,60,0|0,0:0|3:0,0:0:0:0:
56,80,18366,6,0,L|116:80,1,60,6|0,0:0|0:0,0:0:0:0:
160,40,18737,1,10,0:0:0:0:
232,136,19107,2,0,P|292:136|336:100,1,120,2|8,0:0|0:0,0:0:0:0:
368,48,19663,2,0,P|428:48|472:84,1,120,2|2,0:0|0:0,0:0:0:0:
496,140,20218,2,0,L|484:200,1,60,10|2,0:0|0:0,0:0:0:0:
408,292,20774,2,0,L|420:352,2,60,2|8|2,0:0|0:0|0:0,0:0:0:0:
396,232,21329,5,2,0:0:0:0:
304,308,21700,2,0,L|244:300,1,60,10|2,0:0|0:0,0:0:0:0:
196,264,22070,2,0,L|136:272,2,60,2|2|8,0:0|0:0|0:0,0:0:0:0:
284,184,22811,2,0,L|344:192,2,60,2|0|10,0:0|0:0|0:0,0:0:0:0:
248,136,23366,1,2,0:0:0:0:
140,192,23737,1,2,0:0:0:0:
140,192,23922,1,8,0:0:0:0:
36,132,24292,6,0,L|36:72,2,60,6|2|10,0:0|0:0|0:0,0:0:0:0:
36,252,25033,1,2,0:0:0:0:
140,312,25403,1,8,0:0:0:0:
140,312,25589,2,0,P|196:292|256:292,1,120,2|2,0:0|0:0,0:0:0:0:
300,332,26144,2,0,L|360:332,1,60,10|2,0:0|0:0,0:0:0:0:
440,240,26700,2,0,L|500:240,2,60,2|8|0,0:0|0:0|0:0,0:0:0:0:
392,204,27255,5,2,0:0:0:0:
296,276,27626,2,0,P|266:271|238:260,1,60,10|2,0:0|0:0,0:0:0:0:
200,216,27996,2,0,L|136:224,2,60,2|0|8,0:0|0:0|0:0,0:0:0:0:
256,192,28551,12,6,30218,0:0:0:0:
360,312,30959,6,0,P|300:296|240:288,1,120,2|8,0:0|0:0,0:0:0:0:
200,248,31514,2,0,P|140:264|80:272,1,120,2|0,0:0|0:0,0:0:0:0:
32,240,32070,1,10,0:0:0:0:
32,240,32255,1,2,0:0:0:0:
92,136,32626,2,0,P|83:105|80:76,1,60,0|8,0:0|0:0,0:0:0:0:
108,24,32996,1,2,0:0:0:0:
168,32,33181,6,0,L|288:48,1,120,2|8,0:0|0:0,0:0:0:0:
344,32,33737,1,0,0:0:0:0:
344,32,33922,2,0,P|400:36|456:68,1,120,2|8,0:0|0:0,0:0:0:0:
500,180,34663,2,0,L|488:300,1,120,0|10,0:0|0:0,0:0:0:0:
436,328,35218,1,0,0:0:0:0:
380,308,35403,2,0,P|340:308|316:312,1,60,2|0,0:0|3:2,0:0:0:0:
264,328,35774,2,0,P|224:328|200:324,1,60,10|2,0:0|0:0,0:0:0:0:
160,284,36144,5,2,0:0:0:0:
64,352,36514,1,10,0:0:0:0:
0,252,36885,2,0,L|16:132,1,120,2|8,0:0|0:0,0:0:0:0:
4,76,37440,2,0,P|64:104|120:112,1,120,2|0,0:0|0:0,0:0:0:0:
176,92,37996,1,10,0:0:0:0:
176,92,38181,1,2,0:0:0:0:
280,32,38552,2,0,P|310:23|340:20,1,60,2|8,0:0|0:0,0:0:0:0:
400,28,38922,1,2,0:0:0:0:
444,68,39107,6,0,L|428:188,1,120,2|8,0:0|0:0,0:0:0:0:
416,248,39663,1,0,0:0:0:0:
416,248,39848,2,0,P|356:232|296:232,1,120,2|10,0:0|0:0,0:0:0:0:
260,276,40403,2,0,L|240:156,1,120,6|2,0:0|0:0,0:0:0:0:
184,136,40959,2,0,L|192:76,1,60,10|2,0:0|0:0,0:0:0:0:
240,40,41329,2,0,L|308:40,2,60,10|10|10,0:0|0:0|0:0,0:0:0:0:
124,16,42070,6,0,P|72:44|48:100,1,120,6|10,0:0|0:0,0:0:0:0:
76,152,42626,1,0,0:0:0:0:
76,152,42811,1,2,0:0:0:0:
188,112,43181,1,10,3:2:0:0:
276,192,43551,2,0,L|264:252,1,60,2|0,0:0|0:0,0:0:0:0:
216,288,43922,2,0,L|228:348,1,60,10|2,0:0|0:0,0:0:0:0:
284,372,44292,2,0,P|344:352|400:348,1,120,2|10,0:0|0:0,0:0:0:0:
492,272,45033,6,0,B|504:212|504:212|480:156,1,120,6|10,0:0|0:0,0:0:0:0:
448,108,45588,1,0,0:0:0:0:
396,80,45774,2,0,B|344:88|344:88|324:104|324:104|280:112,1,120,6|10,0:0|0:0,0:0:0:0:
164,136,46514,1,6,0:0:0:0:
56,88,46885,2,0,L|68:28,2,60,10|8|10,0:0|0:0|0:0,0:0:0:0:
28,204,47626,1,10,0:0:0:0:
116,284,47996,6,0,P|176:264|236:260,1,120,14|10,0:0|0:0,0:0:0:0:
280,296,48551,1,0,0:0:0:0:
280,296,48737,2,0,L|280:356,2,60,2|10|10,0:0|3:2|3:2,0:0:0:0:
380,232,49477,1,2,0:0:0:0:
348,120,49848,1,10,0:0:0:0:
240,176,50218,2,0,L|180:176,2,60,2|10|10,0:0|3:2|3:2,0:0:0:0:
212,60,50959,5,8,0:0:0:0:
76,180,51514,1,8,0:0:0:0:
76,180,51700,1,8,0:0:0:0:
136,284,52070,1,8,0:0:0:0:
136,284,52255,2,0,L|256:284,1,120,6|10,0:0|0:0,0:0:0:0:
298,326,52811,2,0,L|358:326,1,60,10|10,0:0|0:0,0:0:0:0:
417,326,53181,1,2,0:0:0:0:
504,100,53922,6,0,P|448:128|388:132,1,120,6|8,0:0|0:0,0:0:0:0:
340,100,54477,1,0,0:0:0:0:
340,100,54663,2,0,L|280:116,1,60,10|0,0:0|0:0,0:0:0:0:
236,76,55033,2,0,L|192:120,1,60,10|2,0:0|0:0,0:0:0:0:
156,164,55403,1,6,0:0:0:0:
264,220,55774,2,0,P|292:212|324:208,2,60,10|0|10,0:0|0:0|0:0,0:0:0:0:
156,276,56514,1,10,0:0:0:0:
60,204,56885,6,0,B|52:162|52:162|36:134|36:134|28:86,1,120,6|10,0:0|0:0,0:0:0:0:
136,32,57626,2,0,B|143:77|143:77|159:105|159:105|167:146,1,120,10|10,0:0|0:0,0:0:0:0:
256,228,58366,1,6,0:0:0:0:
368,184,58737,2,0,L|360:124,2,60,14|0|14,0:0|0:0|0:0,0:0:0:0:
408,228,59292,1,2,3:2:0:0:
408,228,59477,1,14,3:2:0:0:
508,164,59848,5,6,0:0:0:0:
476,48,60218,2,0,L|416:36,1,60,8|0,0:0|0:0,0:0:0:0:
360,48,60588,2,0,P|296:32|240:32,1,120,10|10,0:0|0:0,0:0:0:0:
188,56,61144,1,2,0:0:0:0:
152,104,61329,2,0,B|88:88|88:116|32:100,2,120,6|10|10,0:0|0:0|0:0,0:0:0:0:
244,180,62440,2,0,L|232:240,1,60,8|2,0:0|0:0,0:0:0:0:
220,296,62811,5,6,0:0:0:0:
120,364,63181,1,10,0:0:0:0:
24,292,63551,2,0,P|16:328|20:356,2,60,10|0|10,0:0|0:0|0:0,0:0:0:0:
60,244,64107,2,0,L|48:120,1,120,6|2,0:0|0:0,0:0:0:0:
88,80,64663,2,0,L|152:88,1,60,2|2,0:0|0:0,0:0:0:0:
204,68,65033,2,0,L|268:76,1,60,8|8,0:0|0:0,0:0:0:0:
324,84,65403,1,10,0:0:0:0:
428,24,65774,6,0,B|460:96|460:96|444:144,1,120,14|8,0:0|0:0,0:0:0:0:
400,168,66329,1,0,0:0:0:0:
400,168,66514,2,0,P|392:200|392:228,1,60,10|0,0:0|0:0,0:0:0:0:
436,268,66885,2,0,P|444:300|444:328,1,60,10|2,0:0|0:0,0:0:0:0:
408,376,67255,1,6,0:0:0:0:
304,316,67626,2,0,P|274:319|245:327,1,60,10|0,0:0|0:0,0:0:0:0:
200,368,67996,1,10,0:0:0:0:
100,304,68366,1,10,0:0:0:0:
152,196,68737,6,0,B|208:180|208:180|268:196,1,120,6|10,0:0|0:0,0:0:0:0:
352,280,69477,2,0,B|408:296|408:296|468:280,1,120,10|10,0:0|0:0,0:0:0:0:
508,168,70218,1,6,0:0:0:0:
420,84,70589,2,0,L|428:24,2,60,14|0|14,0:0|0:0|0:0,0:0:0:0:
376,124,71144,1,2,3:2:0:0:
376,124,71329,2,0,P|344:116|316:116,1,60,14|0,3:2|0:0,0:0:0:0:
276,160,71700,5,6,0:0:0:0:
164,112,72070,2,0,L|152:170,1,60,8|0,0:0|0:0,0:0:0:0:
116,220,72440,2,0,P|176:224|236:252,1,120,10|10,0:0|0:0,0:0:0:0:
268,296,72996,1,2,0:0:0:0:
284,352,73181,2,0,B|408:340,2,120,6|10|10,0:0|0:0|0:0,0:0:0:0:
168,320,74292,2,0,L|104:328,1,60,8|2,0:0|0:0,0:0:0:0:
48,336,74663,5,6,0:0:0:0:
4,224,75033,1,10,0:0:0:0:
104,160,75403,2,0,L|168:168,1,60,10|0,0:0|0:0,0:0:0:0:
212,132,75774,1,10,0:0:0:0:
212,132,75959,2,0,P|268:116|328:124,1,120,6|2,0:0|0:0,0:0:0:0:
372,168,76515,2,0,P|371:201|364:232,1,60,2|2,0:0|0:0,0:0:0:0:
328,276,76885,2,0,L|336:336,2,60,2|0|8,0:0|0:0|0:3,0:0:0:0:
216,236,77626,6,0,P|156:240|108:272,1,120,6|10,0:0|0:0,0:0:0:0:
76,324,78181,1,0,0:0:0:0:
76,324,78366,2,0,L|60:204,1,120,10|10,0:0|0:0,0:0:0:0:
12,168,78922,2,0,L|28:48,1,120,6|0,0:0|0:0,0:0:0:0:
80,20,79477,1,10,0:0:0:0:
80,20,79663,2,0,P|136:48|192:48,1,120,2|8,0:0|0:0,0:0:0:0:
248,28,80218,1,10,0:0:0:0:
308,132,80588,6,0,L|300:196,2,60,6|0|10,0:0|0:0|0:0,0:0:0:0:
400,52,81329,1,10,0:0:0:0:
512,100,81700,1,10,0:0:0:0:
512,100,81885,2,0,P|499:163|496:220,1,120,6|0,0:0|0:0,0:0:0:0:
512,276,82440,1,10,0:0:0:0:
512,276,82626,1,6,0:0:0:0:
396,304,82996,2,0,P|404:332|404:364,2,60,2|10|8,3:2|3:2|0:0,0:0:0:0:
356,260,83551,6,0,L|232:276,1,120,14|10,0:0|0:0,0:0:0:0:
192,316,84106,1,0,0:0:0:0:
192,316,84292,2,0,P|196:256|176:196,1,120,10|10,0:0|0:0,0:0:0:0:
132,164,84848,1,6,0:0:0:0:
40,244,85218,2,0,L|48:304,2,60,0|10|2,0:0|0:0|0:0,0:0:0:0:
28,124,85959,2,0,B|56:92|56:92|132:80,1,120,2|0,0:0|0:0,0:0:0:0:
188,56,86514,6,0,B|276:80|276:80|364:56,1,180,12|2,0:0|0:0,0:0:0:0:
420,164,87440,2,0,P|444:160|496:152,2,60,2|2|2,0:0|0:0|0:0,0:0:0:0:
376,204,87996,6,0,L|388:300,2,90,12|8|12,0:0|0:0|0:0,0:0:0:0:
356,24,89107,1,0,3:0:0:0:
