osu file format v14

[General]
AudioFilename: Kunshi Ayauku mo Chikou yore.mp3
AudioLeadIn: 0
PreviewTime: 53459
Countdown: 0
SampleSet: Soft
StackLeniency: 0.4
Mode: 0
LetterboxInBreaks: 0
WidescreenStoryboard: 0

[Editor]
DistanceSpacing: 1.1
BeatDivisor: 4
GridSize: 4
TimelineZoom: 1.6

[Metadata]
Title:Kunshi Ayauku mo Chikou Yore (TV Size)
TitleUnicode:君氏危うくも近うよれ(TV Size)
Artist:AOP
ArtistUnicode:A応P
Creator:Hazu-
Version:Nano's Advanced
Source:おそ松さん
Tags:kyuukai alacat -nanoripe- underforest osomatsu-san osomatsusan second season opening aoup san osomatsu karamatsu choromatsu ichimatsu jyushimatsu todomatsu matsuno あさき mafumafu konami
BeatmapID:1455296
BeatmapSetID:676605

[Difficulty]
HPDrainRate:4.2
CircleSize:3.7
OverallDifficulty:5.4
ApproachRate:6.2
SliderMultiplier:1.4
SliderTickRate:1

[Events]
//Background and Video events
0,0,"Kunshi Ayauku mo Chikou yore.jpg",0,0
Video,500,"video.avi"
//Break Periods
//Storyboard Layer 0 (Background)
//Storyboard Layer 1 (Fail)
//Storyboard Layer 2 (Pass)
//Storyboard Layer 3 (Foreground)
//Storyboard Sound Samples

[TimingPoints]
589,370.37037037037,4,2,3,50,1,0
589,-100,4,2,3,50,0,0
4848,-100,4,2,1,55,0,0
6144,-133.333333333333,4,2,2,55,0,0
6514,-100,4,2,1,60,0,0
15403,-100,4,2,3,60,0,0
17996,-133.333333333333,4,2,1,60,0,0
18366,-100,4,2,1,30,0,0
29663,-100,4,2,1,40,0,0
30218,-100,4,2,1,50,0,0
53181,-100,4,2,2,50,0,0
53922,-100,4,2,1,70,0,1
64477,-100,4,2,3,70,0,1
65033,-100,4,2,1,70,0,1
76329,-100,4,2,3,70,0,1
76885,-100,4,2,1,70,0,1
77533,-100,4,2,1,5,0,1
77626,-100,4,2,1,70,0,0
86514,-100,4,2,3,70,0,0
89107,-100,4,2,1,70,0,0

[Colours]
Combo1 : 255,140,192
Combo2 : 255,85,85
Combo3 : 62,158,255
Combo4 : 156,206,100
Combo5 : 179,116,248
Combo6 : 253,227,85

[HitObjects]
190,151,589,6,0,P|142:137|81:156,2,105,8|2|2,0:0|0:0|0:0,0:0:0:0:
253,291,1514,2,0,P|245:338|260:375,1,70,2|2,0:0|0:0,0:0:0:0:
320,324,1885,1,8,0:0:0:0:
392,298,2070,6,0,L|507:306,2,105,8|2|2,0:0|0:0|0:0,0:0:0:0:
421,146,2996,2,0,L|490:139,1,70,2|2,0:0|0:0,0:0:0:0:
485,63,3366,1,8,0:0:0:0:
413,34,3551,6,0,P|351:10|281:37,1,140,8|0,0:0|0:0,0:0:0:0:
233,91,4107,1,8,0:0:0:0:
302,126,4292,2,0,L|312:277,1,140,8|8,0:0|0:0,0:0:0:0:
292,340,4848,6,0,B|219:319|233:375|138:337,1,140,6|2,0:0|0:0,0:0:0:0:
84,316,5403,1,2,0:0:0:0:
120,248,5588,1,2,0:0:0:0:
192,272,5774,1,2,0:0:0:0:
192,272,6144,6,0,P|233:255|276:258,1,78.7500030040742,2|0,0:0|0:0,0:0:0:0:
300,272,6514,6,0,B|310:172|310:172|285:113,1,140,6|10,0:0|0:0,0:0:0:0:
228,96,7070,1,0,0:0:0:0:
228,96,7255,2,0,L|83:107,1,140,10|10,0:0|0:0,0:0:0:0:
24,148,7811,6,0,P|78:130|112:216,1,140,6|0,0:0|0:0,0:0:0:0:
74,258,8366,1,10,0:0:0:0:
108,328,8551,2,0,L|224:320,1,105,0|2,0:0|0:0,0:0:0:0:
256,312,8922,2,0,L|344:320,2,70,2|10|2,0:0|0:0|0:0,0:0:0:0:
220,244,9477,6,0,B|224:196|224:196|216:160|216:160|224:104,1,140,6|10,0:0|0:0,0:0:0:0:
184,40,10033,2,0,P|220:80|308:76,1,140,0|0,0:0|0:0,0:0:0:0:
364,32,10588,1,8,0:0:0:0:
416,88,10774,6,0,B|460:80|460:80|496:88|496:88|472:36|484:4,2,140,6|6|6,0:0|0:0|0:0,0:0:0:0:
460,236,11885,1,2,3:2:0:0:
492,164,12070,2,0,B|460:156|460:156|416:164,1,70,10|8,3:2|0:0,0:0:0:0:
364,212,12440,6,0,L|220:224,1,140,6|8,0:0|0:0,0:0:0:0:
148,236,12996,1,0,0:0:0:0:
148,236,13181,2,0,P|120:192|148:100,1,140,10|10,0:0|0:0,0:0:0:0:
196,56,13737,6,0,B|284:56|284:56|328:28,1,140,6|0,0:0|0:0,0:0:0:0:
404,16,14292,1,10,0:0:0:0:
380,88,14477,2,0,B|336:120|336:120|340:216,1,140,0|2,0:0|0:0,0:0:0:0:
384,268,15033,2,0,P|344:244|280:252,1,105,10|2,0:0|0:0,0:0:0:0:
256,268,15403,6,0,L|252:372,2,105,8|2|2,0:0|0:0|0:0,0:0:0:0:
204,124,16329,2,0,P|240:112|276:116,1,70,2|2,0:0|0:0,0:0:0:0:
248,188,16700,1,2,0:0:0:0:
204,124,16885,6,0,L|194:19,2,105,12|8|12,0:0|0:0|0:0,0:0:0:0:
72,168,17811,1,0,0:0:0:0:
29,227,17996,1,0,3:0:0:0:
29,227,18366,6,0,L|180:214,1,140,6|10,0:0|0:0,0:0:0:0:
304,292,19107,2,0,P|329:229|294:166,1,140,2|8,0:0|0:0,0:0:0:0:
224,140,19663,6,0,B|293:137|293:137|351:91,1,140,2|2,0:0|0:0,0:0:0:0:
400,36,20218,1,10,0:0:0:0:
456,88,20403,2,0,P|481:148|450:228,1,140,2|2,0:0|0:0,0:0:0:0:
384,204,20959,2,0,P|340:224|324:248,1,70,8|2,0:0|0:0,0:0:0:0:
392,284,21329,6,0,P|424:324|512:324,2,140,2|10|2,0:0|0:0|0:0,0:0:0:0:
327,240,22255,1,2,0:0:0:0:
304,312,22440,2,0,P|288:340|256:360,1,70,8|2,0:0|0:0,0:0:0:0:
228,288,22811,6,0,P|236:240|228:216,1,70,2|0,0:0|0:0,0:0:0:0:
168,176,23181,1,10,0:0:0:0:
116,232,23366,1,2,0:0:0:0:
116,232,23737,2,0,P|109:266|118:299,1,70,2|8,0:0|0:0,0:0:0:0:
176,348,24107,1,8,0:0:0:0:
228,288,24292,6,0,B|308:268|292:320|380:292,1,140,6|10,0:0|0:0,0:0:0:0:
492,208,25033,2,0,B|419:231|435:179|356:199,1,140,2|8,0:0|0:0,0:0:0:0:
368,124,25588,6,0,P|348:160|252:164,1,140,2|2,0:0|0:0,0:0:0:0:
216,104,26144,1,10,0:0:0:0:
156,60,26329,2,0,B|96:68|96:68|68:56|68:56|4:64,1,140,2|2,0:0|0:0,0:0:0:0:
28,140,26885,2,0,P|60:168|64:200,1,70,8|0,0:0|0:0,0:0:0:0:
8,248,27255,6,0,L|148:216,1,140,2|10,0:0|0:0,0:0:0:0:
216,188,27811,1,2,0:0:0:0:
168,128,27996,2,0,P|152:84|160:52,2,70,2|0|8,0:0|0:0|0:0,0:0:0:0:
232,80,28551,6,0,B|304:80|304:80|368:48,1,140,6|2,0:0|0:0,0:0:0:0:
432,8,29107,2,0,P|468:0|516:16,1,70,10|2,0:0|0:0,0:0:0:0:
468,76,29477,1,2,0:0:0:0:
420,136,29663,2,0,L|432:208,1,70,2|10,3:2|3:2,0:0:0:0:
444,280,30033,1,2,0:0:0:0:
368,264,30218,6,0,P|320:248|240:280,1,140,6|10,0:0|0:0,0:0:0:0:
100,344,30959,2,0,P|120:300|76:212,1,140,2|8,0:0|0:0,0:0:0:0:
16,188,31514,6,0,P|80:204|148:140,1,140,2|0,0:0|0:0,0:0:0:0:
68,128,32070,1,10,0:0:0:0:
137,164,32255,2,0,L|280:180,1,140,2|0,0:0|0:0,0:0:0:0:
352,188,32811,1,8,0:0:0:0:
320,116,32996,1,2,0:0:0:0:
276,179,33181,6,0,P|256:219|296:307,2,140,2|8|2,0:0|0:0|0:0,0:0:0:0:
320,116,34107,2,0,L|460:124,1,140,2|2,0:0|0:0,0:0:0:0:
496,192,34663,6,0,P|504:232|492:268,1,70,0|2,0:0|0:0,0:0:0:0:
424,284,35033,2,0,P|380:260|344:260,1,70,10|0,0:0|0:0,0:0:0:0:
364,336,35403,1,2,0:0:0:0:
292,308,35588,2,0,L|276:220,1,70,0|10,3:2|0:0,0:0:0:0:
264,164,35959,1,2,0:0:0:0:
192,140,36144,6,0,P|240:148|300:80,1,140,2|10,0:0|0:0,0:0:0:0:
148,68,36885,2,0,P|112:112|128:192,1,140,2|8,0:0|0:0,0:0:0:0:
188,232,37440,6,0,B|148:208|96:216|96:216|72:236|56:272,1,140,2|0,0:0|0:0,0:0:0:0:
0,288,37996,1,10,0:0:0:0:
64,332,38181,2,0,B|68:346|92:366|92:366|144:374|184:350,1,140,2|2,0:0|0:0,0:0:0:0:
232,292,38737,2,0,B|272:288|272:288|328:296,1,70,8|2,0:0|0:0,0:0:0:0:
346,355,39107,6,0,L|326:195,1,140,2|8,0:0|0:0,0:0:0:0:
360,148,39663,1,0,0:0:0:0:
408,208,39848,2,0,L|420:288,1,70,2|0,0:0|0:0,0:0:0:0:
456,344,40218,1,10,0:0:0:0:
504,284,40403,6,0,B|488:176|488:176|460:136,1,140,6|2,0:0|0:0,0:0:0:0:
418,93,40959,1,10,0:0:0:0:
360,148,41144,1,2,0:0:0:0:
294,108,41329,2,0,L|224:111,1,70,10|10,0:0|0:0,0:0:0:0:
178,51,41700,1,10,0:0:0:0:
178,51,42070,6,0,L|190:206,1,140,6|10,0:0|0:0,0:0:0:0:
200,268,42626,1,0,0:0:0:0:
168,340,42811,2,0,B|256:360|228:304|316:328,1,140,2|10,0:0|3:2,0:0:0:0:
456,344,43551,6,0,L|460:264,2,70,2|0|10,0:0|0:0|0:0,0:0:0:0:
380,356,44107,1,2,0:0:0:0:
380,356,44292,2,0,L|388:208,1,140,2|10,0:0|0:0,0:0:0:0:
484,96,45033,6,0,P|448:128|364:108,1,140,6|10,0:0|0:0,0:0:0:0:
240,16,45774,2,0,P|260:84|256:152,1,140,6|10,0:0|0:0,0:0:0:0:
204,296,46514,6,0,L|48:288,1,140,6|10,0:0|0:0,0:0:0:0:
20,224,47070,1,8,0:0:0:0:
68,164,47255,2,0,P|88:128|92:80,1,70,10|8,0:0|0:0,0:0:0:0:
52,36,47626,1,10,0:0:0:0:
124,16,47811,1,10,0:0:0:0:
188,56,47996,6,0,B|240:60|240:60|280:40|280:40|348:44,1,140,14|10,0:0|0:0,0:0:0:0:
400,48,48551,1,0,0:0:0:0:
360,116,48737,2,0,L|368:264,1,140,2|10,0:0|3:2,0:0:0:0:
256,364,49477,6,0,L|263:224,1,140,2|10,0:0|0:0,0:0:0:0:
188,220,50033,1,0,0:0:0:0:
188,220,50218,2,0,L|184:300,1,70,2|10,0:0|3:2,0:0:0:0:
140,352,50588,2,0,P|92:352|60:332,1,70,10|0,3:2|0:0,0:0:0:0:
28,280,50959,5,8,0:0:0:0:
32,260,51514,5,8,0:0:0:0:
96,216,51700,2,0,P|124:152|64:84,1,140,8|8,0:0|0:0,0:0:0:0:
44,156,52255,6,0,B|88:184|88:184|204:184,1,140,6|10,0:0|0:0,0:0:0:0:
220,120,52811,2,0,P|260:112|308:136,1,70,10|10,0:0|0:0,0:0:0:0:
252,188,53181,5,2,0:0:0:0:
252,212,53551,5,2,0:0:0:0:
252,236,53922,6,0,L|252:380,1,140,6|8,0:0|0:0,0:0:0:0:
332,368,54477,1,0,0:0:0:0:
332,368,54663,2,0,L|351:289,1,70,10|0,0:0|0:0,0:0:0:0:
419,271,55033,2,0,L|444:182,1,70,10|2,0:0|0:0,0:0:0:0:
474,135,55403,6,0,P|422:178|347:155,1,140,6|10,0:0|0:0,0:0:0:0:
245,55,56144,2,0,L|388:44,1,140,10|10,0:0|0:0,0:0:0:0:
461,37,56700,1,0,0:0:0:0:
500,103,56885,6,0,B|510:145|510:145|499:247,1,140,6|10,0:0|0:0,0:0:0:0:
396,356,57626,2,0,L|317:348,1,70,10|0,0:0|0:0,0:0:0:0:
285,283,57996,2,0,L|165:298,1,105,10|0,0:0|0:0,0:0:0:0:
143,284,58366,6,0,P|129:244|135:203,1,70,6|0,0:0|0:0,0:0:0:0:
194,172,58737,2,0,P|194:137|181:104,1,70,14|0,0:0|0:0,0:0:0:0:
105,95,59107,2,0,L|35:100,1,70,14|2,0:0|3:2,0:0:0:0:
30,23,59477,2,0,L|100:18,1,70,14|0,3:2|0:0,0:0:0:0:
176,31,59848,6,0,B|237:50|237:50|332:45,1,140,6|8,0:0|0:0,0:0:0:0:
387,28,60403,1,0,0:0:0:0:
387,28,60588,2,0,P|431:33|459:54,1,70,10|0,0:0|0:0,0:0:0:0:
503,104,60959,2,0,P|472:120|438:122,1,70,10|2,0:0|0:0,0:0:0:0:
361,121,61329,6,0,L|370:272,1,140,6|10,0:0|0:0,0:0:0:0:
229,195,62070,2,0,L|237:55,1,140,10|8,0:0|0:0,0:0:0:0:
160,53,62626,1,2,0:0:0:0:
90,20,62811,6,0,P|36:17|20:111,1,140,6|10,0:0|0:0,0:0:0:0:
60,148,63366,1,0,0:0:0:0:
60,148,63551,2,0,L|68:229,1,70,10|0,0:0|0:0,0:0:0:0:
73,293,63922,1,10,0:0:0:0:
40,364,64107,6,0,P|124:356|152:304,1,140,6|2,0:0|0:0,0:0:0:0:
168,240,64663,1,2,0:0:0:0:
168,240,64848,2,0,L|159:159,1,70,2|8,0:0|0:0,0:0:0:0:
236,152,65218,2,0,L|244:229,1,70,8|10,0:0|0:0,0:0:0:0:
260,297,65588,1,10,0:0:0:0:
298,364,65774,6,0,B|347:373|347:373|446:360,1,140,14|8,0:0|0:0,0:0:0:0:
473,293,66329,1,0,0:0:0:0:
473,293,66514,2,0,P|470:246|449:217,1,70,10|0,0:0|0:0,0:0:0:0:
381,221,66885,2,0,P|332:232|285:233,1,70,10|2,0:0|0:0,0:0:0:0:
260,297,67255,6,0,L|270:148,1,140,6|10,0:0|0:0,0:0:0:0:
228,8,67996,2,0,B|196:32|190:68|190:68|153:51|105:74,1,140,10|10,0:0|0:0,0:0:0:0:
155,136,68551,1,0,0:0:0:0:
93,185,68737,6,0,L|110:331,1,140,6|10,0:0|0:0,0:0:0:0:
167,374,69292,1,0,0:0:0:0:
167,374,69477,2,0,P|226:368|230:273,1,140,10|10,0:0|0:0,0:0:0:0:
247,144,70218,6,0,L|256:70,1,70,6|0,0:0|0:0,0:0:0:0:
329,55,70588,2,0,L|337:124,1,70,14|0,0:0|0:0,0:0:0:0:
354,199,70959,1,14,0:0:0:0:
421,162,71144,2,0,P|466:153|499:163,2,70,2|14|0,3:2|3:2|0:0,0:0:0:0:
459,229,71700,6,0,P|469:282|414:346,1,140,6|8,0:0|0:0,0:0:0:0:
393,271,72255,1,0,0:0:0:0:
334,321,72440,2,0,L|255:329,1,70,10|0,0:0|0:0,0:0:0:0:
197,366,72811,2,0,L|122:359,1,70,10|2,0:0|0:0,0:0:0:0:
59,323,73181,6,0,P|59:272|138:216,1,140,6|10,0:0|0:0,0:0:0:0:
269,169,73922,2,0,P|272:222|190:276,1,140,10|8,0:0|0:0,0:0:0:0:
199,199,74477,1,2,0:0:0:0:
205,121,74663,6,0,P|238:94|281:89,1,70,6|0,0:0|0:0,0:0:0:0:
336,114,75033,2,0,L|483:119,1,140,10|10,0:0|0:0,0:0:0:0:
471,41,75588,2,0,L|393:39,1,70,0|10,0:0|0:0,0:0:0:0:
325,23,75959,6,0,L|185:29,1,140,6|2,0:0|0:0,0:0:0:0:
109,40,76514,1,2,0:0:0:0:
150,105,76700,2,0,L|161:176,1,70,2|2,0:0|0:0,0:0:0:0:
160,174,77255,6,0,B|220:156|211:198|287:165,1,105,8|0,0:3|0:0,0:0:0:0:
286,142,77626,6,0,L|278:283,1,140,6|10,0:0|0:0,0:0:0:0:
276,358,78181,1,0,0:0:0:0:
207,323,78366,2,0,P|172:319|138:326,2,70,10|0|10,0:0|0:0|0:0,0:0:0:0:
276,358,78922,6,0,B|336:366|336:366|419:356,1,140,6|0,0:0|0:0,0:0:0:0:
461,295,79477,1,10,0:0:0:0:
387,271,79663,2,0,L|376:137,1,105,2|8,0:0|0:0,0:0:0:0:
375,127,80033,1,8,0:0:0:0:
329,64,80218,2,0,B|276:62|276:62|241:74|241:74|182:70,1,140,10|6,0:0|0:0,0:0:0:0:
114,63,80774,5,0,0:0:0:0:
48,22,80959,2,0,P|33:66|39:98,1,70,10|0,0:0|0:0,0:0:0:0:
53,163,81329,2,0,L|201:154,1,140,10|10,0:0|0:0,0:0:0:0:
270,155,81885,6,0,P|287:191|233:282,1,140,6|0,0:0|0:0,0:0:0:0:
170,279,82440,1,10,0:0:0:0:
190,353,82626,2,0,B|227:372|227:372|325:371,1,140,6|2,0:0|3:2,0:0:0:0:
385,323,83181,2,0,L|413:248,1,70,10|8,3:2|0:0,0:0:0:0:
483,235,83551,6,0,P|434:228|396:139,1,140,14|10,0:0|0:0,0:0:0:0:
325,115,84107,1,0,0:0:0:0:
325,115,84292,2,0,L|168:135,1,140,10|10,0:0|0:0,0:0:0:0:
184,210,84848,6,0,L|340:219,1,140,6|0,0:0|0:0,0:0:0:0:
399,232,85403,1,10,0:0:0:0:
440,296,85588,2,0,P|415:353|321:352,1,140,2|2,0:0|0:0,0:0:0:0:
286,313,86144,2,0,B|233:304|241:348|157:320,1,105,10|0,0:0|0:0,0:0:0:0:
147,315,86514,6,0,L|154:195,2,105,12|2|2,0:0|0:0|0:0,0:0:0:0:
41,202,87440,2,0,L|36:122,1,70,2|2,0:0|0:0,0:0:0:0:
82,69,87811,1,2,0:0:0:0:
150,103,87996,6,0,B|226:109|226:109|279:99,2,105,12|8|12,0:0|0:0|0:0,0:0:0:0:
263,34,88922,2,0,L|253:112,1,70,0|0,0:0|3:0,0:0:0:0:
