osu file format v14

[General]
AudioFilename: Kunshi Ayauku mo Chikou yore.mp3
AudioLeadIn: 0
PreviewTime: 53459
Countdown: 0
SampleSet: Soft
StackLeniency: 0.4
Mode: 0
LetterboxInBreaks: 0
WidescreenStoryboard: 0

[Editor]
DistanceSpacing: 1.3
BeatDivisor: 4
GridSize: 4
TimelineZoom: 1.500001

[Metadata]
Title:Kunshi Ayauku mo Chikou Yore (TV Size)
TitleUnicode:君氏危うくも近うよれ(TV Size)
Artist:AOP
ArtistUnicode:A応P
Creator:Hazu-
Version:Hard
Source:おそ松さん
Tags:kyuukai alacat -nanoripe- underforest osomatsu-san osomatsusan second season opening aoup san osomatsu karamatsu choromatsu ichimatsu jyushimatsu todomatsu matsuno あさき mafumafu konami
BeatmapID:1431021
BeatmapSetID:676605

[Difficulty]
HPDrainRate:5
CircleSize:4
OverallDifficulty:6
ApproachRate:7
SliderMultiplier:1.5
SliderTickRate:1

[Events]
//Background and Video events
0,0,"Kunshi Ayauku mo Chikou yore.jpg",0,0
Video,500,"video.avi"
//Break Periods
//Storyboard Layer 0 (Background)
//Storyboard Layer 1 (Fail)
//Storyboard Layer 2 (Pass)
//Storyboard Layer 3 (Foreground)
//Storyboard Sound Samples

[TimingPoints]
589,370.37037037037,4,2,3,50,1,0
589,-133.333333333333,4,2,3,50,0,0
4848,-133.333333333333,4,2,1,55,0,0
6082,-100,4,2,2,55,0,0
6514,-100,4,2,1,60,0,0
15403,-100,4,2,3,60,0,0
17996,-100,4,2,1,60,0,0
18366,-125,4,2,1,30,0,0
29663,-125,4,2,1,40,0,0
30218,-111.111111111111,4,2,1,50,0,0
53181,-100,4,2,2,50,0,0
53551,-100,4,2,1,50,0,0
53922,-100,4,2,1,70,0,1
64477,-100,4,2,3,70,0,1
65033,-100,4,2,1,70,0,1
76329,-100,4,2,3,70,0,1
76885,-100,4,2,1,70,0,1
77533,-100,4,2,1,5,0,1
77626,-100,4,2,1,70,0,0
86514,-100,4,2,3,70,0,0
89107,-100,4,2,1,70,0,0

[Colours]
Combo1 : 255,140,192
Combo2 : 255,85,85
Combo3 : 62,158,255
Combo4 : 156,206,100
Combo5 : 179,116,248
Combo6 : 253,227,85

[HitObjects]
252,144,589,6,0,P|296:128|352:132,2,84.3750032186509,8|2|2,0:0|0:0|0:0,0:0:0:0:
128,244,1514,2,0,P|132:276|136:320,1,56.2500021457673,2|2,0:0|0:0,0:0:0:0:
76,368,1885,5,8,0:0:0:0:
24,296,2070,2,0,P|20:244|16:196,2,84.3750032186509,8|2|2,0:0|0:0|0:0,0:0:0:0:
112,164,2996,2,0,P|148:156|188:156,1,56.2500021457673,2|2,0:0|0:0,0:0:0:0:
256,176,3366,5,8,0:0:0:0:
256,176,3551,2,0,P|250:119|244:64,1,112.500004291535,8|0,0:0|0:0,0:0:0:0:
332,88,4107,1,8,0:0:0:0:
332,88,4292,2,0,P|336:124|344:212,1,112.500004291535,8|8,0:0|0:0,0:0:0:0:
428,228,4848,6,0,P|424:192|420:152,1,56.2500021457673,6|0,0:0|0:0,0:0:0:0:
448,96,5218,1,2,0:0:0:0:
444,80,5311,1,2,0:0:0:0:
440,68,5403,2,0,L|400:72,3,28.1250010728836,2|2|2|2,0:0|0:0|0:0|0:0,0:0:0:0:
384,36,5774,2,0,P|344:40|256:44,1,112.500004291535,2|2,0:0|0:0,0:0:0:0:
60,32,6514,6,0,P|80:72|56:172,1,150,6|10,0:0|0:0,0:0:0:0:
28,248,7070,1,0,0:0:0:0:
28,248,7163,1,8,0:0:0:0:
28,248,7255,2,0,P|72:240|116:240,1,75,10|0,0:0|0:0,0:0:0:0:
180,268,7626,1,10,0:0:0:0:
272,300,7811,6,0,P|348:296|428:292,1,150,6|0,0:0|0:0,0:0:0:0:
428,212,8366,2,0,L|340:216,1,75,10|0,0:0|0:0,0:0:0:0:
276,184,8737,2,0,L|216:188,3,37.5,2|2|2|2,0:0|0:0|0:0|0:0,0:0:0:0:
199,199,9107,1,10,0:0:0:0:
191,116,9292,1,2,0:0:0:0:
111,172,9477,6,0,P|115:208|119:264,1,75,6|0,0:0|0:0,0:0:0:0:
81,321,9848,1,10,0:0:0:0:
29,256,10033,1,0,0:0:0:0:
29,256,10126,1,8,0:0:0:0:
29,256,10218,2,0,P|26:218|21:181,1,75,10|0,0:0|0:0,0:0:0:0:
8,99,10588,1,8,0:0:0:0:
104,117,10774,6,0,P|144:123|179:119,1,75,6|0,0:0|0:0,0:0:0:0:
263,72,11144,2,0,P|303:66|338:70,1,75,6|8,0:0|0:0,0:0:0:0:
391,151,11514,2,0,P|387:191|383:247,1,75,6|0,0:0|0:0,0:0:0:0:
316,276,11885,1,2,3:2:0:0:
264,212,12070,2,0,L|268:168,3,37.5,10|8|8|8,3:2|0:0|0:0|0:0,0:0:0:0:
272,132,12440,6,0,B|228:148|228:148|120:144,1,150,6|8,0:0|0:0,0:0:0:0:
44,120,12996,1,0,0:0:0:0:
44,120,13088,1,8,0:0:0:0:
44,120,13181,2,0,P|48:148|52:200,1,75,10|0,0:0|0:0,0:0:0:0:
40,276,13551,1,10,0:0:0:0:
128,316,13737,6,0,B|204:344|204:292|292:324,1,150,6|0,0:0|0:0,0:0:0:0:
352,352,14292,2,0,P|396:356|436:348,1,75,10|0,0:0|0:0,0:0:0:0:
480,288,14663,2,0,L|484:240,3,37.5,10|2|2|2,0:0|0:0|0:0|0:0,0:0:0:0:
490,209,15033,1,10,0:0:0:0:
407,209,15218,1,2,0:0:0:0:
468,132,15403,6,0,P|472:88|476:20,2,112.5,8|2|2,0:0|0:0|0:0,0:0:0:0:
364,260,16329,2,0,P|328:252|284:248,1,75,2|2,0:0|0:0,0:0:0:0:
208,228,16699,1,2,0:0:0:0:
128,284,16885,6,0,P|112:232|132:168,2,112.5,12|8|12,0:0|0:0|0:0,0:0:0:0:
60,48,17996,1,0,3:0:0:0:
228,72,18366,6,0,P|268:68|316:64,1,60,6|0,0:0|0:0,0:0:0:0:
368,96,18737,2,0,P|408:92|456:88,1,60,10|0,0:0|0:0,0:0:0:0:
512,80,19107,2,0,P|508:128|504:208,1,120,2|8,0:0|0:0,0:0:0:0:
480,292,19663,6,0,P|424:256|352:256,1,120,2|2,0:0|0:0,0:0:0:0:
292,224,20218,1,10,0:0:0:0:
292,224,20403,2,0,P|248:228|208:220,1,60,2|0,0:0|0:0,0:0:0:0:
152,200,20774,2,0,P|156:236|160:280,2,60,2|8|2,0:0|0:0|0:0,0:0:0:0:
56,192,21329,6,0,P|61:251|65:311,1,120,2|10,0:0|0:0,0:0:0:0:
116,380,21885,1,2,0:0:0:0:
184,332,22070,1,2,0:0:0:0:
184,332,22255,2,0,P|224:324|264:324,1,60,2|8,0:0|0:0,0:0:0:0:
336,296,22626,5,2,0:0:0:0:
336,296,22811,2,0,P|376:304|416:304,1,60,2|0,0:0|0:0,0:0:0:0:
472,336,23181,1,10,0:0:0:0:
472,336,23366,2,0,P|496:284|472:208,1,120,2|2,0:0|0:0,0:0:0:0:
436,156,23922,1,8,0:0:0:0:
344,188,24107,1,8,0:0:0:0:
344,188,24200,1,8,0:0:0:0:
344,188,24292,6,0,P|312:184|256:180,1,60,6|2,0:0|0:0,0:0:0:0:
208,148,24663,2,0,P|176:152|120:156,1,60,10|0,0:0|0:0,0:0:0:0:
72,188,25033,2,0,B|76:144|76:144|64:60,1,120,2|8,0:0|0:0,0:0:0:0:
152,28,25588,6,0,B|212:16|212:48|276:32,1,120,2|2,0:0|0:0,0:0:0:0:
352,16,26144,1,10,0:0:0:0:
352,16,26329,2,0,P|348:56|344:100,1,60,2|0,0:0|0:0,0:0:0:0:
380,152,26700,2,0,P|376:192|372:236,2,60,2|8|0,0:0|0:0|0:0,0:0:0:0:
476,144,27255,6,0,P|472:180|464:272,1,120,2|10,0:0|0:0,0:0:0:0:
420,336,27811,1,2,0:0:0:0:
420,336,27996,2,0,P|384:328|344:324,1,60,2|0,0:0|0:0,0:0:0:0:
280,336,28366,1,8,0:0:0:0:
184,356,28551,6,0,P|154:351|125:345,1,60,6|0,0:0|0:0,0:0:0:0:
56,300,28922,1,2,0:0:0:0:
48,284,29014,1,2,0:0:0:0:
40,268,29107,2,0,L|44:220,3,30,10|2|2|2,0:0|0:0|0:0|0:0,0:0:0:0:
40,196,29477,2,0,L|44:148,3,30,2|2|2|2,0:0|0:0|3:2|0:0,0:0:0:0:
40,124,29848,2,0,L|44:76,3,30,10|2|2|2,3:2|0:0|0:0|0:0,0:0:0:0:
40,48,30218,6,0,P|88:56|132:60,1,67.4999979400635,6|0,0:0|0:0,0:0:0:0:
188,28,30588,2,0,P|236:20|280:16,1,67.4999979400635,10|0,0:0|0:0,0:0:0:0:
336,52,30959,2,0,P|332:100|328:192,1,134.999995880127,2|8,0:0|0:0,0:0:0:0:
232,216,31514,1,2,0:0:0:0:
232,200,31607,1,2,0:0:0:0:
232,184,31700,6,0,P|192:180|152:184,1,67.4999979400635,2|0,0:0|0:0,0:0:0:0:
80,156,32070,1,10,0:0:0:0:
52,240,32255,1,2,0:0:0:0:
52,240,32440,2,0,P|56:280|60:336,1,67.4999979400635,2|0,0:0|0:0,0:0:0:0:
112,376,32811,1,8,0:0:0:0:
196,320,32996,1,2,0:0:0:0:
208,316,33088,1,2,0:0:0:0:
220,312,33181,6,0,P|268:316|364:320,2,134.999995880127,2|8|2,0:0|0:0|0:0,0:0:0:0:
160,248,34107,2,0,P|152:208|156:172,1,67.4999979400635,2|8,0:0|0:0,0:0:0:0:
228,112,34477,6,0,B|300:92|300:136|372:112,1,134.999995880127,2|2,0:0|0:0,0:0:0:0:
376,112,34940,1,2,0:0:0:0:
392,108,35033,2,0,P|388:148|384:200,1,67.4999979400635,10|0,0:0|0:0,0:0:0:0:
472,196,35403,2,0,P|474:162|478:128,1,67.4999979400635,2|0,0:0|3:2,0:0:0:0:
476,40,35774,2,0,P|464:32|432:20,3,33.7499989700318,10|2|2|2,0:0|0:0|0:0|0:0,0:0:0:0:
408,8,36144,6,0,P|368:12|312:16,1,67.4999979400635,2|0,0:0|0:0,0:0:0:0:
260,48,36514,2,0,P|220:44|164:40,1,67.4999979400635,10|0,0:0|0:0,0:0:0:0:
104,28,36885,2,0,P|132:88|112:156,1,134.999995880127,2|8,0:0|0:0,0:0:0:0:
40,220,37440,1,2,0:0:0:0:
28,232,37533,1,2,0:0:0:0:
16,244,37626,6,0,P|20:288|24:336,1,67.4999979400635,2|0,0:0|0:0,0:0:0:0:
88,368,37996,1,10,0:0:0:0:
168,332,38181,2,0,P|216:328|260:332,1,67.4999979400635,2|2,0:0|0:0,0:0:0:0:
316,292,38552,2,0,P|364:296|408:292,2,67.4999979400635,2|8|2,0:0|0:0|0:0,0:0:0:0:
232,232,39107,6,0,P|200:176|216:96,1,134.999995880127,2|8,0:0|0:0,0:0:0:0:
260,40,39663,1,0,0:0:0:0:
336,84,39848,2,0,P|368:80|424:76,1,67.4999979400635,2|0,0:0|0:0,0:0:0:0:
492,68,40218,1,10,0:0:0:0:
512,168,40403,6,0,P|508:204|504:252,1,67.4999979400635,6|0,0:0|0:0,0:0:0:0:
452,304,40774,1,2,0:0:0:0:
440,312,40866,1,2,0:0:0:0:
428,320,40959,2,0,L|380:316,3,33.7499989700318,10|2|2|2,0:0|0:0|0:0|0:0,0:0:0:0:
352,324,41329,2,0,L|304:320,3,33.7499989700318,10|2|10|2,0:0|0:0|0:0|0:0,0:0:0:0:
276,332,41700,1,10,0:0:0:0:
176,188,42070,6,0,P|180:148|184:108,1,67.4999979400635,6|0,0:0|0:0,0:0:0:0:
96,120,42440,2,0,P|93:147|88:188,1,67.4999979400635,10|0,0:0|0:0,0:0:0:0:
52,268,42811,1,2,0:0:0:0:
52,268,42995,1,2,0:0:0:0:
128,308,43181,2,0,P|164:304|220:304,1,67.4999979400635,10|0,3:2|0:0,0:0:0:0:
292,336,43551,6,0,P|328:340|384:340,1,67.4999979400635,2|0,0:0|0:0,0:0:0:0:
444,364,43922,1,10,0:0:0:0:
444,364,44107,1,2,0:0:0:0:
476,288,44292,2,0,P|472:248|468:192,1,67.4999979400635,2|8,0:0|0:0,0:0:0:0:
476,208,44570,1,8,0:0:0:0:
480,196,44663,2,0,P|476:156|472:100,1,67.4999979400635,10|2,0:0|0:0,0:0:0:0:
392,68,45033,6,0,P|336:52|256:80,1,134.999995880127,6|10,0:0|0:0,0:0:0:0:
120,172,45774,2,0,P|124:220|128:316,1,134.999995880127,6|10,0:0|0:0,0:0:0:0:
292,368,46514,6,0,P|294:300|300:240,1,101.249996910095,6|8,0:0|0:0,0:0:0:0:
300,248,46885,1,10,0:0:0:0:
364,188,47070,2,0,L|368:140,3,33.7499989700318,8|8|10|8,0:0|0:0|0:0|0:0,0:0:0:0:
388,116,47440,2,0,P|384:80|380:32,1,67.4999979400635,8|10,0:0|0:0,0:0:0:0:
476,12,47811,1,10,0:0:0:0:
484,24,47903,1,10,0:0:0:0:
492,36,47996,6,0,P|495:69|498:103,1,67.4999979400635,14|0,0:0|0:0,0:0:0:0:
484,188,48366,2,0,P|487:221|490:255,1,67.4999979400635,10|0,0:0|0:0,0:0:0:0:
468,340,48737,1,2,0:0:0:0:
388,304,48922,1,10,3:2:0:0:
316,356,49107,2,0,P|272:352|224:352,1,67.4999979400635,10|0,3:2|0:0,0:0:0:0:
148,360,49477,6,0,P|152:324|148:276,1,67.4999979400635,2|0,0:0|0:0,0:0:0:0:
128,208,49848,2,0,P|124:174|125:140,1,67.4999979400635,10|0,0:0|0:0,0:0:0:0:
160,60,50218,1,2,0:0:0:0:
236,104,50403,1,10,3:2:0:0:
308,56,50588,2,0,P|352:60|400:64,1,67.4999979400635,10|0,3:2|0:0,0:0:0:0:
472,28,50959,6,0,P|464:76|456:168,1,134.999995880127,8|0,0:0|0:0,0:0:0:0:
468,264,51514,1,8,0:0:0:0:
376,224,51700,2,0,P|324:216|240:260,1,134.999995880127,8|8,0:0|0:0,0:0:0:0:
168,304,52255,6,0,P|172:340|176:392,1,67.4999979400635,6|0,0:0|0:0,0:0:0:0:
92,372,52626,1,10,0:0:0:0:
84,360,52718,1,10,0:0:0:0:
76,348,52811,2,0,L|72:300,3,33.7499989700318,10|10|10|10,0:0|0:0|0:0|0:0,0:0:0:0:
56,276,53181,1,2,0:0:0:0:
137,99,53551,1,2,0:0:0:0:
332,92,53922,6,0,P|328:144|324:256,1,150,6|8,0:0|0:0,0:0:0:0:
412,263,54477,1,0,0:0:0:0:
412,263,54570,1,8,0:0:0:0:
412,263,54663,2,0,P|412:243|416:171,1,75,10|0,0:0|0:0,0:0:0:0:
432,112,55033,1,10,0:0:0:0:
432,112,55218,1,2,0:0:0:0:
332,92,55403,6,0,B|264:72|264:128|184:100,1,150,6|10,0:0|0:0,0:0:0:0:
108,68,55959,1,0,0:0:0:0:
108,68,56051,1,8,0:0:0:0:
108,68,56144,2,0,P|112:108|116:172,1,75,10|0,0:0|0:0,0:0:0:0:
84,220,56514,2,0,P|88:260|92:324,1,75,10|0,0:0|0:0,0:0:0:0:
156,368,56885,6,0,P|184:348|300:364,1,150,6|10,0:0|0:0,0:0:0:0:
383,374,57440,1,0,0:0:0:0:
383,374,57533,1,8,0:0:0:0:
383,374,57626,2,0,P|375:330|371:290,1,75,10|0,0:0|0:0,0:0:0:0:
402,223,57996,2,0,P|397:185|390:148,1,75,10|0,0:0|0:0,0:0:0:0:
488,124,58366,6,0,P|494:160|499:198,1,75,6|0,0:0|0:0,0:0:0:0:
512,292,58737,1,14,0:0:0:0:
420,320,58922,1,0,0:0:0:0:
420,320,59014,1,8,0:0:0:0:
420,320,59107,2,0,P|376:316|320:316,1,75,14|2,0:0|3:2,0:0:0:0:
256,272,59477,2,0,P|212:276|156:276,1,75,14|0,3:2|0:0,0:0:0:0:
84,296,59848,6,0,B|96:248|96:248|88:140,1,150,6|8,0:0|0:0,0:0:0:0:
156,96,60403,1,0,0:0:0:0:
156,96,60496,1,8,0:0:0:0:
156,96,60588,2,0,P|192:84|248:84,1,75,10|0,0:0|0:0,0:0:0:0:
304,48,60958,1,10,0:0:0:0:
304,48,61143,1,2,0:0:0:0:
352,136,61329,6,0,P|348:184|344:300,1,150,6|10,0:0|0:0,0:0:0:0:
432,313,61885,1,0,0:0:0:0:
432,313,61977,1,8,0:0:0:0:
432,313,62070,2,0,P|432:265|436:209,1,75,10|0,0:0|0:0,0:0:0:0:
472,160,62440,2,0,P|472:122|470:85,1,75,8|2,0:0|0:0,0:0:0:0:
384,36,62811,6,0,B|344:24|344:24|228:32,1,150,6|10,0:0|0:0,0:0:0:0:
156,20,63366,1,0,0:0:0:0:
156,20,63459,1,8,0:0:0:0:
156,20,63551,2,0,P|160:56|164:120,1,75,10|0,0:0|0:0,0:0:0:0:
212,164,63922,1,10,0:0:0:0:
124,204,64107,6,0,P|128:252|132:360,1,150,6|2,0:0|0:0,0:0:0:0:
212,376,64663,2,0,P|252:364|300:360,1,75,2|2,0:0|0:0,0:0:0:0:
356,320,65033,2,0,L|400:324,3,37.5,8|8|8|8,0:0|0:0|0:0|0:0,0:0:0:0:
432,312,65403,2,0,L|476:316,3,37.5,10|8|10|10,0:0|0:0|0:0|0:0,0:0:0:0:
508,304,65774,6,0,P|500:232|492:148,1,150,14|8,0:0|0:0,0:0:0:0:
424,112,66329,1,0,0:0:0:0:
424,112,66422,1,8,0:0:0:0:
424,112,66514,2,0,P|384:104|336:112,1,75,10|0,0:0|0:0,0:0:0:0:
276,144,66885,1,10,0:0:0:0:
276,144,67070,1,2,0:0:0:0:
192,192,67255,6,0,P|176:132|236:48,1,150,6|10,0:0|0:0,0:0:0:0:
292,20,67811,1,0,0:0:0:0:
292,20,67903,1,8,0:0:0:0:
292,20,67996,2,0,P|324:24|376:28,1,75,10|0,0:0|0:0,0:0:0:0:
448,20,68366,2,0,P|444:64|440:128,1,75,10|0,0:0|0:0,0:0:0:0:
400,184,68737,6,0,P|408:240|416:344,1,150,6|10,0:0|0:0,0:0:0:0:
340,364,69292,1,0,0:0:0:0:
340,364,69385,1,8,0:0:0:0:
340,364,69477,2,0,P|296:352|232:348,1,75,10|0,0:0|0:0,0:0:0:0:
192,316,69848,2,0,P|148:328|84:332,1,75,10|0,0:0|0:0,0:0:0:0:
12,280,70218,6,0,P|0:228|12:184,1,75,6|0,0:0|0:0,0:0:0:0:
40,116,70588,1,14,0:0:0:0:
140,152,70774,1,0,0:0:0:0:
140,152,70866,1,8,0:0:0:0:
140,152,70959,2,0,P|176:148|240:144,1,75,14|2,0:0|3:2,0:0:0:0:
308,180,71329,2,0,P|344:176|408:172,1,75,14|0,3:2|0:0,0:0:0:0:
480,192,71700,6,0,P|512:140|480:40,1,150,6|8,0:0|0:0,0:0:0:0:
424,16,72255,1,0,0:0:0:0:
424,16,72348,1,8,0:0:0:0:
424,16,72440,2,0,P|376:20|316:24,1,75,10|0,0:0|0:0,0:0:0:0:
268,28,72811,1,10,0:0:0:0:
268,28,72996,1,2,0:0:0:0:
232,120,73181,6,0,B|224:164|224:164|236:284,1,150,6|10,0:0|0:0,0:0:0:0:
156,288,73737,1,0,0:0:0:0:
156,288,73829,1,8,0:0:0:0:
156,288,73922,2,0,P|152:240|148:184,1,75,10|0,0:0|0:0,0:0:0:0:
104,144,74292,2,0,P|100:96|96:40,1,75,8|2,0:0|0:0,0:0:0:0:
188,32,74663,6,0,P|256:16|336:48,1,150,6|10,0:0|0:0,0:0:0:0:
403,96,75218,1,0,0:0:0:0:
403,96,75311,1,8,0:0:0:0:
403,96,75403,2,0,P|399:148|399:200,1,75,10|0,0:0|0:0,0:0:0:0:
422,256,75774,1,10,0:0:0:0:
316,218,75959,6,0,P|256:210|176:258,1,150,6|2,0:0|0:0,0:0:0:0:
120,308,76514,2,0,P|112:264|100:216,1,75,2|2,0:0|0:0,0:0:0:0:
48,172,76885,2,0,P|56:128|68:80,1,75,2|0,0:0|0:0,0:0:0:0:
120,40,77255,2,0,B|160:52|160:52|252:48,1,112.5,8|0,0:3|0:0,0:0:0:0:
268,32,77626,6,0,P|264:64|260:128,1,75,6|0,0:0|0:0,0:0:0:0:
304,176,77996,2,0,P|300:208|296:272,1,75,10|0,0:0|0:0,0:0:0:0:
300,268,78274,1,8,0:0:0:0:
304,284,78366,2,0,P|300:316|296:380,1,75,10|0,0:0|0:0,0:0:0:0:
216,376,78737,1,10,0:0:0:0:
212,280,78922,6,0,P|140:236|76:252,1,150,6|0,0:0|0:0,0:0:0:0:
8,292,79477,1,10,0:0:0:0:
0,208,79663,2,0,P|4:168|8:112,1,75,2|0,0:0|0:0,0:0:0:0:
10,117,79940,1,8,0:0:0:0:
12,100,80033,1,8,0:0:0:0:
80,52,80218,2,0,P|124:44|164:48,1,75,10|0,0:0|0:0,0:0:0:0:
244,80,80588,6,0,P|281:81|318:73,1,75,6|0,0:0|0:0,0:0:0:0:
400,52,80959,2,0,P|392:100|388:136,1,75,10|0,0:0|0:0,0:0:0:0:
392,144,81237,1,8,0:0:0:0:
396,160,81329,2,0,P|388:208|384:244,1,75,10|0,0:0|0:0,0:0:0:0:
412,312,81700,1,10,0:0:0:0:
320,344,81885,6,0,P|240:336|156:332,1,150,6|0,0:0|0:0,0:0:0:0:
104,284,82440,1,10,0:0:0:0:
188,232,82626,2,0,L|276:236,1,75,6|0,0:0|0:0,0:0:0:0:
340,208,82996,1,2,3:2:0:0:
300,136,83181,2,0,L|304:92,3,37.5,10|8|8|8,3:2|0:0|0:0|0:0,0:0:0:0:
308,56,83551,6,0,P|348:60|400:64,1,75,14|0,0:0|0:0,0:0:0:0:
464,84,83922,2,0,P|480:124|476:184,1,75,10|0,0:0|0:0,0:0:0:0:
476,172,84200,1,8,0:0:0:0:
468,188,84293,2,0,P|428:192|376:196,1,75,10|0,0:0|0:0,0:0:0:0:
316,228,84663,1,10,0:0:0:0:
224,256,84848,6,0,P|176:252|56:248,1,150,6|0,0:0|0:0,0:0:0:0:
4,288,85403,1,10,0:0:0:0:
76,344,85588,1,2,0:0:0:0:
76,344,85681,1,8,0:0:0:0:
76,344,85774,2,0,P|116:344|168:348,1,75,10|2,0:0|0:0,0:0:0:0:
232,368,86144,2,0,P|272:368|324:364,1,75,10|0,0:0|0:0,0:0:0:0:
384,308,86514,6,0,P|428:312|500:316,2,112.5,12|2|2,0:0|0:0|0:0,0:0:0:0:
272,184,87440,2,0,P|268:136|264:80,1,75,2|2,0:0|0:0,0:0:0:0:
212,48,87811,1,2,0:0:0:0:
180,140,87996,6,0,P|184:196|188:268,2,112.5,12|8|12,0:0|0:0|0:0,0:0:0:0:
80,368,89107,1,0,3:0:0:0:
