osu file format v14

[General]
AudioFilename: Kunshi Ayauku mo Chikou yore.mp3
AudioLeadIn: 0
PreviewTime: 53459
Countdown: 0
SampleSet: Soft
StackLeniency: 0.7
Mode: 0
LetterboxInBreaks: 0
WidescreenStoryboard: 0

[Editor]
DistanceSpacing: 0.5
BeatDivisor: 4
GridSize: 4
TimelineZoom: 3.4

[Metadata]
Title:Kunshi Ayauku mo Chikou Yore (TV Size)
TitleUnicode:君氏危うくも近うよれ(TV Size)
Artist:AOP
ArtistUnicode:A応P
Creator:Hazu-
Version:Forest's Another
Source:おそ松さん
Tags:kyuukai alacat -nanoripe- underforest osomatsu-san osomatsusan second season opening aoup san osomatsu karamatsu choromatsu ichimatsu jyushimatsu todomatsu matsuno あさき mafumafu konami
BeatmapID:1431742
BeatmapSetID:676605

[Difficulty]
HPDrainRate:6.5
CircleSize:4
OverallDifficulty:8
ApproachRate:9
SliderMultiplier:1.9
SliderTickRate:1

[Events]
//Background and Video events
0,0,"Kunshi Ayauku mo Chikou yore.jpg",0,0
Video,500,"video.avi"
//Break Periods
//Storyboard Layer 0 (Background)
//Storyboard Layer 1 (Fail)
//Storyboard Layer 2 (Pass)
//Storyboard Layer 3 (Foreground)
//Storyboard Sound Samples

[TimingPoints]
589,370.37037037037,4,2,3,60,1,0
589,-133.333333333333,4,2,3,60,0,0
866,-83.3333333333333,4,2,3,60,0,0
1144,-200,4,2,3,60,0,0
1885,-66.6666666666667,4,2,3,60,0,0
2070,-133.333333333333,4,2,3,60,0,0
2348,-83.3333333333333,4,2,3,60,0,0
2626,-200,4,2,3,60,0,0
3366,-66.6666666666667,4,2,3,60,0,0
3551,-100,4,2,3,60,0,0
4107,-66.6666666666667,4,2,3,60,0,0
4292,-100,4,2,3,60,0,0
4663,-66.6666666666667,4,2,3,60,0,0
4848,-100,4,2,1,55,0,0
5774,-100,4,2,1,55,0,0
6082,-133.333333333333,4,2,2,55,0,0
6514,-100,4,2,1,60,0,0
15403,-133.333333333333,4,2,3,60,0,0
15681,-83.3333333333333,4,2,3,70,0,0
15959,-200,4,2,3,70,0,0
16700,-100,4,2,3,70,0,0
16885,-66.6666666666667,4,2,3,70,0,0
17163,-55.5555555555556,4,2,3,70,0,0
17440,-133.333333333333,4,2,3,60,0,0
17996,-100,4,2,1,60,0,0
18366,-111.111111111111,4,2,1,30,0,0
29663,-100,4,2,1,40,0,0
30218,-100,4,2,1,50,0,0
50959,-66.6666666666667,4,2,3,70,0,0
52255,-100,4,2,1,70,0,0
53181,-100,4,2,2,50,0,0
53551,-100,4,2,1,50,0,0
53922,-100,4,2,1,70,0,1
64477,-100,4,2,3,70,0,1
65033,-100,4,2,1,70,0,1
65403,-100,4,2,1,70,0,0
65774,-100,4,2,1,70,0,1
76329,-100,4,2,3,70,0,1
76885,-100,4,2,1,70,0,1
77626,-100,4,2,1,70,0,0
86514,-133.333333333333,4,2,3,70,0,0
86792,-83.3333333333333,4,2,3,70,0,0
87070,-200,4,2,3,70,0,0
87811,-100,4,2,3,70,0,0
87996,-66.6666666666667,4,2,3,70,0,0
88274,-55.5555555555556,4,2,3,70,0,0
88551,-133.333333333333,4,2,3,70,0,0
89107,-133.333333333333,4,2,1,70,0,0

[Colours]
Combo1 : 255,140,192
Combo2 : 255,85,85
Combo3 : 62,158,255
Combo4 : 156,206,100
Combo5 : 179,116,248
Combo6 : 253,227,85

[HitObjects]
256,192,589,6,0,L|352:176,1,71.2500027179719,8|0,0:0|0:0,0:0:0:0:
368,255,866,2,0,L|248:275,1,113.999996520996,2|0,0:0|0:0,0:0:0:0:
244,179,1144,2,0,L|330:165,1,71.25,2|0,0:0|0:0,0:0:0:0:
407,168,1514,1,2,0:0:0:0:
368,255,1700,1,2,0:0:0:0:
262,94,1885,2,0,P|220:83|188:83,1,71.2500027179719,8|0,0:0|0:0,0:0:0:0:
314,167,2070,6,0,P|348:121|350:83,1,71.2500027179719,8|0,0:0|0:0,0:0:0:0:
262,94,2348,2,0,P|229:142|233:205,1,113.999996520996,2|0,0:0|0:0,0:0:0:0:
297,247,2626,2,0,L|388:231,1,71.25,2|0,0:0|0:0,0:0:0:0:
470,255,2996,1,2,0:0:0:0:
407,324,3181,1,2,0:0:0:0:
310,166,3366,2,0,L|232:178,1,71.2500027179719,8|0,0:0|0:0,0:0:0:0:
117,194,3551,5,8,0:0:0:0:
407,204,4107,6,0,P|417:155|413:106,1,71.2500027179719,8|0,0:0|0:0,0:0:0:0:
300,79,4292,1,8,0:0:0:0:
300,79,4663,1,8,0:0:0:0:
153,248,4848,6,0,P|194:283|286:292,1,142.5,6|0,0:0|0:0,0:0:0:0:
327,226,5218,1,2,0:0:0:0:
336,215,5311,1,2,0:0:0:0:
345,205,5403,2,0,L|364:144,1,47.5,2|2,0:0|0:0,0:0:0:0:
494,116,5588,2,0,L|506:162,1,47.5,2|2,0:0|0:0,0:0:0:0:
418,31,5774,1,2,0:0:0:0:
418,31,6082,6,0,L|443:28,1,23.7500009059906,2|0,0:0|0:0,0:0:0:0:
352,195,6514,6,0,P|294:202|243:206,1,95,6|0,0:0|0:0,0:0:0:0:
74,294,6885,1,10,0:0:0:0:
104,99,7070,1,0,0:0:0:0:
104,99,7163,1,8,0:0:0:0:
104,99,7255,2,0,L|170:94,1,47.5,10|0,0:0|0:0,0:0:0:0:
324,115,7440,1,0,0:0:0:0:
116,196,7625,1,10,0:0:0:0:
266,50,7811,6,0,P|324:26|374:44,1,95,6|0,0:0|0:0,0:0:0:0:
414,218,8181,1,0,0:0:0:0:
475,26,8366,1,10,0:0:0:0:
324,115,8551,1,0,0:0:0:0:
512,214,8737,2,0,L|502:266,1,47.5,2|2,0:0|0:0,0:0:0:0:
367,332,8922,2,0,L|359:280,1,47.5,2|2,0:0|0:0,0:0:0:0:
324,115,9107,1,10,0:0:0:0:
188,242,9292,1,2,0:0:0:0:
359,285,9477,6,0,P|406:298|474:281,1,95,6|0,0:0|0:0,0:0:0:0:
413,90,9848,1,10,0:0:0:0:
288,192,10033,1,0,0:0:0:0:
288,192,10126,1,8,0:0:0:0:
288,192,10218,2,0,L|277:250,1,47.5,10|0,0:0|0:0,0:0:0:0:
225,381,10403,1,0,0:0:0:0:
143,199,10588,1,8,0:0:0:0:
30,274,10774,6,0,L|23:375,1,95,6|0,0:0|0:0,0:0:0:0:
143,199,11144,2,0,L|149:104,1,95,6|8,0:0|0:0,0:0:0:0:
219,61,11422,1,0,0:0:0:0:
229,52,11514,2,0,P|273:47|330:59,1,95,6|0,0:0|0:0,0:0:0:0:
506,59,11885,1,2,3:2:0:0:
421,217,12070,1,10,3:2:0:0:
422,261,12162,1,8,0:0:0:0:
403,301,12255,1,8,0:0:0:0:
366,327,12347,1,8,0:0:0:0:
326,335,12440,6,0,L|205:328,1,95,6|0,0:0|0:0,0:0:0:0:
29,306,12811,1,8,0:0:0:0:
146,169,12996,1,0,0:0:0:0:
146,169,13088,1,8,0:0:0:0:
146,169,13181,2,0,L|162:99,1,47.5,10|0,0:0|0:0,0:0:0:0:
214,261,13366,1,0,0:0:0:0:
39,212,13551,1,10,0:0:0:0:
240,155,13737,6,0,B|292:144|292:144|364:167|364:167|428:156,1,190,6|0,0:0|0:0,0:0:0:0:
323,38,14292,1,10,0:0:0:0:
285,243,14477,1,0,0:0:0:0:
285,243,14570,1,8,0:0:0:0:
285,243,14663,2,0,L|278:299,1,47.5,10|2,0:0|0:0,0:0:0:0:
148,253,14848,2,0,L|142:205,1,47.5,2|2,0:0|0:0,0:0:0:0:
181,356,15033,2,0,P|133:359|90:341,1,95,10|2,0:0|0:0,0:0:0:0:
256,192,15403,6,0,L|352:176,1,71.2500027179719,8|0,0:0|0:0,0:0:0:0:
368,255,15681,2,0,L|248:275,1,113.999996520996,2|0,0:0|0:0,0:0:0:0:
244,179,15959,2,0,L|330:165,1,71.25,2|0,0:0|0:0,0:0:0:0:
396,107,16328,1,2,0:0:0:0:
368,255,16514,1,2,0:0:0:0:
270,79,16700,2,0,P|242:71|223:66,1,47.5,2|0,0:0|0:0,0:0:0:0:
121,48,16885,6,0,P|144:99|115:184,1,142.500005435944,12|0,0:0|0:0,0:0:0:0:
56,112,17163,6,0,B|125:110|125:110|234:142,1,170.999994781494,8|0,0:0|0:0,0:0:0:0:
276,193,17440,6,0,P|255:256|281:324,1,142.500005435944,12|0,0:0|0:0,0:0:0:0:
296,335,17903,1,0,0:0:0:0:
317,347,17996,1,0,3:0:0:0:
468,181,18366,6,0,L|363:190,1,85.4999973907472,6|0,0:0|0:0,0:0:0:0:
283,103,18737,2,0,L|374:95,1,85.4999973907472,10|0,0:0|0:0,0:0:0:0:
276,193,19107,2,0,P|236:184|197:132,1,85.4999973907472,2|0,0:0|0:0,0:0:0:0:
101,77,19477,1,8,0:0:0:0:
101,77,19663,6,0,L|82:187,1,85.4999973907472,2|0,0:0|0:0,0:0:0:0:
151,289,20033,1,2,0:0:0:0:
205,153,20218,1,10,0:0:0:0:
80,238,20403,2,0,L|-30:219,1,85.4999973907472,2|0,0:0|0:0,0:0:0:0:
151,289,20774,2,0,L|235:303,1,85.4999973907472,2|8,0:0|0:0,0:0:0:0:
323,234,21144,1,2,0:0:0:0:
392,356,21329,6,0,P|423:366|491:351,1,85.4999973907472,2|0,0:0|0:0,0:0:0:0:
482,207,21700,2,0,P|451:197|383:212,1,85.4999973907472,10|2,0:0|0:0,0:0:0:0:
278,274,22070,1,2,0:0:0:0:
158,180,22255,2,0,L|171:84,2,85.4999973907472,2|8|2,0:0|0:0|0:0,0:0:0:0:
222,35,22811,6,0,P|172:16|121:33,1,85.4999973907472,2|0,0:0|0:0,0:0:0:0:
77,166,23181,1,10,0:0:0:0:
77,166,23366,2,0,P|127:185|178:168,1,85.4999973907472,2|0,0:0|0:0,0:0:0:0:
328,157,23737,1,2,0:0:0:0:
168,99,23922,1,8,0:0:0:0:
212,269,24107,1,8,0:0:0:0:
212,269,24200,1,8,0:0:0:0:
212,269,24292,6,0,L|196:359,1,85.4999973907472,6|2,0:0|0:0,0:0:0:0:
315,239,24663,2,0,L|329:154,1,85.4999973907472,10|0,0:0|0:0,0:0:0:0:
238,71,25033,2,0,P|193:61|139:75,1,85.4999973907472,2|0,0:0|0:0,0:0:0:0:
41,130,25403,1,8,0:0:0:0:
41,130,25588,6,0,L|50:230,1,85.4999973907472,2|0,0:0|0:0,0:0:0:0:
118,334,25959,1,2,0:0:0:0:
192,210,26144,1,10,0:0:0:0:
119,347,26329,2,0,L|222:352,1,85.4999973907472,2|0,0:0|0:0,0:0:0:0:
344,269,26700,1,2,0:0:0:0:
344,269,26885,2,0,L|255:265,1,85.4999973907472,8|0,0:0|0:0,0:0:0:0:
129,264,27256,6,0,P|109:199|130:160,1,85.4999973907472,2|0,0:0|0:0,0:0:0:0:
190,47,27626,1,10,0:0:0:0:
253,173,27811,1,2,0:0:0:0:
104,92,27996,1,2,0:0:0:0:
300,79,28181,1,0,0:0:0:0:
101,108,28366,1,8,0:0:0:0:
347,138,28551,6,0,L|338:266,1,128.249996086121,6|0,0:0|0:0,0:0:0:0:
274,313,28922,1,2,0:0:0:0:
255,321,29014,1,2,0:0:0:0:
235,327,29107,5,10,0:0:0:0:
205,331,29199,1,2,0:0:0:0:
174,328,29292,1,2,0:0:0:0:
145,319,29384,1,2,0:0:0:0:
121,300,29477,5,2,0:0:0:0:
97,264,29569,1,2,0:0:0:0:
83,223,29662,1,2,3:2:0:0:
86,175,29754,1,2,0:0:0:0:
107,131,29848,5,10,3:2:0:0:
169,88,29940,1,2,0:0:0:0:
245,88,30033,1,2,0:0:0:0:
310,125,30125,1,2,0:0:0:0:
368,173,30218,6,0,L|476:178,1,95,6|0,0:0|0:0,0:0:0:0:
293,275,30588,2,0,L|195:269,1,95,10|0,0:0|0:0,0:0:0:0:
89,106,30958,1,2,0:0:0:0:
253,180,31144,1,0,0:0:0:0:
96,293,31329,1,8,0:0:0:0:
89,106,31514,6,0,L|92:8,1,95,2|2,0:0|0:0,0:0:0:0:
163,171,31885,1,0,0:0:0:0:
0,150,32070,1,10,0:0:0:0:
186,63,32255,2,0,P|234:52|298:68,1,95,2|2,0:0|0:0,0:0:0:0:
430,146,32626,1,0,0:0:0:0:
360,5,32811,1,8,0:0:0:0:
326,178,32996,1,2,0:0:0:0:
496,205,33181,6,0,L|511:112,1,95,2|0,0:0|0:0,0:0:0:0:
341,271,33551,2,0,L|326:178,1,95,8|0,0:0|0:0,0:0:0:0:
297,5,33922,1,2,0:0:0:0:
195,127,34107,1,2,0:0:0:0:
394,102,34292,1,8,0:0:0:0:
261,239,34477,6,0,P|212:263|158:258,1,95,2|0,0:0|0:0,0:0:0:0:
0,277,34848,1,2,0:0:0:0:
118,378,35033,1,10,0:0:0:0:
98,181,35218,2,0,L|89:78,1,95,0|2,0:0|0:0,0:0:0:0:
267,6,35588,1,0,3:2:0:0:
433,112,35774,1,10,0:0:0:0:
391,135,35866,1,2,0:0:0:0:
345,141,35959,1,2,0:0:0:0:
299,130,36051,1,2,0:0:0:0:
253,116,36144,5,2,0:0:0:0:
173,300,36329,1,0,0:0:0:0:
364,287,36514,2,0,P|410:294|458:276,1,95,10|0,0:0|0:0,0:0:0:0:
512,107,36885,2,0,P|469:100|422:118,1,95,2|0,0:0|0:0,0:0:0:0:
234,142,37255,1,8,0:0:0:0:
330,30,37440,1,2,0:0:0:0:
377,192,37626,6,0,L|363:291,1,95,2|0,0:0|0:0,0:0:0:0:
215,367,37996,1,10,0:0:0:0:
219,190,38181,1,2,0:0:0:0:
392,370,38366,6,0,L|284:344,1,95,2|2,0:0|0:0,0:0:0:0:
112,280,38737,1,8,0:0:0:0:
292,192,38922,1,2,0:0:0:0:
148,353,39107,6,0,P|96:357|40:323,1,95,2|0,0:0|0:0,0:0:0:0:
33,166,39477,2,0,P|85:162|141:196,1,95,8|0,0:0|0:0,0:0:0:0:
230,319,39848,1,2,0:0:0:0:
308,227,40033,1,0,0:0:0:0:
123,261,40218,1,10,0:0:0:0:
193,64,40403,6,0,P|246:38|330:73,1,142.5,6|0,0:0|0:0,0:0:0:0:
409,117,40774,1,2,0:0:0:0:
418,128,40866,1,2,0:0:0:0:
429,140,40959,2,0,P|435:192|439:221,1,47.5,10|2,0:0|0:0,0:0:0:0:
280,228,41144,2,0,L|283:205|286:182,1,47.5,2|2,0:0|0:0,0:0:0:0:
425,286,41329,2,0,P|431:338|433:356,1,47.5,10|2,0:0|0:0,0:0:0:0:
280,383,41514,2,0,P|283:360|291:314,1,47.5,10|2,0:0|0:0,0:0:0:0:
287,180,41700,1,10,0:0:0:0:
287,181,42070,5,6,0:0:0:0:
506,145,42255,1,0,0:0:0:0:
264,159,42440,1,10,0:0:0:0:
488,44,42626,1,0,0:0:0:0:
357,223,42811,1,2,0:0:0:0:
411,66,42996,1,2,0:0:0:0:
461,268,43181,2,0,L|454:363,1,95,10|0,3:2|0:0,0:0:0:0:
414,162,43551,5,2,0:0:0:0:
369,307,43737,1,0,0:0:0:0:
204,166,43922,1,10,0:0:0:0:
242,311,44107,1,2,0:0:0:0:
331,152,44292,1,2,0:0:0:0:
138,284,44477,1,8,0:0:0:0:
138,284,44570,1,8,0:0:0:0:
138,284,44663,2,0,P|137:334|145:394,1,95,10|2,0:0|0:0,0:0:0:0:
227,235,45033,6,0,P|150:183|50:231,1,190,6|10,0:0|0:0,0:0:0:0:
138,284,45588,1,0,0:0:0:0:
322,299,45774,6,0,P|399:351|499:303,1,190,6|10,0:0|0:0,0:0:0:0:
415,240,46329,1,0,0:0:0:0:
229,351,46514,6,0,L|89:326,1,142.5,6|8,0:0|0:0,0:0:0:0:
52,317,46885,1,10,0:0:0:0:
37,142,47070,1,8,0:0:0:0:
80,160,47162,1,8,0:0:0:0:
127,165,47255,1,10,0:0:0:0:
174,159,47347,1,8,0:0:0:0:
217,140,47440,1,8,0:0:0:0:
356,17,47625,1,10,0:0:0:0:
413,198,47811,1,10,0:0:0:0:
413,198,47903,1,10,0:0:0:0:
413,198,47996,6,0,B|423:246|423:246|417:292,1,95,14|0,0:0|0:0,0:0:0:0:
244,382,48366,2,0,B|234:335|234:335|244:286,1,95,10|0,0:0|0:0,0:0:0:0:
319,320,48644,1,0,0:0:0:0:
334,324,48737,1,2,0:0:0:0:
144,313,48922,1,10,3:2:0:0:
248,172,49107,2,0,P|258:121|245:74,1,95,10|0,3:2|0:0,0:0:0:0:
65,138,49477,6,0,P|55:189|68:236,1,95,2|0,0:0|0:0,0:0:0:0:
248,172,49848,2,0,L|149:181,1,95,10|0,0:0|0:0,0:0:0:0:
219,319,50218,1,2,0:0:0:0:
368,138,50403,1,10,3:2:0:0:
368,138,50496,1,0,0:0:0:0:
368,138,50588,1,10,3:2:0:0:
163,86,50774,1,0,0:0:0:0:
351,276,50959,1,8,0:0:0:0:
351,276,51329,5,0,0:0:0:0:
111,234,51514,1,8,0:0:0:0:
275,34,51700,1,8,0:0:0:0:
275,34,52070,1,8,0:0:0:0:
388,229,52256,6,0,P|348:263|246:261,1,142.5,6|0,0:0|0:0,0:0:0:0:
194,230,52626,1,10,0:0:0:0:
185,219,52719,1,10,0:0:0:0:
176,209,52811,2,0,L|160:145,1,47.5,10|10,0:0|0:0,0:0:0:0:
62,81,52996,2,0,L|49:131,1,47.5,10|10,0:0|0:0,0:0:0:0:
99,277,53182,1,2,0:0:0:0:
99,277,53551,6,0,P|53:245|107:252,1,142.5,2|0,0:0|0:0,0:0:0:0:
99,277,53922,6,0,P|164:290|214:274,1,95,6|0,0:0|0:0,0:0:0:0:
324,119,54292,2,0,P|259:106|209:122,1,95,8|0,0:0|0:0,0:0:0:0:
161,136,54570,1,8,0:0:0:0:
153,147,54663,2,0,L|51:132,1,95,10|0,0:0|0:0,0:0:0:0:
247,24,55033,2,0,L|342:39,1,95,10|2,0:0|0:0,0:0:0:0:
512,184,55403,5,6,0:0:0:0:
450,21,55588,1,0,0:0:0:0:
386,207,55774,1,10,0:0:0:0:
297,38,55959,1,0,0:0:0:0:
297,38,56051,1,8,0:0:0:0:
297,38,56144,2,0,P|285:76|301:139,1,95,10|0,0:0|0:0,0:0:0:0:
384,298,56514,2,0,P|396:260|380:197,1,95,10|0,0:0|0:0,0:0:0:0:
219,260,56885,6,0,L|322:250,1,95,6|0,0:0|0:0,0:0:0:0:
461,95,57255,2,0,L|358:85,1,95,10|0,0:0|0:0,0:0:0:0:
298,114,57533,1,8,0:0:0:0:
287,122,57626,2,0,P|243:129|189:107,1,95,10|0,0:0|0:0,0:0:0:0:
30,44,57996,2,0,P|72:30|123:36,1,95,10|0,0:0|0:0,0:0:0:0:
287,122,58366,5,6,0:0:0:0:
112,215,58551,1,0,0:0:0:0:
215,27,58737,1,14,0:0:0:0:
257,256,58922,1,0,0:0:0:0:
257,256,59014,1,8,0:0:0:0:
257,256,59107,1,14,0:0:0:0:
411,75,59292,5,2,3:2:0:0:
164,125,59477,1,14,3:2:0:0:
411,75,59663,1,0,0:0:0:0:
350,272,59848,6,0,L|239:253,1,95,6|0,0:0|0:0,0:0:0:0:
70,141,60218,2,0,L|181:122,1,95,8|0,0:0|0:0,0:0:0:0:
231,159,60496,1,8,0:0:0:0:
242,166,60588,2,0,L|335:181,1,95,10|0,0:0|0:0,0:0:0:0:
397,370,60959,2,0,L|304:352,1,95,10|2,0:0|0:0,0:0:0:0:
165,222,61329,5,6,0:0:0:0:
365,286,61514,1,0,0:0:0:0:
173,338,61700,1,10,0:0:0:0:
311,154,61885,1,0,0:0:0:0:
311,154,61977,1,8,0:0:0:0:
311,154,62070,2,0,L|323:49,1,95,10|0,0:0|0:0,0:0:0:0:
142,154,62440,2,0,L|131:248,1,95,8|2,0:0|0:0,0:0:0:0:
166,326,62718,1,0,0:0:0:0:
173,338,62810,5,6,0:0:0:0:
378,200,62995,1,0,0:0:0:0:
216,222,63181,1,10,0:0:0:0:
444,325,63366,1,0,0:0:0:0:
444,325,63459,1,8,0:0:0:0:
444,325,63551,1,10,0:0:0:0:
469,108,63736,1,0,0:0:0:0:
329,310,63922,1,10,0:0:0:0:
296,70,64107,6,0,P|242:50|155:70,1,142.5,6|0,0:0|0:0,0:0:0:0:
128,85,64477,1,2,0:0:0:0:
24,255,64663,1,2,0:0:0:0:
151,171,64848,1,2,0:0:0:0:
219,364,65033,1,8,0:0:0:0:
115,266,65218,1,8,0:0:0:0:
278,255,65403,1,10,0:0:0:0:
320,269,65495,1,8,0:0:0:0:
364,266,65588,1,10,0:0:0:0:
405,246,65680,1,10,0:0:0:0:
434,213,65774,6,0,L|428:106,1,95,14|0,0:0|0:0,0:0:0:0:
233,30,66144,2,0,L|225:129,1,95,8|0,0:0|0:0,0:0:0:0:
234,199,66422,1,8,0:0:0:0:
237,213,66514,2,0,L|344:227,1,95,10|0,0:0|0:0,0:0:0:0:
411,369,66885,2,0,L|316:356,1,95,10|2,0:0|0:0,0:0:0:0:
178,309,67255,5,6,0:0:0:0:
52,223,67440,1,0,0:0:0:0:
79,364,67626,1,10,0:0:0:0:
174,180,67811,1,0,0:0:0:0:
174,180,67903,1,8,0:0:0:0:
174,180,67996,2,0,L|192:84,1,95,10|0,0:0|0:0,0:0:0:0:
410,62,68366,2,0,L|391:159,1,95,10|0,0:0|0:0,0:0:0:0:
301,313,68737,6,0,L|319:217,1,95,6|0,0:0|0:0,0:0:0:0:
512,188,69107,2,0,L|493:281,1,95,10|0,0:0|0:0,0:0:0:0:
469,358,69385,1,8,0:0:0:0:
458,366,69477,2,0,P|410:371|344:347,1,95,10|0,0:0|0:0,0:0:0:0:
225,214,69848,2,0,P|273:209|339:233,1,95,10|0,0:0|0:0,0:0:0:0:
263,371,70218,5,6,0:0:0:0:
122,261,70403,1,0,0:0:0:0:
318,221,70588,1,14,0:0:0:0:
155,373,70774,1,0,0:0:0:0:
155,373,70866,1,8,0:0:0:0:
155,373,70959,5,14,0:0:0:0:
57,178,71144,1,2,3:2:0:0:
57,178,71237,1,0,0:0:0:0:
57,178,71329,1,14,3:2:0:0:
219,49,71514,1,0,0:0:0:0:
311,248,71700,6,0,L|417:239,1,95,6|0,0:0|0:0,0:0:0:0:
440,33,72070,2,0,L|345:40,1,95,8|0,0:0|0:0,0:0:0:0:
279,74,72348,1,8,0:0:0:0:
267,81,72440,2,0,L|168:88,1,95,10|0,0:0|0:0,0:0:0:0:
99,288,72811,2,0,L|197:279,1,95,10|2,0:0|0:0,0:0:0:0:
74,178,73181,5,6,0:0:0:0:
11,368,73366,1,0,0:0:0:0:
193,279,73551,1,10,0:0:0:0:
3,224,73737,1,0,0:0:0:0:
3,224,73829,1,8,0:0:0:0:
3,224,73922,2,0,P|-5:167|20:113,1,95,10|0,0:0|0:0,0:0:0:0:
174,18,74292,2,0,P|182:75|157:129,1,95,8|2,0:0|0:0,0:0:0:0:
145,191,74570,1,0,0:0:0:0:
145,206,74663,5,6,0:0:0:0:
349,188,74848,1,0,0:0:0:0:
214,351,75033,1,10,0:0:0:0:
471,291,75218,1,0,0:0:0:0:
471,291,75310,1,8,0:0:0:0:
471,291,75403,1,10,0:0:0:0:
282,78,75588,1,0,0:0:0:0:
499,163,75774,1,10,0:0:0:0:
246,253,75959,6,0,P|196:276|113:233,1,142.5,6|0,0:0|0:0,0:0:0:0:
95,215,76329,1,2,0:0:0:0:
220,38,76514,1,2,0:0:0:0:
188,200,76700,1,2,0:0:0:0:
76,36,76885,1,2,0:0:0:0:
17,227,77070,1,0,0:0:0:0:
20,250,77163,1,2,0:0:0:0:
25,273,77255,1,8,0:3:0:0:
30,296,77347,1,0,0:0:0:0:
34,319,77440,1,0,0:0:0:0:
178,190,77626,6,0,P|222:194|278:200,1,95,6|0,0:0|0:0,0:0:0:0:
425,281,77996,1,10,0:0:0:0:
408,99,78181,1,0,0:0:0:0:
408,99,78274,1,8,0:0:0:0:
408,99,78366,2,0,L|342:94,1,47.5,10|0,0:0|0:0,0:0:0:0:
188,115,78551,1,0,0:0:0:0:
396,196,78736,1,10,0:0:0:0:
246,50,78922,6,0,P|188:26|138:44,1,95,6|0,0:0|0:0,0:0:0:0:
98,218,79292,1,0,0:0:0:0:
37,26,79477,1,10,0:0:0:0:
188,115,79662,1,2,0:0:0:0:
0,214,79848,2,0,L|10:266,1,47.5,0|8,0:0|0:0,0:0:0:0:
145,332,80033,2,0,L|153:280,1,47.5,8|0,0:0|0:0,0:0:0:0:
188,115,80218,1,10,0:0:0:0:
324,242,80403,1,0,0:0:0:0:
153,285,80588,6,0,P|106:298|38:281,1,95,6|0,0:0|0:0,0:0:0:0:
99,90,80959,1,10,0:0:0:0:
224,192,81144,1,0,0:0:0:0:
224,192,81237,1,8,0:0:0:0:
224,192,81329,2,0,L|235:250,1,47.5,10|0,0:0|0:0,0:0:0:0:
287,381,81514,1,0,0:0:0:0:
369,199,81699,1,10,0:0:0:0:
482,274,81885,6,0,L|489:375,1,95,6|0,0:0|0:0,0:0:0:0:
369,199,82255,2,0,L|363:104,1,95,0|10,0:0|0:0,0:0:0:0:
293,61,82533,1,0,0:0:0:0:
283,52,82625,2,0,P|239:47|182:59,1,95,6|0,0:0|0:0,0:0:0:0:
6,59,82996,1,2,3:2:0:0:
91,217,83181,1,10,3:2:0:0:
90,261,83273,1,8,0:0:0:0:
109,301,83366,1,8,0:0:0:0:
146,327,83458,1,8,0:0:0:0:
186,335,83551,6,0,L|307:328,1,95,14|0,0:0|0:0,0:0:0:0:
483,306,83922,1,10,0:0:0:0:
366,169,84107,1,0,0:0:0:0:
366,169,84199,1,8,0:0:0:0:
366,169,84292,2,0,L|350:99,1,47.5,10|0,0:0|0:0,0:0:0:0:
298,261,84477,1,0,0:0:0:0:
473,212,84662,1,10,0:0:0:0:
272,155,84848,6,0,B|220:144|220:144|148:167|148:167|84:156,1,190,6|0,0:0|0:0,0:0:0:0:
189,38,85403,1,10,0:0:0:0:
227,243,85588,1,2,0:0:0:0:
227,243,85681,1,8,0:0:0:0:
227,243,85774,2,0,L|234:299,1,47.5,10|0,0:0|0:0,0:0:0:0:
364,253,85959,2,0,L|370:205,1,47.5,2|0,0:0|0:0,0:0:0:0:
331,356,86144,2,0,P|379:359|422:341,1,95,10|0,0:0|0:0,0:0:0:0:
232,290,86514,6,0,P|201:297|154:287,1,71.2500027179719,12|0,0:0|0:0,0:0:0:0:
136,210,86792,2,0,P|199:198|267:215,1,113.999996520996,2|0,0:0|0:0,0:0:0:0:
325,247,87070,2,0,B|338:165,1,71.25,2|0,0:0|0:0,0:0:0:0:
390,105,87440,1,2,0:0:0:0:
408,272,87626,1,2,0:0:0:0:
258,106,87811,2,0,P|233:112|201:137,1,47.5,2|0,0:0|0:0,0:0:0:0:
85,149,87996,6,0,P|162:157|234:86,1,142.500005435944,12|0,0:0|0:0,0:0:0:0:
304,48,88274,6,0,P|229:57|116:77,1,170.999994781494,8|0,0:0|0:0,0:0:0:0:
159,205,88551,6,0,B|173:243|172:302|172:302|197:272|234:261,1,142.500005435944,12|0,0:0|0:0,0:0:0:0:
221,264,89014,1,0,0:0:0:0:
237,257,89107,1,0,3:0:0:0:
