osu file format v14

[General]
AudioFilename: Kunshi Ayauku mo Chikou yore.mp3
AudioLeadIn: 0
PreviewTime: 53459
Countdown: 0
SampleSet: Soft
StackLeniency: 0.4
Mode: 0
LetterboxInBreaks: 0
WidescreenStoryboard: 0

[Editor]
DistanceSpacing: 0.4
BeatDivisor: 4
GridSize: 4
TimelineZoom: 1

[Metadata]
Title:Kunshi Ayauku mo Chikou Yore (TV Size)
TitleUnicode:君氏危うくも近うよれ(TV Size)
Artist:AOP
ArtistUnicode:A応P
Creator:Hazu-
Version:Extramatsu
Source:おそ松さん
Tags:kyuukai alacat -nanoripe- underforest osomatsu-san osomatsusan second season opening aoup san osomatsu karamatsu choromatsu ichimatsu jyushimatsu todomatsu matsuno あさき mafumafu konami
BeatmapID:1441054
BeatmapSetID:676605

[Difficulty]
HPDrainRate:7
CircleSize:4
OverallDifficulty:8.5
ApproachRate:9.2
SliderMultiplier:2
SliderTickRate:1

[Events]
//Background and Video events
0,0,"Kunshi Ayauku mo Chikou yore.jpg",0,0
Video,500,"video.avi"
//Break Periods
//Storyboard Layer 0 (Background)
//Storyboard Layer 1 (Fail)
//Storyboard Layer 2 (Pass)
//Storyboard Layer 3 (Foreground)
//Storyboard Sound Samples

[TimingPoints]
589,370.37037037037,4,2,3,50,1,0
589,-133.333333333333,4,2,3,50,0,0
774,-133.333333333333,4,2,3,5,0,0
866,-133.333333333333,4,2,3,50,0,0
1051,-133.333333333333,4,2,3,5,0,0
1144,-153.846153846153,4,2,3,50,0,0
1885,-133.333333333333,4,2,3,50,0,0
2255,-133.333333333333,4,2,3,5,0,0
2348,-133.333333333333,4,2,3,50,0,0
2533,-133.333333333333,4,2,3,5,0,0
2626,-153.846153846153,4,2,3,50,0,0
3366,-133.333333333333,4,2,3,50,0,0
4848,-133.333333333333,4,2,1,55,0,0
6082,-133.333333333333,4,2,2,55,0,0
6514,-100,4,2,1,60,0,0
15403,-100,4,2,3,60,0,0
15588,-100,4,2,3,5,0,0
15681,-100,4,2,3,60,0,0
15866,-100,4,2,3,5,0,0
15959,-133.333333333333,4,2,3,60,0,0
16885,-86.9565217391304,4,2,3,60,0,0
17070,-86.9565217391304,4,2,3,5,0,0
17163,-86.9565217391304,4,2,3,60,0,0
17348,-86.9565217391304,4,2,3,5,0,0
17440,-100,4,2,3,60,0,0
17903,-100,4,2,3,5,0,0
17996,-86.9565217391304,4,2,1,60,0,0
18088,-86.9565217391304,4,2,1,5,0,0
18366,-125,4,2,1,30,0,0
29663,-125,4,2,1,40,0,0
30218,-111.111111111111,4,2,1,50,0,0
45311,-111.111111111111,4,2,1,5,0,0
45403,-111.111111111111,4,2,1,50,0,0
46051,-111.111111111111,4,2,1,5,0,0
46144,-111.111111111111,4,2,1,50,0,0
53181,-111.111111111111,4,2,2,50,0,0
53551,-111.111111111111,4,2,1,50,0,0
53922,-100,4,2,1,70,0,1
64385,-100,4,2,1,5,0,1
64477,-100,4,2,3,70,0,1
65033,-100,4,2,1,70,0,1
76237,-100,4,2,1,5,0,1
76329,-100,4,2,3,70,0,1
76885,-100,4,2,1,70,0,1
77163,-100,4,2,3,70,0,1
77533,-100,4,2,1,5,0,1
77626,-100,4,2,1,70,0,0
86514,-100,4,2,3,70,0,0
86700,-100,4,2,3,5,0,0
86792,-100,4,2,3,70,0,0
86977,-100,4,2,3,5,0,0
87070,-133.333333333333,4,2,3,70,0,0
87996,-86.9565217391304,4,2,3,70,0,0
88181,-86.9565217391304,4,2,3,5,0,0
88274,-86.9565217391304,4,2,3,70,0,0
88459,-86.9565217391304,4,2,3,5,0,0
88551,-100,4,2,3,70,0,0
89014,-100,4,2,3,5,0,0
89107,-86.9565217391304,4,2,1,70,0,0
89200,-86.9565217391304,4,2,1,5,0,0

[Colours]
Combo1 : 255,140,192
Combo2 : 255,85,85
Combo3 : 62,158,255
Combo4 : 156,206,100
Combo5 : 179,116,248
Combo6 : 253,227,85

[HitObjects]
106,58,589,6,0,P|110:96|114:153,1,75.0000028610231,8|0,0:0|0:0,0:0:0:0:
48,264,866,2,0,P|50:228|55:184,1,75.0000028610231,2|0,0:0|0:0,0:0:0:0:
194,107,1144,6,0,P|233:96|313:134,1,129.999994049073,2|2,0:0|0:0,0:0:0:0:
363,214,1700,1,2,0:0:0:0:
313,23,1885,5,8,0:0:0:0:
275,276,2070,2,0,P|240:272|179:268,1,75.0000028610231,8|0,0:0|0:0,0:0:0:0:
64,224,2348,2,0,P|94:221|148:216,1,75.0000028610231,2|0,0:0|0:0,0:0:0:0:
236,344,2626,6,0,P|168:337|99:333,1,129.999994049073,2|2,0:0|0:0,0:0:0:0:
11,352,3181,1,2,0:0:0:0:
228,253,3366,5,8,0:0:0:0:
0,181,3551,1,8,0:0:0:0:
206,151,4107,5,8,0:0:0:0:
72,341,4292,2,0,P|76:264|80:180,1,150.000005722046,8|8,0:0|0:0,0:0:0:0:
194,23,4848,6,0,P|190:58|187:115,1,75.0000028610231,6|0,0:0|0:0,0:0:0:0:
225,276,5218,1,2,0:0:0:0:
264,301,5310,1,2,0:0:0:0:
311,303,5403,1,2,0:0:0:0:
353,282,5495,1,2,0:0:0:0:
379,243,5588,1,2,0:0:0:0:
381,195,5680,1,2,0:0:0:0:
360,153,5774,2,0,P|301:157|220:160,1,125.000004768372,2|2,0:0|0:0,0:0:0:0:
72,69,6514,6,0,P|76:119|83:276,1,200,6|10,0:0|0:0,0:0:0:0:
206,69,7070,1,0,0:0:0:0:
206,69,7163,1,8,0:0:0:0:
206,69,7255,1,10,0:0:0:0:
11,149,7440,1,0,0:0:0:0:
256,195,7626,1,10,0:0:0:0:
57,310,7811,6,0,P|106:253|87:138,1,200,6|0,0:0|0:0,0:0:0:0:
221,31,8366,2,0,P|217:77|213:146,1,100,10|0,0:0|0:0,0:0:0:0:
328,280,8737,1,2,0:0:0:0:
354,257,8829,1,2,0:0:0:0:
369,226,8922,1,2,0:0:0:0:
371,191,9014,1,2,0:0:0:0:
359,158,9107,2,0,P|319:151|295:151,1,50,10|2,0:0|0:0,0:0:0:0:
444,240,9292,2,0,P|468:238|493:232,1,50,2|10,0:0|0:0,0:0:0:0:
240,207,9477,5,6,0:0:0:0:
454,134,9663,1,0,0:0:0:0:
164,96,9848,2,0,P|168:130|171:207,1,100,10|0,0:0|0:0,0:0:0:0:
172,276,10126,1,8,0:0:0:0:
172,276,10218,1,10,0:0:0:0:
275,65,10403,1,0,0:0:0:0:
53,138,10588,1,8,0:0:0:0:
336,222,10774,6,0,P|332:184|328:107,1,100,6|0,0:0|0:0,0:0:0:0:
72,245,11144,2,0,P|76:283|80:360,1,100,6|8,0:0|0:0,0:0:0:0:
240,138,11514,2,0,P|236:100|233:23,1,100,6|0,0:0|0:0,0:0:0:0:
256,329,11885,1,2,3:2:0:0:
145,138,12070,1,10,3:2:0:0:
100,123,12162,1,8,0:0:0:0:
54,133,12255,1,8,0:0:0:0:
20,167,12347,1,8,0:0:0:0:
11,213,12440,6,0,P|16:136|20:12,1,200,6|8,0:0|0:0,0:0:0:0:
229,81,12996,1,0,0:0:0:0:
229,81,13088,1,8,0:0:0:0:
229,81,13181,1,10,0:0:0:0:
86,214,13366,1,0,0:0:0:0:
135,10,13551,1,10,0:0:0:0:
206,253,13737,6,0,B|328:279|270:190|403:222,1,200,6|0,0:0|0:0,0:0:0:0:
375,79,14292,2,0,P|318:71|261:67,1,100,10|0,0:0|0:0,0:0:0:0:
192,150,14570,1,10,0:0:0:0:
198,184,14663,1,2,0:0:0:0:
202,218,14755,1,2,0:0:0:0:
206,253,14848,1,2,0:0:0:0:
209,288,14940,1,2,0:0:0:0:
211,323,15033,2,0,P|207:340|203:372,1,50,10|2,0:0|0:0,0:0:0:0:
306,250,15218,2,0,P|303:225|297:200,1,50,2|2,0:0|0:0,0:0:0:0:
95,283,15403,6,0,P|103:322|108:384,1,100,8|0,0:0|0:0,0:0:0:0:
194,180,15682,2,0,P|196:132|204:80,1,100,2|0,0:0|0:0,0:0:0:0:
20,94,15959,6,0,P|9:159|64:216,1,150.000005722046,2|2,0:0|0:0,0:0:0:0:
190,285,16514,1,2,0:0:0:0:
91,134,16700,1,2,0:0:0:0:
26,371,16885,6,0,P|91:367|168:367,1,115.000002193451,12|0,0:0|0:0,0:0:0:0:
416,268,17163,2,0,P|360:268|296:260,1,115.000002193451,8|0,0:0|0:0,0:0:0:0:
212,55,17440,6,0,B|218:138|218:138|184:202|184:202|192:296,1,250,12|0,0:0|0:0,0:0:0:0:
68,100,17996,2,0,L|129:104,1,57.5000010967255,0|0,3:0|0:0,0:0:0:0:
45,84,18366,5,6,0:0:0:0:
225,130,18551,1,0,0:0:0:0:
11,172,18737,2,0,P|15:218|18:276,1,80,10|0,0:0|0:0,0:0:0:0:
141,39,19108,2,0,P|137:84|133:142,1,80,2|0,0:0|0:0,0:0:0:0:
11,19,19477,1,8,0:0:0:0:
95,199,19663,6,0,P|129:195|190:192,1,80,2|0,0:0|0:0,0:0:0:0:
347,218,20033,1,2,0:0:0:0:
175,272,20218,1,10,0:0:0:0:
271,119,20403,2,0,P|267:161|263:214,1,80,2|0,0:0|0:0,0:0:0:0:
324,360,20774,2,0,P|321:322|316:272,1,80,2|8,0:0|0:0,0:0:0:0:
206,352,21144,1,2,0:0:0:0:
405,322,21329,6,0,P|401:283|396:236,1,80,2|0,0:0|0:0,0:0:0:0:
447,54,21700,1,10,0:0:0:0:
420,149,21885,1,2,0:0:0:0:
359,16,22070,1,2,0:0:0:0:
500,130,22255,2,0,P|496:169|493:230,1,80,2|8,0:0|0:0,0:0:0:0:
301,77,22626,5,2,0:0:0:0:
301,77,22811,2,0,P|305:115|309:176,1,80,2|0,0:0|0:0,0:0:0:0:
187,19,23181,1,10,0:0:0:0:
202,192,23366,2,0,P|205:229|208:276,1,80,2|0,0:0|0:0,0:0:0:0:
110,100,23737,1,2,0:0:0:0:
307,152,23922,1,8,0:0:0:0:
116,224,24107,1,8,0:0:0:0:
100,220,24200,1,8,0:0:0:0:
88,216,24292,5,6,0:0:0:0:
210,100,24477,1,2,0:0:0:0:
0,172,24663,2,0,P|4:233|4:260,1,80,10|0,0:0|0:0,0:0:0:0:
198,341,25033,2,0,P|198:302|204:256,1,80,2|0,0:0|0:0,0:0:0:0:
125,123,25403,1,8,0:0:0:0:
34,318,25588,6,0,P|76:310|125:306,1,80,2|0,0:0|0:0,0:0:0:0:
292,280,25959,1,2,0:0:0:0:
156,237,26144,1,10,0:0:0:0:
378,214,26329,2,0,P|374:253|370:310,1,80,2|0,0:0|0:0,0:0:0:0:
286,92,26700,1,2,0:0:0:0:
466,138,26885,1,8,0:0:0:0:
267,184,27070,1,0,0:0:0:0:
408,16,27255,6,0,P|405:54|401:115,1,80,2|0,0:0|0:0,0:0:0:0:
447,268,27626,1,10,0:0:0:0:
328,153,27811,1,2,0:0:0:0:
351,329,27996,1,2,0:0:0:0:
431,172,28181,1,0,0:0:0:0:
462,367,28366,1,8,0:0:0:0:
240,257,28551,6,0,P|187:249|133:249,1,80,6|0,0:0|0:0,0:0:0:0:
41,176,28922,1,2,0:0:0:0:
63,174,29014,1,2,0:0:0:0:
86,172,29107,1,10,0:0:0:0:
109,170,29199,1,2,0:0:0:0:
148,146,29292,5,2,0:0:0:0:
186,148,29384,1,2,0:0:0:0:
224,150,29477,1,2,0:0:0:0:
262,152,29569,1,2,0:0:0:0:
305,134,29663,5,2,3:2:0:0:
336,194,29755,1,2,0:0:0:0:
332,262,29848,1,10,3:2:0:0:
293,318,29940,1,2,0:0:0:0:
231,345,30033,1,2,0:0:0:0:
163,337,30125,1,2,0:0:0:0:
110,295,30218,5,6,0:0:0:0:
129,77,30403,1,0,0:0:0:0:
11,249,30588,2,0,P|15:299|18:360,1,89.9999972534181,10|0,0:0|0:0,0:0:0:0:
191,233,30959,2,0,P|188:183|184:122,1,89.9999972534181,2|0,0:0|0:0,0:0:0:0:
95,367,31329,1,8,0:0:0:0:
294,272,31514,1,2,0:0:0:0:
309,268,31607,1,2,0:0:0:0:
324,264,31700,5,2,0:0:0:0:
76,253,31885,1,0,0:0:0:0:
256,371,32070,1,10,0:0:0:0:
192,152,32255,1,2,0:0:0:0:
192,152,32440,2,0,P|161:145|100:137,1,89.9999972534181,2|0,0:0|0:0,0:0:0:0:
370,184,32811,1,8,0:0:0:0:
282,8,32996,1,2,0:0:0:0:
278,19,33088,1,2,0:0:0:0:
275,31,33181,6,0,P|278:77|282:138,1,89.9999972534181,2|0,0:0|0:0,0:0:0:0:
473,73,33552,2,0,P|470:119|466:180,1,89.9999972534181,8|0,0:0|0:0,0:0:0:0:
198,81,33922,1,2,0:0:0:0:
397,19,34107,2,0,P|393:65|389:126,1,89.9999972534181,2|8,0:0|0:0,0:0:0:0:
278,287,34477,6,0,B|194:322|194:260|99:295,1,179.999994506836,2|2,0:0|0:0,0:0:0:0:
34,325,34940,1,2,0:0:0:0:
26,337,35033,1,10,0:0:0:0:
114,157,35218,1,0,0:0:0:0:
141,375,35403,1,2,0:0:0:0:
11,161,35588,1,0,3:2:0:0:
244,260,35774,5,10,0:0:0:0:
286,255,35866,1,2,0:0:0:0:
329,250,35959,1,2,0:0:0:0:
372,247,36051,1,2,0:0:0:0:
415,245,36144,5,2,0:0:0:0:
252,142,36329,1,0,0:0:0:0:
500,180,36514,2,0,P|496:218|493:299,1,89.9999972534181,10|0,0:0|0:0,0:0:0:0:
363,31,36885,2,0,P|366:69|370:149,1,89.9999972534181,2|0,0:0|0:0,0:0:0:0:
496,50,37255,1,8,0:0:0:0:
278,35,37440,1,2,0:0:0:0:
263,39,37533,1,2,0:0:0:0:
248,42,37626,6,0,P|252:81|256:161,1,89.9999972534181,2|0,0:0|0:0,0:0:0:0:
137,299,37996,1,10,0:0:0:0:
167,118,38181,1,2,0:0:0:0:
252,337,38366,1,2,0:0:0:0:
92,208,38551,2,0,P|57:204|-4:200,1,89.9999972534181,2|8,0:0|0:0,0:0:0:0:
275,211,38922,1,2,0:0:0:0:
161,29,39107,6,0,P|165:63|168:124,1,89.9999972534181,2|0,0:0|0:0,0:0:0:0:
190,287,39477,1,8,0:0:0:0:
248,138,39663,1,0,0:0:0:0:
80,207,39848,2,0,P|87:257|91:314,1,89.9999972534181,2|0,0:0|0:0,0:0:0:0:
57,65,40218,1,10,0:0:0:0:
248,138,40403,6,0,P|240:188|236:245,1,89.9999972534181,6|0,0:0|0:0,0:0:0:0:
412,107,40774,1,2,0:0:0:0:
420,100,40866,1,2,0:0:0:0:
428,92,40959,2,0,P|428:69|420:19,1,44.999998626709,10|2,0:0|0:0,0:0:0:0:
352,264,41144,2,0,P|352:287|360:337,1,44.999998626709,2|2,0:0|0:0,0:0:0:0:
468,196,41329,2,0,P|491:196|541:188,1,44.999998626709,10|2,0:0|0:0,0:0:0:0:
288,160,41514,2,0,P|265:159|215:168,1,44.999998626709,10|2,0:0|0:0,0:0:0:0:
378,176,41700,1,10,0:0:0:0:
389,176,42070,5,6,0:0:0:0:
160,230,42255,1,0,0:0:0:0:
286,69,42440,1,10,0:0:0:0:
141,253,42626,1,0,0:0:0:0:
363,253,42811,1,2,0:0:0:0:
187,100,42996,1,2,0:0:0:0:
225,337,43181,2,0,P|259:333|328:329,1,89.9999972534181,10|0,3:2|0:0,0:0:0:0:
26,226,43551,5,2,0:0:0:0:
240,249,43737,1,0,0:0:0:0:
11,222,43922,1,10,0:0:0:0:
259,157,44107,1,2,0:0:0:0:
95,341,44292,2,0,P|99:291|103:234,1,89.9999972534181,2|8,0:0|0:0,0:0:0:0:
122,184,44570,1,8,0:0:0:0:
122,165,44663,1,10,0:0:0:0:
11,333,44848,1,2,0:0:0:0:
225,253,45033,6,0,P|286:237|370:276,1,134.999995880127,6|0,0:0|0:0,0:0:0:0:
462,241,45403,2,0,P|424:237|363:226,1,89.9999972534181,10|0,0:0|0:0,0:0:0:0:
244,39,45774,6,0,B|248:81|248:81|233:192,1,134.999995880127,6|0,0:0|0:0,0:0:0:0:
267,272,46144,2,0,P|263:222|263:165,1,89.9999972534181,10|0,0:0|0:0,0:0:0:0:
57,96,46514,6,0,P|60:153|64:260,1,134.999995880127,6|8,0:0|0:0,0:0:0:0:
34,318,46885,1,10,0:0:0:0:
148,115,47070,6,0,L|202:119,1,44.999998626709,8|8,0:0|0:0,0:0:0:0:
305,189,47255,2,0,L|252:185,1,44.999998626709,10|8,0:0|0:0,0:0:0:0:
141,203,47440,1,8,0:0:0:0:
386,84,47626,1,10,0:0:0:0:
309,329,47811,1,10,0:0:0:0:
301,341,47903,1,10,0:0:0:0:
294,352,47996,6,0,P|256:348|187:344,1,89.9999972534181,14|0,0:0|0:0,0:0:0:0:
11,279,48366,2,0,P|53:277|104:272,1,89.9999972534181,10|0,0:0|0:0,0:0:0:0:
280,248,48737,1,2,0:0:0:0:
122,192,48922,1,10,3:2:0:0:
370,165,49107,2,0,P|366:211|363:279,1,89.9999972534181,10|0,3:2|0:0,0:0:0:0:
179,73,49477,6,0,P|225:69|286:92,1,89.9999972534181,2|0,0:0|0:0,0:0:0:0:
470,46,49848,2,0,P|428:56|368:48,1,89.9999972534181,10|0,0:0|0:0,0:0:0:0:
259,184,50218,1,2,0:0:0:0:
462,134,50403,1,10,3:2:0:0:
179,73,50588,2,0,P|183:115|187:184,1,89.9999972534181,10|0,3:2|0:0,0:0:0:0:
381,52,50959,5,8,0:0:0:0:
374,31,51514,5,8,0:0:0:0:
428,295,51700,2,0,P|332:287|244:283,1,179.999994506836,8|8,0:0|0:0,0:0:0:0:
64,161,52255,6,0,P|68:207|72:283,1,89.9999972534181,6|0,0:0|0:0,0:0:0:0:
194,58,52626,1,10,0:0:0:0:
231,36,52718,1,10,0:0:0:0:
274,35,52811,1,10,0:0:0:0:
311,54,52903,1,10,0:0:0:0:
336,89,52996,1,10,0:0:0:0:
341,131,53088,1,10,0:0:0:0:
325,170,53181,5,2,0:0:0:0:
91,73,53551,1,2,0:0:0:0:
431,35,53922,6,0,B|427:99|427:99|446:150|446:150|440:232,1,200,6|8,0:0|0:0,0:0:0:0:
300,64,54477,1,0,0:0:0:0:
300,64,54570,1,8,0:0:0:0:
300,64,54663,1,10,0:0:0:0:
512,92,54848,1,0,0:0:0:0:
255,199,55033,1,10,0:0:0:0:
431,35,55218,1,2,0:0:0:0:
397,318,55403,6,0,P|347:310|282:306,1,100,6|0,0:0|0:0,0:0:0:0:
87,245,55774,1,10,0:0:0:0:
233,69,55959,1,0,0:0:0:0:
236,81,56051,1,8,0:0:0:0:
240,92,56144,2,0,P|236:138|233:211,1,100,10|0,0:0|0:0,0:0:0:0:
81,344,56514,2,0,P|83:294|86:244,1,100,10|0,0:0|0:0,0:0:0:0:
312,228,56885,6,0,P|308:274|305:347,1,100,6|0,0:0|0:0,0:0:0:0:
137,61,57255,1,10,0:0:0:0:
360,120,57440,1,0,0:0:0:0:
375,116,57533,1,8,0:0:0:0:
391,112,57626,2,0,P|433:105|490:99,1,100,10|0,0:0|0:0,0:0:0:0:
188,200,57996,2,0,P|140:196|81:186,1,100,10|0,0:0|0:0,0:0:0:0:
401,341,58366,5,6,0:0:0:0:
268,92,58551,1,0,0:0:0:0:
236,360,58737,1,14,0:0:0:0:
399,142,58922,1,0,0:0:0:0:
395,127,59014,1,8,0:0:0:0:
391,112,59107,1,14,0:0:0:0:
87,260,59292,5,2,3:2:0:0:
392,224,59477,1,14,3:2:0:0:
118,138,59663,1,0,0:0:0:0:
500,96,59848,6,0,P|496:152|492:304,1,200,6|8,0:0|0:0,0:0:0:0:
206,237,60403,1,0,0:0:0:0:
206,237,60496,1,8,0:0:0:0:
206,237,60588,1,10,0:0:0:0:
408,124,60774,1,0,0:0:0:0:
176,104,60959,1,10,0:0:0:0:
389,207,61144,1,2,0:0:0:0:
83,272,61329,6,0,P|87:226|91:149,1,100,6|0,0:0|0:0,0:0:0:0:
240,367,61700,1,10,0:0:0:0:
26,337,61885,1,0,0:0:0:0:
18,325,61977,1,8,0:0:0:0:
11,314,62070,2,0,P|15:268|18:192,1,100,10|0,0:0|0:0,0:0:0:0:
263,375,62440,1,8,0:0:0:0:
95,291,62626,1,2,0:0:0:0:
378,230,62811,6,0,P|382:287|386:344,1,100,6|0,0:0|0:0,0:0:0:0:
493,96,63181,1,10,0:0:0:0:
264,176,63366,1,0,0:0:0:0:
248,180,63459,1,8,0:0:0:0:
233,184,63551,1,10,0:0:0:0:
480,276,63737,1,0,0:0:0:0:
400,44,63922,1,10,0:0:0:0:
332,344,64107,6,0,P|271:337|179:329,1,150,6|0,0:0|0:0,0:0:0:0:
110,314,64477,1,2,0:0:0:0:
275,264,64663,1,2,0:0:0:0:
80,207,64848,1,2,0:0:0:0:
347,176,65033,2,0,P|343:214|343:237,1,50,8|8,0:0|0:0,0:0:0:0:
252,65,65218,2,0,P|248:27|248:4,1,50,8|8,0:0|0:0,0:0:0:0:
470,27,65403,1,10,0:0:0:0:
458,72,65495,1,8,0:0:0:0:
419,99,65588,1,10,0:0:0:0:
373,92,65680,1,10,0:0:0:0:
342,58,65774,6,0,B|351:111|351:111|332:257,1,200,14|8,0:0|0:0,0:0:0:0:
228,108,66329,1,0,0:0:0:0:
228,108,66422,1,8,0:0:0:0:
228,108,66514,1,10,0:0:0:0:
452,192,66700,1,0,0:0:0:0:
216,232,66885,1,10,0:0:0:0:
432,96,67070,1,2,0:0:0:0:
112,60,67255,6,0,P|116:108|120:194,1,100,6|0,0:0|0:0,0:0:0:0:
256,31,67626,1,10,0:0:0:0:
26,138,67811,1,0,0:0:0:0:
18,149,67903,1,8,0:0:0:0:
11,161,67996,2,0,P|15:214|18:295,1,100,10|0,0:0|0:0,0:0:0:0:
288,156,68366,2,0,P|250:141|169:145,1,100,10|0,0:0|0:0,0:0:0:0:
392,324,68737,6,0,P|438:322|491:306,1,100,6|0,0:0|0:0,0:0:0:0:
233,237,69107,1,10,0:0:0:0:
408,111,69292,1,0,0:0:0:0:
416,123,69385,1,8,0:0:0:0:
424,134,69477,2,0,P|420:176|416:260,1,100,10|0,0:0|0:0,0:0:0:0:
208,28,69848,2,0,P|212:75|214:129,1,100,10|0,0:0|0:0,0:0:0:0:
344,344,70218,5,6,0:0:0:0:
144,216,70403,1,0,0:0:0:0:
416,233,70588,1,14,0:0:0:0:
160,340,70774,1,0,0:0:0:0:
144,336,70866,1,8,0:0:0:0:
129,333,70959,1,14,0:0:0:0:
288,120,71144,5,2,3:2:0:0:
252,367,71329,1,14,3:2:0:0:
144,140,71514,1,0,0:0:0:0:
431,299,71700,6,0,P|405:230|473:123,1,200,6|8,0:0|0:0,0:0:0:0:
294,35,72255,1,0,0:0:0:0:
294,35,72348,1,8,0:0:0:0:
294,35,72440,1,10,0:0:0:0:
321,230,72626,1,0,0:0:0:0:
428,40,72811,1,10,0:0:0:0:
188,124,72996,1,2,0:0:0:0:
496,176,73181,6,0,P|493:222|489:295,1,100,6|0,0:0|0:0,0:0:0:0:
294,35,73551,1,10,0:0:0:0:
336,214,73737,1,0,0:0:0:0:
340,230,73829,1,8,0:0:0:0:
343,245,73922,2,0,P|347:291|351:364,1,100,10|0,0:0|0:0,0:0:0:0:
288,16,74292,1,8,0:0:0:0:
485,107,74477,1,2,0:0:0:0:
152,134,74663,6,0,P|99:126|53:123,1,100,6|0,0:0|0:0,0:0:0:0:
370,84,75033,1,10,0:0:0:0:
248,276,75218,1,0,0:0:0:0:
240,287,75311,1,8,0:0:0:0:
233,299,75403,1,10,0:0:0:0:
204,68,75588,1,0,0:0:0:0:
416,184,75774,1,10,0:0:0:0:
83,253,75959,6,0,P|91:161|95:96,1,150,6|0,0:0|0:0,0:0:0:0:
64,35,76329,1,2,0:0:0:0:
183,134,76514,1,2,0:0:0:0:
11,104,76700,1,2,0:0:0:0:
263,96,76885,2,0,B|256:146|256:146|263:249,1,150,2|2,0:0|0:0,0:0:0:0:
420,142,77255,2,0,P|374:126|405:192,1,150,8|0,0:3|0:0,0:0:0:0:
328,42,77626,5,6,0:0:0:0:
262,238,77811,1,0,0:0:0:0:
477,192,77996,1,10,0:0:0:0:
263,96,78181,1,0,0:0:0:0:
248,88,78274,1,8,0:0:0:0:
233,81,78366,2,0,P|175:84|110:88,1,100,10|0,0:0|0:0,0:0:0:0:
462,46,78737,1,10,0:0:0:0:
347,245,78922,6,0,P|294:214|176:276,1,200,6|0,0:0|0:0,0:0:0:0:
68,107,79477,1,10,0:0:0:0:
248,130,79663,2,0,P|290:134|366:138,1,100,2|0,0:0|0:0,0:0:0:0:
424,152,79940,1,8,0:0:0:0:
424,152,80033,1,8,0:0:0:0:
252,302,80218,2,0,P|210:299|133:295,1,100,10|0,0:0|0:0,0:0:0:0:
485,268,80588,5,6,0:0:0:0:
275,211,80774,1,0,0:0:0:0:
431,352,80959,1,10,0:0:0:0:
420,157,81144,1,0,0:0:0:0:
408,146,81237,1,8,0:0:0:0:
397,134,81329,2,0,P|340:126|271:123,1,100,10|0,0:0|0:0,0:0:0:0:
118,203,81700,1,10,0:0:0:0:
202,8,81885,6,0,P|206:58|213:126,1,100,6|0,0:0|0:0,0:0:0:0:
313,264,82255,1,0,0:0:0:0:
332,65,82440,1,10,0:0:0:0:
187,234,82626,2,0,P|183:283|175:352,1,100,6|0,0:0|0:0,0:0:0:0:
332,149,82996,1,2,3:2:0:0:
80,92,83181,1,10,3:2:0:0:
85,139,83273,1,8,0:0:0:0:
90,187,83366,1,8,0:0:0:0:
94,235,83458,1,8,0:0:0:0:
98,282,83551,5,14,0:0:0:0:
179,100,83737,1,0,0:0:0:0:
11,222,83922,1,10,0:0:0:0:
233,192,84107,1,0,0:0:0:0:
248,188,84200,1,8,0:0:0:0:
263,184,84292,2,0,P|321:180|386:188,1,100,10|0,0:0|0:0,0:0:0:0:
72,126,84663,1,10,0:0:0:0:
164,333,84848,6,0,P|160:279|156:222,1,100,6|0,0:0|0:0,0:0:0:0:
256,58,85218,1,0,0:0:0:0:
256,264,85403,1,10,0:0:0:0:
156,104,85588,1,2,0:0:0:0:
156,104,85681,1,8,0:0:0:0:
156,104,85774,1,10,0:0:0:0:
366,203,85959,1,2,0:0:0:0:
106,184,86144,2,0,P|64:180|-4:176,1,100,10|0,0:0|0:0,0:0:0:0:
256,264,86514,6,0,P|275:207|267:153,1,100,12|0,0:0|0:0,0:0:0:0:
355,23,86792,2,0,P|354:70|368:120,1,100,2|0,0:0|0:0,0:0:0:0:
217,58,87070,6,0,P|156:46|95:104,1,150.000005722046,2|2,0:0|0:0,0:0:0:0:
118,245,87626,1,2,0:0:0:0:
11,119,87811,1,2,0:0:0:0:
217,230,87996,6,0,P|282:230|332:216,1,115.000002193451,12|0,0:0|0:0,0:0:0:0:
500,96,88274,2,0,P|452:80|388:80,1,115.000002193451,8|0,0:0|0:0,0:0:0:0:
447,314,88551,6,0,P|504:306|416:245,1,250,12|0,0:0|0:0,0:0:0:0:
278,92,89108,2,0,P|282:119|286:161,1,57.5000010967255,0|0,3:0|0:0,0:0:0:0:
