osu file format v14

[General]
AudioFilename: Kunshi Ayauku mo Chikou yore.mp3
AudioLeadIn: 0
PreviewTime: 53459
Countdown: 0
SampleSet: Soft
StackLeniency: 0.7
Mode: 0
LetterboxInBreaks: 0
WidescreenStoryboard: 0

[Editor]
Bookmarks: 89114
DistanceSpacing: 1.1
BeatDivisor: 4
GridSize: 4
TimelineZoom: 1

[Metadata]
Title:Kunshi Ayauku mo Chikou Yore (TV Size)
TitleUnicode:君氏危うくも近うよれ(TV Size)
Artist:AOP
ArtistUnicode:A応P
Creator:Hazu-
Version:Kyuukai's Easy
Source:おそ松さん
Tags:kyuukai alacat -nanoripe- underforest osomatsu-san osomatsusan second season opening aoup san osomatsu karamatsu choromatsu ichimatsu jyushimatsu todomatsu matsuno あさき mafumafu konami
BeatmapID:1434855
BeatmapSetID:676605

[Difficulty]
HPDrainRate:3
CircleSize:3
OverallDifficulty:3
ApproachRate:4
SliderMultiplier:1
SliderTickRate:1

[Events]
//Background and Video events
0,0,"Kunshi Ayauku mo Chikou yore.jpg",0,0
Video,500,"video.avi"
//Break Periods
//Storyboard Layer 0 (Background)
//Storyboard Layer 1 (Fail)
//Storyboard Layer 2 (Pass)
//Storyboard Layer 3 (Foreground)
//Storyboard Sound Samples

[TimingPoints]
589,370.37037037037,4,2,3,50,1,0
4848,-100,4,2,1,55,0,0
6514,-100,4,2,1,60,0,0
15403,-100,4,2,3,60,0,0
18366,-100,4,2,1,30,0,0
29663,-100,4,2,1,40,0,0
30218,-100,4,2,1,50,0,0
53922,-100,4,2,1,70,0,1
64477,-100,4,2,3,70,0,1
65033,-100,4,2,1,70,0,1
76329,-100,4,2,3,70,0,1
76885,-100,4,2,1,70,0,1
77626,-100,4,2,1,70,0,0
86514,-100,4,2,3,70,0,0
89107,-100,4,2,1,70,0,0

[Colours]
Combo1 : 255,140,192
Combo2 : 255,85,85
Combo3 : 62,158,255
Combo4 : 156,206,100
Combo5 : 179,116,248
Combo6 : 253,227,85

[HitObjects]
256,192,589,12,6,4848,0:0:0:0:
164,212,6514,6,0,L|154:112,2,100,6|10|10,0:0|0:0|0:0,0:0:0:0:
248,336,7811,2,0,P|316:360|404:320,1,150,6|10,0:0|0:0,0:0:0:0:
460,268,8737,2,0,L|450:168,1,100,2|10,0:0|0:0,0:0:0:0:
385,91,9477,6,0,P|430:70|479:71,2,100,6|10|10,0:0|0:0|0:0,0:0:0:0:
272,188,10774,2,0,L|284:308,2,100,6|6|6,0:0|0:0|0:0,0:0:0:0:
260,40,12070,1,10,3:2:0:0:
196,120,12440,6,0,P|140:128|80:112,2,100,6|8|10,0:0|0:0|0:0,0:0:0:0:
340,84,13737,2,0,L|328:248,1,150,6|10,0:0|0:0,0:0:0:0:
284,324,14663,2,0,P|228:336|156:324,1,100,10|10,0:0|0:0,0:0:0:0:
88,308,15403,5,8,0:0:0:0:
51,125,18366,6,0,L|179:117,1,100,6|10,0:0|0:0,0:0:0:0:
239,69,19107,2,0,L|338:75,1,100,2|8,0:0|0:0,0:0:0:0:
422,130,19848,2,0,P|436:69|425:28,2,100,0|10|0,0:0|0:0|0:0,0:0:0:0:
379,220,20959,1,8,0:0:0:0:
297,162,21329,6,0,L|198:168,1,100,2|10,0:0|0:0,0:0:0:0:
110,118,22070,2,0,P|97:174|110:220,1,100,2|8,0:0|0:0,0:0:0:0:
157,300,22811,1,2,0:0:0:0:
247,256,23181,2,0,L|346:250,2,100,10|0|8,0:0|0:0|0:0,0:0:0:0:
197,168,24292,5,6,0:0:0:0:
148,80,24663,2,0,P|92:72|36:88,1,100,10|2,0:0|0:0,0:0:0:0:
0,168,25403,1,8,0:0:0:0:
56,252,25774,2,0,L|36:364,2,100,0|10|0,0:0|0:0|0:0,0:0:0:0:
136,192,26885,1,8,0:0:0:0:
208,264,27255,6,0,P|256:268|320:236,2,100,2|10|2,0:0|0:0|0:0,0:0:0:0:
64,312,28551,2,0,L|48:148,1,150,6|10,0:0|0:0,0:0:0:0:
40,64,29477,2,0,P|92:52|156:72,1,100,2|10,0:0|3:2,0:0:0:0:
200,140,30218,6,0,P|252:152|316:132,1,100,6|10,0:0|0:0,0:0:0:0:
380,88,30959,2,0,L|393:187,1,100,2|8,0:0|0:0,0:0:0:0:
368,284,31700,2,0,P|424:284|472:248,2,100,2|10|2,0:0|0:0|0:0,0:0:0:0:
276,240,32811,1,8,0:0:0:0:
216,160,33181,6,0,L|228:28,1,100,2|8,0:0|0:0,0:0:0:0:
316,16,33922,2,0,L|325:115,1,100,2|8,0:0|0:0,0:0:0:0:
336,216,34663,2,0,P|384:208|448:224,1,100,0|10,0:0|0:0,0:0:0:0:
500,292,35403,1,2,0:0:0:0:
432,364,35774,1,10,0:0:0:0:
348,312,36144,6,0,P|300:320|236:304,1,100,2|10,0:0|0:0,0:0:0:0:
160,268,36885,2,0,L|168:152,1,100,2|8,0:0|0:0,0:0:0:0:
108,88,37626,2,0,L|216:52,2,100,2|10|2,0:0|0:0|0:0,0:0:0:0:
12,120,38737,1,8,0:0:0:0:
88,184,39107,6,0,L|81:283,2,100,2|8|2,0:0|0:0|0:0,0:0:0:0:
180,64,40403,2,0,L|352:76,1,150,6|10,0:0|0:0,0:0:0:0:
416,28,41329,2,0,P|424:92|412:128,1,100,10|10,0:0|0:0,0:0:0:0:
344,200,42070,6,0,P|388:222|437:222,2,100,6|10|2,0:0|0:0|0:0,0:0:0:0:
280,124,43181,1,10,3:2:0:0:
216,200,43551,2,0,P|171:222|122:222,1,100,2|10,0:0|0:0,0:0:0:0:
24,204,44292,2,0,L|32:320,1,100,2|10,0:0|0:0,0:0:0:0:
100,376,45033,5,6,0:0:0:0:
184,324,45403,2,0,L|292:340,2,100,10|6|10,0:0|0:0|0:0,0:0:0:0:
120,248,46514,2,0,L|12:264,2,100,6|10|10,0:0|0:0|0:0,0:0:0:0:
180,168,47626,1,10,0:0:0:0:
236,88,47996,6,0,L|334:102,1,100,14|10,0:0|0:0,0:0:0:0:
432,120,48737,1,2,0:0:0:0:
484,204,49107,1,10,3:2:0:0:
412,276,49477,2,0,L|313:261,1,100,2|10,0:0|0:0,0:0:0:0:
236,200,50218,2,0,L|137:214,1,100,2|10,0:0|3:2,0:0:0:0:
40,232,50959,5,8,0:0:0:0:
40,232,53922,6,0,L|52:112,1,100,6|8,0:0|0:0,0:0:0:0:
60,32,54663,1,10,0:0:0:0:
156,12,55033,1,10,0:0:0:0:
236,72,55403,2,0,L|228:184,2,100,6|10|10,0:0|0:0|0:0,0:0:0:0:
336,52,56514,1,10,0:0:0:0:
420,104,56885,6,0,P|436:44|424:0,2,100,6|10|10,0:0|0:0|0:0,0:0:0:0:
368,188,57996,1,10,0:0:0:0:
316,272,58366,2,0,L|208:268,1,100,6|14,0:0|0:0,0:0:0:0:
168,180,59107,2,0,L|276:176,1,100,14|14,0:0|3:2,0:0:0:0:
368,188,59848,6,0,L|467:191,1,100,6|8,0:0|0:0,0:0:0:0:
508,284,60588,1,10,0:0:0:0:
452,368,60959,1,10,0:0:0:0:
368,312,61329,2,0,L|268:315,2,100,6|10|10,0:0|0:0|0:0,0:0:0:0:
424,228,62440,1,8,0:0:0:0:
372,144,62811,6,0,L|272:140,2,100,6|10|10,0:0|0:0|0:0,0:0:0:0:
300,276,64107,2,0,L|124:284,1,150,6|2,0:0|0:0,0:0:0:0:
52,288,65033,1,8,0:0:0:0:
12,196,65403,1,10,0:0:0:0:
72,116,65774,6,0,P|128:104|176:116,1,100,14|8,0:0|0:0,0:0:0:0:
240,184,66514,1,10,0:0:0:0:
336,152,66885,1,10,0:0:0:0:
432,180,67255,2,0,L|448:76,2,100,6|10|10,0:0|0:0|0:0,0:0:0:0:
476,272,68366,1,10,0:0:0:0:
400,336,68737,6,0,P|336:344|276:324,1,100,6|10,0:0|0:0,0:0:0:0:
220,276,69477,2,0,P|156:268|96:288,1,100,10|10,0:0|0:0,0:0:0:0:
24,304,70218,2,0,L|32:204,1,100,6|14,0:0|0:0,0:0:0:0:
124,164,70959,2,0,L|116:64,1,100,14|14,0:0|3:2,0:0:0:0:
204,12,71700,6,0,P|256:8|320:24,1,100,6|8,0:0|0:0,0:0:0:0:
396,56,72440,1,10,0:0:0:0:
456,136,72811,1,10,0:0:0:0:
388,208,73181,2,0,P|400:272|384:324,2,100,6|10|10,0:0|0:0|0:0,0:0:0:0:
332,124,74292,1,8,0:0:0:0:
248,180,74663,6,0,P|201:164|151:169,2,100,6|10|10,0:0|0:0|0:0,0:0:0:0:
196,320,75959,2,0,P|112:320|40:280,1,150,6|2,0:0|0:0,0:0:0:0:
4,208,76885,2,0,L|14:108,1,100,2|8,0:0|0:3,0:0:0:0:
96,52,77626,6,0,P|56:20|0:12,2,100,6|10|10,0:0|0:0|0:0,0:0:0:0:
180,176,78922,2,0,P|260:188|348:144,1,150,6|10,0:0|0:0,0:0:0:0:
400,100,79848,1,0,0:0:0:0:
476,168,80218,1,10,0:0:0:0:
408,244,80588,6,0,L|412:352,2,100,6|10|10,0:0|0:0|0:0,0:0:0:0:
288,156,81885,2,0,L|272:364,1,200,6|6,0:0|0:0,0:0:0:0:
132,308,83181,1,10,3:2:0:0:
60,236,83551,6,0,L|63:136,2,100,14|10|10,0:0|0:0|0:0,0:0:0:0:
200,180,84848,2,0,L|208:-8,2,150,6|10|2,0:0|0:0|0:0,0:0:0:0:
256,192,86514,12,0,89107,3:0:0:0:
