osu file format v14

[General]
AudioFilename: Kunshi Ayauku mo Chikou yore.mp3
AudioLeadIn: 0
PreviewTime: 53459
Countdown: 0
SampleSet: Soft
StackLeniency: 0.4
Mode: 0
LetterboxInBreaks: 0
WidescreenStoryboard: 0

[Editor]
DistanceSpacing: 1.4
BeatDivisor: 4
GridSize: 4
TimelineZoom: 1

[Metadata]
Title:Kunshi Ayauku mo Chikou Yore (TV Size)
TitleUnicode:君氏危うくも近うよれ(TV Size)
Artist:AOP
ArtistUnicode:A応P
Creator:Hazu-
Version:Insane
Source:おそ松さん
Tags:kyuukai alacat -nanoripe- underforest osomatsu-san osomatsusan second season opening aoup san osomatsu karamatsu choromatsu ichimatsu jyushimatsu todomatsu matsuno あさき mafumafu konami
BeatmapID:1431022
BeatmapSetID:676605

[Difficulty]
HPDrainRate:6
CircleSize:4
OverallDifficulty:8
ApproachRate:9
SliderMultiplier:1.8
SliderTickRate:1

[Events]
//Background and Video events
0,0,"Kunshi Ayauku mo Chikou yore.jpg",0,0
Video,500,"video.avi"
//Break Periods
//Storyboard Layer 0 (Background)
//Storyboard Layer 1 (Fail)
//Storyboard Layer 2 (Pass)
//Storyboard Layer 3 (Foreground)
//Storyboard Sound Samples

[TimingPoints]
589,370.37037037037,4,2,3,50,1,0
589,-133.333333333333,4,2,3,50,0,0
4848,-133.333333333333,4,2,1,55,0,0
6082,-133.333333333333,4,2,2,55,0,0
6514,-100,4,2,1,60,0,0
15403,-100,4,2,3,60,0,0
17440,-125,4,2,3,60,0,0
17903,-125,4,2,3,5,0,0
17996,-125,4,2,1,60,0,0
18088,-125,4,2,1,5,0,0
18366,-125,4,2,1,30,0,0
29663,-125,4,2,1,40,0,0
30218,-111.111111111111,4,2,1,50,0,0
45311,-111.111111111111,4,2,1,5,0,0
45403,-111.111111111111,4,2,1,50,0,0
46051,-111.111111111111,4,2,1,5,0,0
46144,-111.111111111111,4,2,1,50,0,0
53181,-111.111111111111,4,2,2,50,0,0
53551,-111.111111111111,4,2,1,50,0,0
53922,-100,4,2,1,70,0,1
64477,-100,4,2,3,70,0,1
65033,-100,4,2,1,70,0,1
76329,-100,4,2,3,70,0,1
76885,-100,4,2,1,70,0,1
77163,-100,4,2,3,70,0,1
77533,-100,4,2,1,5,0,1
77626,-100,4,2,1,70,0,0
86514,-100,4,2,3,70,0,0
88551,-125,4,2,3,70,0,0
89014,-125,4,2,3,5,0,0
89107,-125,4,2,1,70,0,0
89200,-125,4,2,1,5,0,0

[Colours]
Combo1 : 255,140,192
Combo2 : 255,85,85
Combo3 : 62,158,255
Combo4 : 156,206,100
Combo5 : 179,116,248
Combo6 : 253,227,85

[HitObjects]
208,148,589,6,0,P|260:136|316:144,2,101.250003862381,8|2|2,0:0|0:0|0:0,0:0:0:0:
208,148,1514,1,2,0:0:0:0:
316,64,1700,1,2,0:0:0:0:
292,268,1885,5,8,0:0:0:0:
208,52,2070,2,0,P|168:56|100:60,2,101.250003862381,8|2|2,0:0|0:0|0:0,0:0:0:0:
208,52,2996,1,2,0:0:0:0:
344,144,3181,1,2,0:0:0:0:
144,168,3366,5,8,0:0:0:0:
388,56,3551,1,8,0:0:0:0:
408,44,4106,5,8,0:0:0:0:
360,308,4292,2,0,P|320:276|224:288,1,135.000005149842,8|8,0:0|0:0,0:0:0:0:
60,188,4848,6,0,P|112:196|152:200,1,67.5000025749207,6|0,0:0|0:0,0:0:0:0:
288,168,5218,1,2,0:0:0:0:
312,130,5310,1,2,0:0:0:0:
314,86,5403,1,2,0:0:0:0:
292,47,5495,1,2,0:0:0:0:
254,25,5588,1,2,0:0:0:0:
209,27,5680,1,2,0:0:0:0:
172,51,5774,2,0,P|176:96|180:172,1,112.500004291535,2|2,0:0|0:0,0:0:0:0:
396,340,6514,6,0,P|398:250|403:160,1,180,6|10,0:0|0:0,0:0:0:0:
500,48,7070,1,0,0:0:0:0:
500,48,7163,1,8,0:0:0:0:
500,48,7255,2,0,P|504:92|508:148,1,90,10|0,0:0|0:0,0:0:0:0:
376,8,7626,1,10,0:0:0:0:
324,184,7811,6,0,P|268:232|160:212,1,180,6|0,0:0|0:0,0:0:0:0:
28,320,8366,2,0,P|76:316|136:312,1,90,10|0,0:0|0:0,0:0:0:0:
311,344,8737,1,2,0:0:0:0:
339,309,8829,1,2,0:0:0:0:
351,266,8922,1,2,0:0:0:0:
345,222,9014,1,2,0:0:0:0:
323,183,9107,2,0,P|284:180|252:180,3,45,10|2|2|10,0:0|0:0|0:0|0:0,0:0:0:0:
176,156,9477,6,0,P|180:196|184:260,1,90,6|0,0:0|0:0,0:0:0:0:
264,44,9848,1,10,0:0:0:0:
80,120,10033,1,0,0:0:0:0:
80,120,10126,1,8,0:0:0:0:
80,120,10218,2,0,P|84:160|88:224,1,90,10|0,0:0|0:0,0:0:0:0:
248,56,10588,1,8,0:0:0:0:
224,268,10774,6,0,P|220:308|216:372,1,90,6|0,0:0|0:0,0:0:0:0:
352,120,11144,2,0,P|356:160|360:224,1,90,6|8,0:0|0:0,0:0:0:0:
156,52,11514,2,0,P|160:92|164:156,1,90,6|0,0:0|0:0,0:0:0:0:
312,20,11885,1,2,3:2:0:0:
64,24,12070,1,10,3:2:0:0:
66,68,12162,1,8,0:0:0:0:
69,113,12255,1,8,0:0:0:0:
70,158,12347,1,8,0:0:0:0:
72,204,12440,6,0,B|160:176|160:252|256:220,1,180,6|8,0:0|0:0,0:0:0:0:
400,140,12996,1,0,0:0:0:0:
400,140,13088,1,8,0:0:0:0:
400,140,13181,2,0,P|396:172|392:240,1,90,10|0,0:0|0:0,0:0:0:0:
336,28,13551,1,10,0:0:0:0:
264,200,13737,6,0,P|272:284|280:392,1,180,6|0,0:0|0:0,0:0:0:0:
157,260,14292,2,0,P|153:204|149:156,1,90,10|0,0:0|0:0,0:0:0:0:
238,74,14570,1,8,0:0:0:0:
272,44,14663,1,10,0:0:0:0:
314,29,14755,1,2,0:0:0:0:
358,32,14848,1,2,0:0:0:0:
398,53,14940,1,2,0:0:0:0:
425,88,15033,2,0,L|424:140,3,45,10|2|2|2,0:0|0:0|0:0|0:0,0:0:0:0:
352,224,15403,6,0,P|356:276|360:372,2,135,8|2|2,0:0|0:0|0:0,0:0:0:0:
352,224,16329,1,2,0:0:0:0:
264,148,16514,1,2,0:0:0:0:
456,188,16700,1,2,0:0:0:0:
232,248,16885,5,12,0:0:0:0:
484,80,17163,1,8,0:0:0:0:
136,52,17440,2,0,P|144:152|148:248,1,180,12|0,0:0|0:0,0:0:0:0:
132,272,17996,2,0,L|128:216,1,36,0|0,3:0|0:0,0:0:0:0:
264,120,18366,6,0,P|300:124|360:128,1,72,6|0,0:0|0:0,0:0:0:0:
324,244,18737,2,0,P|288:240|228:236,1,72,10|0,0:0|0:0,0:0:0:0:
448,204,19107,2,0,P|480:140|460:60,1,144,2|8,0:0|0:0,0:0:0:0:
336,20,19663,6,0,P|332:80|320:180,1,144,2|2,0:0|0:0,0:0:0:0:
364,280,20218,1,10,0:0:0:0:
240,208,20403,2,0,P|204:200|156:200,1,72,2|0,0:0|0:0,0:0:0:0:
64,320,20774,2,0,P|99:318|135:310,1,72,2|8,0:0|0:0,0:0:0:0:
240,208,21144,1,2,0:0:0:0:
40,208,21329,6,0,P|12:136|54:64,1,144,2|10,0:0|0:0,0:0:0:0:
168,8,21885,1,2,0:0:0:0:
104,140,22070,1,2,0:0:0:0:
240,88,22255,2,0,P|272:84|332:80,1,72,2|8,0:0|0:0,0:0:0:0:
72,36,22626,5,2,0:0:0:0:
72,36,22811,2,0,P|36:38|0:43,1,72,2|0,0:0|0:0,0:0:0:0:
240,88,23181,1,10,0:0:0:0:
88,192,23366,2,0,P|92:160|96:108,1,72,2|0,0:0|0:0,0:0:0:0:
156,308,23737,1,2,0:0:0:0:
12,256,23922,1,8,0:0:0:0:
216,224,24107,1,8,0:0:0:0:
232,221,24200,1,8,0:0:0:0:
249,218,24292,6,0,P|290:242|332:273,1,72,6|2,0:0|0:0,0:0:0:0:
472,268,24663,2,0,P|431:244|389:213,1,72,10|0,0:0|0:0,0:0:0:0:
320,144,25033,2,0,P|320:72|380:20,1,144,2|8,0:0|0:0,0:0:0:0:
432,196,25589,6,0,P|428:248|424:356,1,144,2|2,0:0|0:0,0:0:0:0:
512,176,26144,1,10,0:0:0:0:
348,220,26329,2,0,P|316:224|272:220,1,72,2|0,0:0|0:0,0:0:0:0:
140,152,26700,2,0,P|175:148|211:152,2,72,2|8|0,0:0|0:0|0:0,0:0:0:0:
8,68,27255,6,0,P|12:112|16:228,1,144,2|10,0:0|0:0,0:0:0:0:
100,52,27811,1,2,0:0:0:0:
112,208,27996,2,0,P|116:280|116:300,2,72,2|0|8,0:0|0:0|0:0,0:0:0:0:
232,56,28551,6,0,P|228:128|228:148,1,72,6|0,0:0|0:0,0:0:0:0:
296,240,28922,2,0,L|292:288,3,36,2|2|10|2,0:0|0:0|0:0|0:0,0:0:0:0:
396,212,29292,2,0,L|400:164,3,36,2|2|2|2,0:0|0:0|0:0|0:0,0:0:0:0:
344,348,29663,5,2,3:2:0:0:
308,355,29755,1,2,0:0:0:0:
273,352,29848,1,10,3:2:0:0:
238,341,29940,1,2,0:0:0:0:
204,330,30033,1,2,0:0:0:0:
168,328,30125,1,2,0:0:0:0:
133,334,30218,6,0,P|100:328|32:324,1,80.9999975280763,6|0,0:0|0:0,0:0:0:0:
240,236,30588,2,0,P|280:232|320:226,1,80.9999975280763,10|0,0:0|0:0,0:0:0:0:
112,88,30959,2,0,P|120:140|128:256,1,161.999995056153,2|8,0:0|0:0,0:0:0:0:
240,48,31514,1,2,0:0:0:0:
240,48,31607,1,2,0:0:0:0:
240,48,31700,6,0,P|280:48|328:56,1,80.9999975280763,2|0,0:0|0:0,0:0:0:0:
456,160,32070,1,10,0:0:0:0:
268,144,32255,1,2,0:0:0:0:
268,144,32440,1,2,0:0:0:0:
424,0,32626,2,0,P|420:44|416:108,1,80.9999975280763,0|8,0:0|0:0,0:0:0:0:
368,248,32996,1,2,0:0:0:0:
372,268,33088,1,2,0:0:0:0:
376,284,33181,6,0,P|324:252|216:284,1,161.999995056153,2|8,0:0|0:0,0:0:0:0:
120,192,33737,1,0,0:0:0:0:
164,352,33922,1,2,0:0:0:0:
272,144,34107,2,0,P|228:136|184:132,1,80.9999975280763,2|8,0:0|0:0,0:0:0:0:
24,292,34477,6,0,P|132:280|200:276,1,161.999995056153,2|2,0:0|0:0,0:0:0:0:
264,308,34940,1,2,0:0:0:0:
280,316,35033,2,0,P|316:312|360:308,1,80.9999975280763,10|0,0:0|0:0,0:0:0:0:
184,192,35403,2,0,P|148:196|104:200,1,80.9999975280763,2|0,0:0|3:2,0:0:0:0:
336,116,35774,1,10,0:0:0:0:
332,156,35866,1,2,0:0:0:0:
330,196,35959,1,2,0:0:0:0:
328,237,36051,1,2,0:0:0:0:
328,277,36144,6,0,P|280:264|224:260,1,80.9999975280763,2|0,0:0|0:0,0:0:0:0:
96,360,36514,2,0,P|136:354|174:343,1,80.9999975280763,10|0,0:0|0:0,0:0:0:0:
184,112,36885,2,0,P|136:156|156:264,1,161.999995056153,2|8,0:0|0:0,0:0:0:0:
280,368,37440,1,2,0:0:0:0:
300,364,37533,1,2,0:0:0:0:
316,360,37626,6,0,P|368:356|412:356,1,80.9999975280763,2|0,0:0|0:0,0:0:0:0:
240,224,37996,1,10,0:0:0:0:
192,368,38181,1,2,0:0:0:0:
332,240,38366,1,2,0:0:0:0:
112,212,38551,2,0,P|116:252|120:324,1,80.9999975280763,2|8,0:0|0:0,0:0:0:0:
192,104,38922,1,2,0:0:0:0:
12,152,39107,6,0,P|20:244|24:332,1,161.999995056153,2|8,0:0|0:0,0:0:0:0:
104,92,39663,1,0,0:0:0:0:
192,219,39848,2,0,P|164:215|104:211,1,80.9999975280763,2|0,0:0|0:0,0:0:0:0:
308,288,40218,1,10,0:0:0:0:
356,116,40403,6,0,P|360:164|368:232,1,80.9999975280763,6|0,0:0|0:0,0:0:0:0:
236,336,40774,1,2,0:0:0:0:
232,320,40866,1,2,0:0:0:0:
228,304,40959,2,0,L|224:256,1,40.4999987640381,10|2,0:0|0:0,0:0:0:0:
363,196,41144,2,0,L|367:244,1,40.4999987640381,2|2,0:0|0:0,0:0:0:0:
216,168,41329,2,0,L|212:120,1,40.4999987640381,10|2,0:0|0:0,0:0:0:0:
351,60,41514,2,0,L|355:108,1,40.4999987640381,10|2,0:0|0:0,0:0:0:0:
208,28,41700,1,10,0:0:0:0:
188,36,42070,6,0,P|144:28|92:40,1,80.9999975280763,6|0,0:0|0:0,0:0:0:0:
288,144,42440,2,0,P|327:149|367:141,1,80.9999975280763,10|0,0:0|0:0,0:0:0:0:
160,192,42811,1,2,0:0:0:0:
268,52,42996,1,2,0:0:0:0:
248,248,43181,2,0,P|252:288|256:352,1,80.9999975280763,10|0,3:2|0:0,0:0:0:0:
380,116,43551,6,0,P|376:156|372:220,1,80.9999975280763,2|0,0:0|0:0,0:0:0:0:
252,32,43922,1,10,0:0:0:0:
452,64,44107,1,2,0:0:0:0:
240,140,44292,2,0,P|208:136|140:132,1,80.9999975280763,2|8,0:0|0:0,0:0:0:0:
88,108,44570,1,8,0:0:0:0:
72,104,44663,1,10,0:0:0:0:
252,32,44848,1,2,0:0:0:0:
212,252,45033,6,0,P|205:312|201:373,1,121.499996292114,6|0,0:0|0:0,0:0:0:0:
176,344,45403,2,0,P|172:292|164:232,1,80.9999975280763,10|0,0:0|0:0,0:0:0:0:
328,128,45774,2,0,P|380:164|384:236,1,121.499996292114,6|0,0:0|0:0,0:0:0:0:
352,252,46144,2,0,P|372:200|400:172,1,80.9999975280763,10|0,0:0|0:0,0:0:0:0:
216,52,46514,6,0,P|224:104|232:196,1,121.499996292114,6|8,0:0|0:0,0:0:0:0:
264,112,46885,1,10,0:0:0:0:
64,208,47070,2,0,L|104:212,1,40.4999987640381,8|8,0:0|0:0,0:0:0:0:
212,276,47255,2,0,L|172:272,1,40.4999987640381,10|8,0:0|0:0,0:0:0:0:
48,296,47440,1,8,0:0:0:0:
230,172,47626,1,10,0:0:0:0:
36,76,47811,1,10,0:0:0:0:
28,88,47903,1,10,0:0:0:0:
20,100,47996,6,0,P|24:136|28:196,1,80.9999975280763,14|0,0:0|0:0,0:0:0:0:
156,24,48366,2,0,P|152:60|148:120,1,80.9999975280763,10|0,0:0|0:0,0:0:0:0:
172,252,48737,1,2,0:0:0:0:
244,88,48922,1,10,3:2:0:0:
60,188,49107,2,0,P|64:224|68:284,1,80.9999975280763,10|0,3:2|0:0,0:0:0:0:
300,176,49477,6,0,P|260:168|220:168,1,80.9999975280763,2|0,0:0|0:0,0:0:0:0:
388,276,49848,2,0,P|428:275|468:268,1,80.9999975280763,10|0,0:0|0:0,0:0:0:0:
256,316,50218,1,2,0:0:0:0:
392,168,50403,1,10,3:2:0:0:
168,232,50588,2,0,P|172:272|176:344,1,80.9999975280763,10|0,3:2|0:0,0:0:0:0:
208,68,50959,5,8,0:0:0:0:
200,52,51514,5,8,0:0:0:0:
272,292,51700,2,0,P|236:288|84:276,1,161.999995056153,8|8,0:0|0:0,0:0:0:0:
0,104,52255,6,0,P|40:108|84:112,1,80.9999975280763,6|0,0:0|0:0,0:0:0:0:
296,216,52626,1,10,0:0:0:0:
255,211,52718,1,10,0:0:0:0:
215,207,52811,1,10,0:0:0:0:
175,204,52903,1,10,0:0:0:0:
134,201,52996,1,10,0:0:0:0:
94,198,53088,1,10,0:0:0:0:
53,196,53181,5,2,0:0:0:0:
304,120,53551,1,2,0:0:0:0:
41,16,53922,6,0,P|48:105|52:195,1,180,6|8,0:0|0:0,0:0:0:0:
160,312,54477,1,0,0:0:0:0:
160,312,54570,1,8,0:0:0:0:
160,312,54663,2,0,P|164:256|168:204,1,90,10|0,0:0|0:0,0:0:0:0:
120,56,55033,1,10,0:0:0:0:
52,195,55218,1,2,0:0:0:0:
256,100,55403,6,0,P|260:144|264:216,1,90,6|0,0:0|0:0,0:0:0:0:
120,56,55774,1,10,0:0:0:0:
356,44,55959,1,0,0:0:0:0:
356,44,56051,1,8,0:0:0:0:
356,44,56144,2,0,P|352:88|348:160,1,90,10|0,0:0|0:0,0:0:0:0:
188,304,56514,2,0,P|185:259|181:214,1,90,10|0,0:0|0:0,0:0:0:0:
436,252,56885,6,0,P|380:288|268:236,1,180,6|10,0:0|0:0,0:0:0:0:
164,112,57440,1,0,0:0:0:0:
164,112,57533,1,8,0:0:0:0:
164,112,57626,2,0,P|168:156|172:212,1,90,10|0,0:0|0:0,0:0:0:0:
64,352,57996,2,0,P|67:307|71:262,1,90,10|0,0:0|0:0,0:0:0:0:
256,160,58366,6,0,P|260:204|264:260,1,90,6|0,0:0|0:0,0:0:0:0:
232,12,58737,1,14,0:0:0:0:
376,168,58922,1,0,0:0:0:0:
376,168,59014,1,8,0:0:0:0:
376,168,59107,1,14,0:0:0:0:
176,92,59292,1,2,3:2:0:0:
468,88,59477,2,0,P|464:128|460:188,1,90,14|0,3:2|0:0,0:0:0:0:
316,364,59848,6,0,P|256:316|156:340,1,180,6|8,0:0|0:0,0:0:0:0:
32,200,60403,1,0,0:0:0:0:
32,200,60496,1,8,0:0:0:0:
32,200,60588,2,0,P|36:236|40:308,1,90,10|0,0:0|0:0,0:0:0:0:
172,84,60959,1,10,0:0:0:0:
0,116,61144,1,2,0:0:0:0:
224,208,61329,6,0,P|316:200|424:196,1,180,6|10,0:0|0:0,0:0:0:0:
172,84,61885,1,0,0:0:0:0:
172,84,61977,1,8,0:0:0:0:
172,84,62070,2,0,P|136:88|68:92,1,90,10|0,0:0|0:0,0:0:0:0:
296,128,62440,1,8,0:0:0:0:
216,4,62626,1,2,0:0:0:0:
112,188,62811,6,0,P|116:228|124:372,1,180,6|10,0:0|0:0,0:0:0:0:
220,92,63366,1,0,0:0:0:0:
220,92,63459,1,8,0:0:0:0:
220,92,63551,2,0,P|216:128|212:200,1,90,10|0,0:0|0:0,0:0:0:0:
272,308,63922,1,10,0:0:0:0:
464,176,64107,6,0,P|416:120|300:136,1,180,6|2,0:0|0:0,0:0:0:0:
192,204,64663,2,0,P|196:240|204:324,1,90,2|2,0:0|0:0,0:0:0:0:
424,264,65033,2,0,L|372:268,1,45,8|8,0:0|0:0,0:0:0:0:
280,200,65219,2,0,L|324:196,1,45,8|8,0:0|0:0,0:0:0:0:
512,180,65403,1,10,0:0:0:0:
507,224,65495,1,8,0:0:0:0:
503,269,65588,1,10,0:0:0:0:
501,314,65680,1,10,0:0:0:0:
500,359,65774,6,0,B|408:396|408:316|292:360,1,180,14|8,0:0|0:0,0:0:0:0:
160,380,66329,1,0,0:0:0:0:
160,380,66422,1,8,0:0:0:0:
160,380,66514,2,0,P|168:328|172:272,1,90,10|0,0:0|0:0,0:0:0:0:
88,132,66885,1,10,0:0:0:0:
40,296,67070,1,2,0:0:0:0:
224,148,67255,6,0,P|268:144|336:140,1,90,6|0,0:0|0:0,0:0:0:0:
432,220,67626,1,10,0:0:0:0:
400,24,67811,1,0,0:0:0:0:
400,24,67903,1,8,0:0:0:0:
400,24,67996,2,0,P|396:64|392:128,1,90,10|0,0:0|0:0,0:0:0:0:
512,264,68366,2,0,P|509:219|504:174,1,90,10|0,0:0|0:0,0:0:0:0:
292,96,68737,6,0,P|300:168|308:284,1,180,6|10,0:0|0:0,0:0:0:0:
432,44,69292,1,0,0:0:0:0:
432,44,69385,1,8,0:0:0:0:
432,44,69477,2,0,P|428:84|424:148,1,90,10|0,0:0|0:0,0:0:0:0:
216,28,69848,2,0,P|264:16|320:24,1,90,10|0,0:0|0:0,0:0:0:0:
96,156,70218,6,0,P|51:158|8:147,1,90,6|0,0:0|0:0,0:0:0:0:
268,116,70588,1,14,0:0:0:0:
72,64,70774,1,0,0:0:0:0:
72,64,70866,1,8,0:0:0:0:
72,64,70959,1,14,0:0:0:0:
288,120,71144,1,2,3:2:0:0:
8,147,71329,2,0,P|12:196|16:268,1,90,14|0,3:2|0:0,0:0:0:0:
272,376,71700,6,0,P|268:320|260:176,1,180,6|8,0:0|0:0,0:0:0:0:
368,56,72255,1,0,0:0:0:0:
368,56,72348,1,8,0:0:0:0:
368,56,72440,2,0,P|364:108|360:184,1,90,10|0,0:0|0:0,0:0:0:0:
268,8,72811,1,10,0:0:0:0:
464,52,72996,1,2,0:0:0:0:
224,124,73181,6,0,P|228:176|240:336,1,180,6|10,0:0|0:0,0:0:0:0:
116,108,73737,1,0,0:0:0:0:
116,108,73829,1,8,0:0:0:0:
116,108,73922,2,0,P|84:100|16:120,1,90,10|0,0:0|0:0,0:0:0:0:
208,204,74292,1,8,0:0:0:0:
232,32,74477,1,2,0:0:0:0:
80,204,74663,6,0,P|84:256|92:404,1,180,6|10,0:0|0:0,0:0:0:0:
215,114,75218,1,0,0:0:0:0:
215,114,75311,1,8,0:0:0:0:
215,114,75403,2,0,P|211:154|207:218,1,90,10|0,0:0|0:0,0:0:0:0:
104,24,75774,1,10,0:0:0:0:
320,112,75959,6,0,P|392:120|476:40,1,180,6|2,0:0|0:0,0:0:0:0:
504,208,76514,2,0,P|456:204|400:200,1,90,2|2,0:0|0:0,0:0:0:0:
220,268,76885,2,0,P|268:272|388:288,1,135,2|2,0:0|0:0,0:0:0:0:
432,324,77255,2,0,P|384:328|264:344,1,135,8|0,0:3|0:0,0:0:0:0:
212,356,77626,6,0,P|172:352|112:348,1,90,6|0,0:0|0:0,0:0:0:0:
0,212,77996,2,0,P|40:216|100:220,1,90,10|0,0:0|0:0,0:0:0:0:
172,196,78274,1,8,0:0:0:0:
192,196,78366,1,10,0:0:0:0:
36,316,78551,1,0,0:0:0:0:
80,120,78737,1,10,0:0:0:0:
160,352,78922,6,0,P|248:344|348:340,1,180,6|0,0:0|0:0,0:0:0:0:
88,252,79477,1,10,0:0:0:0:
280,176,79663,2,0,P|276:216|272:276,1,90,2|0,0:0|0:0,0:0:0:0:
240,340,79940,1,8,0:0:0:0:
240,356,80033,1,8,0:0:0:0:
160,180,80218,2,0,P|163:135|167:90,1,90,10|0,0:0|0:0,0:0:0:0:
376,132,80588,6,0,P|372:172|368:232,1,90,6|0,0:0|0:0,0:0:0:0:
256,28,80959,1,10,0:0:0:0:
280,196,81144,1,0,0:0:0:0:
280,196,81237,1,8,0:0:0:0:
280,196,81329,2,0,P|284:236|288:296,1,90,10|0,0:0|0:0,0:0:0:0:
388,76,81700,1,10,0:0:0:0:
168,128,81885,6,0,P|84:128|24:32,1,180,6|0,0:0|0:0,0:0:0:0:
180,40,82440,1,10,0:0:0:0:
84,228,82626,2,0,P|88:280|92:352,1,90,6|0,0:0|0:0,0:0:0:0:
0,128,82996,1,2,3:2:0:0:
180,208,83181,1,10,3:2:0:0:
224,202,83273,1,8,0:0:0:0:
269,197,83366,1,8,0:0:0:0:
314,194,83458,1,8,0:0:0:0:
359,192,83551,6,0,P|356:240|356:312,1,90,14|0,0:0|0:0,0:0:0:0:
496,176,83922,2,0,P|495:131|492:86,1,90,10|0,0:0|0:0,0:0:0:0:
436,16,84200,1,8,0:0:0:0:
436,0,84292,1,10,0:0:0:0:
292,108,84477,1,0,0:0:0:0:
492,86,84663,1,10,0:0:0:0:
184,40,84848,6,0,P|188:96|196:236,1,180,6|0,0:0|0:0,0:0:0:0:
96,76,85403,1,10,0:0:0:0:
288,216,85588,1,2,0:0:0:0:
288,216,85681,1,8,0:0:0:0:
288,216,85774,2,0,P|284:276|280:336,1,90,10|2,0:0|0:0,0:0:0:0:
184,40,86144,2,0,P|188:100|192:160,1,90,10|0,0:0|0:0,0:0:0:0:
380,232,86514,6,0,P|376:272|368:384,2,135,12|2|2,0:0|0:0|0:0,0:0:0:0:
380,232,87440,1,2,0:0:0:0:
484,192,87626,1,2,0:0:0:0:
296,152,87811,1,2,0:0:0:0:
468,296,87995,5,12,0:0:0:0:
352,40,88274,1,8,0:0:0:0:
308,336,88551,2,0,P|204:328|127:323,1,180,12|0,0:0|0:0,0:0:0:0:
100,288,89107,2,0,L|152:292,1,36,0|0,3:0|0:0,0:0:0:0:
