osu file format v14

[General]
AudioFilename: 03. (TV Version).mp3
AudioLeadIn: 1000
PreviewTime: 38394
Countdown: 0
SampleSet: Normal
StackLeniency: 0.7
Mode: 0
LetterboxInBreaks: 0
WidescreenStoryboard: 1

[Editor]
DistanceSpacing: 1.1
BeatDivisor: 4
GridSize: 4
TimelineZoom: 1.6

[Metadata]
Title:Hanamaru Pippi wa Yoiko dake (TV Version)
TitleUnicode:はなまるぴっぴはよいこだけ (TV Version)
Artist:AOP
ArtistUnicode:A応P
Creator:Yasora
Version:Normal
Source:おそ松さん
Tags:osomatsu san opening Armin A_r_M_i_N
BeatmapID:976339
BeatmapSetID:455500

[Difficulty]
HPDrainRate:5
CircleSize:3.5
OverallDifficulty:4
ApproachRate:4
SliderMultiplier:0.999999999999999
SliderTickRate:1

[Events]
//Background and Video events
0,0,"should i rename this.jpg",0,0
Video,-300,"yhaaa.avi"
//Break Periods
//Storyboard Layer 0 (Background)
//Storyboard Layer 1 (Fail)
//Storyboard Layer 2 (Pass)
//Storyboard Layer 3 (Foreground)
//Storyboard Sound Samples

[TimingPoints]
894.388628406962,348.837209302326,4,1,1,50,1,0
12057,-100,4,2,1,70,0,0
17638,-100,4,1,1,50,0,0
24615,-100,4,2,1,60,0,0
30545,-100,4,1,1,50,0,0
41359,-100,4,1,1,50,0,0
63685,-100,4,2,1,70,0,0
65603,-100,4,2,1,70,0,0
66475,-100,4,1,1,70,0,1
72057,-100,4,2,1,70,0,1
73452,-100,4,2,1,70,0,1
74499,-100,4,1,1,70,0,0
86446,-100,4,2,1,10,0,0

[Colours]
Combo1 : 255,72,164
Combo2 : 202,0,0
Combo3 : 0,128,192
Combo4 : 0,191,0
Combo5 : 128,0,255
Combo6 : 255,255,0

[HitObjects]
272,144,894,6,0,P|296:228|300:260,2,99.9999999999999,0|8|0,0:0|0:0|0:0,0:0:0:0:
184,96,1940,1,8,0:0:0:0:
128,180,2289,2,0,P|116:232|112:288,2,99.9999999999999,0|8|0,0:0|0:0|0:0,0:0:0:0:
184,96,3336,2,0,L|244:84,1,50,8|8,0:0|0:0,0:0:0:0:
280,104,3685,6,0,L|392:116,2,99.9999999999999,0|8|0,0:0|0:0|0:0,0:0:0:0:
224,188,4731,1,8,0:0:0:0:
152,256,5080,2,0,L|40:244,2,99.9999999999999,0|8|0,0:0|0:0|0:0,0:0:0:0:
220,328,6126,1,8,0:0:0:0:
320,316,6475,6,0,P|380:292|400:264,1,99.9999999999999,4|8,0:0|0:0,0:0:0:0:
344,180,7173,2,0,P|344:124|332:76,1,99.9999999999999,0|8,0:0|0:0,0:0:0:0:
232,80,7871,2,0,P|219:134|220:184,1,99.9999999999999,0|8,0:0|0:0,0:0:0:0:
168,264,8568,1,0,0:0:0:0:
80,220,8917,2,0,L|56:164,1,50,8|8,0:0|0:0,0:0:0:0:
120,92,9440,6,0,P|164:72|256:104,1,150
292,136,10138,1,8,0:0:0:0:
348,220,10487,2,0,P|384:172|376:84,1,150,4|8,2:0|0:0,0:0:0:0:
292,136,11359,2,0,L|176:164,1,99.9999999999999,0|8,0:0|0:0,0:0:0:0:
108,224,12057,6,0,L|104:280,1,50,4|0,0:0|0:0,0:0:0:0:
440,264,13452,6,0,L|444:208,1,50,4|0,0:0|0:0,0:0:0:0:
168,48,14847,6,0,L|164:112,1,50,4|0,0:0|0:0,0:0:0:0:
412,344,16243,6,0,P|400:252|304:204,1,200,4|0,0:0|0:0,0:0:0:0:
216,228,17289,1,8,0:0:0:0:
116,216,17638,6,0,P|96:176|100:108,1,99.9999999999999,4|8,0:0|0:0,0:0:0:0:
132,28,18336,1,0,0:0:0:0:
224,68,18685,2,0,L|284:60,1,50,8|0,0:0|0:0,0:0:0:0:
320,80,19033,2,0,P|320:156|312:192,1,99.9999999999999,0|8,0:0|0:0,0:0:0:0:
268,268,19731,2,0,L|160:256,1,99.9999999999999,0|8,0:0|0:0,0:0:0:0:
88,196,20429,6,0,P|72:152|72:92,2,99.9999999999999,0|8|0,0:0|0:0|0:0,0:0:0:0:
180,160,21475,1,8,0:0:0:0:
276,188,21824,2,0,P|300:144|436:92,1,200,4|0,0:0|0:0,0:0:0:0:
484,180,22871,1,8,0:0:0:0:
432,276,23219,2,0,B|384:268|384:268|340:300|340:300|280:284,2,150,0|4|0,0:0|0:0|0:0,0:0:0:0:
484,180,24615,6,0,L|380:160,1,99.9999999999999,4|8,0:0|0:0,0:0:0:0:
292,104,25312,2,0,P|272:156|272:216,1,99.9999999999999,2|8,0:0|0:0,0:0:0:0:
180,264,26010,2,0,P|172:208|152:164,1,99.9999999999999,2|8,0:0|0:0,0:0:0:0:
48,140,26708,1,2,0:0:0:0:
72,32,27057,1,8,0:0:0:0:
172,72,27406,6,0,L|280:56,1,99.9999999999999,2|8,0:0|0:0,0:0:0:0:
268,168,28103,2,0,L|368:148,1,99.9999999999999,2|8,0:0|0:0,0:0:0:0:
472,176,28801,2,0,P|484:120|480:64,2,99.9999999999999,4|4|4,0:0|0:0|0:0,0:0:0:0:
432,280,29847,1,8,0:0:0:0:
328,312,30196,5,4,0:0:0:0:
236,252,30545,2,0,P|184:272|156:312,1,99.9999999999999,8|0,0:0|0:0,0:0:0:0:
92,220,31243,1,8,0:0:0:0:
176,148,31592,2,0,P|228:128|256:88,1,99.9999999999999,0|8,0:0|0:0,0:0:0:0:
360,112,32289,2,0,L|376:228,1,99.9999999999999,0|8,0:0|0:0,0:0:0:0:
324,308,32987,5,8,0:0:0:0:
220,344,33336,1,8,0:0:0:0:
136,276,33685,1,8,0:0:0:0:
160,168,34033,1,8,0:0:0:0:
264,132,34382,2,0,P|256:84|260:32,2,99.9999999999999,0|8|0,0:0|0:0|0:0,0:0:0:0:
340,212,35429,1,8,0:0:0:0:
424,284,35778,6,0,P|400:324|348:364,1,99.9999999999999,0|4,0:0|0:0,0:0:0:0:
248,356,36475,2,0,L|192:344,1,50,0|4,0:0|0:0,0:0:0:0:
140,252,36999,2,0,L|132:188,1,50,0|8,0:0|0:0,0:0:0:0:
132,148,37347,2,0,P|176:120|240:124,1,99.9999999999999,8|4,0:0|0:0,0:0:0:0:
320,168,38045,2,0,L|336:240,1,50,0|8,0:0|0:0,0:0:0:0:
288,320,38568,6,0,P|240:320|192:296,1,99.9999999999999,4|8,0:0|0:0,0:0:0:0:
84,276,39266,2,0,L|64:332,2,50,0|0|8,0:0|0:0|0:0,0:0:0:0:
156,192,39964,2,0,P|132:164|20:140,2,150,0|0|8,0:0|0:0|0:0,0:0:0:0:
260,232,41359,6,0,P|312:240|372:212,1,99.9999999999999,4|8,0:0|0:0,0:0:0:0:
376,172,41883,1,0,0:0:0:0:
360,120,42057,2,0,P|320:100|256:104,1,99.9999999999999,0|8,0:0|0:0,0:0:0:0:
180,168,42754,2,0,P|128:176|68:148,1,99.9999999999999,0|8,0:0|0:0,0:0:0:0:
64,108,43278,1,0,0:0:0:0:
80,56,43452,2,0,P|120:36|184:40,1,99.9999999999999,0|8,0:0|0:0,0:0:0:0:
265,100,44150,6,0,P|309:124|377:120,1,99.9999999999999,4|8,0:0|0:0,0:0:0:0:
452,180,44847,2,0,P|412:216|357:226,1,99.9999999999999,0|8,0:0|0:0,0:0:0:0:
260,200,45545,2,0,P|205:177|148:187,1,99.9999999999999,0|8,0:0|0:0,0:0:0:0:
60,216,46243,1,0,0:0:0:0:
84,324,46592,1,8,0:0:0:0:
184,372,46940,6,0,P|195:325|179:269,1,99.9999999999999,0|8,0:0|0:0,0:0:0:0:
204,168,47638,1,0,0:0:0:0:
316,168,47987,1,8,0:0:0:0:
348,276,48336,2,0,P|336:324|348:372,2,99.9999999999999,4|4|4,0:0|0:0|0:0,0:0:0:0:
448,320,49382,1,8,0:0:0:0:
468,212,49731,6,0,P|452:164|416:132,1,99.9999999999999,2|8,2:0|0:0,0:0:0:0:
316,84,50429,2,0,L|320:28,2,50,2|0|8,2:0|0:0|0:0,0:0:0:0:
256,176,51126,2,0,L|252:248,2,50,2|0|8,2:0|0:0|0:0,0:0:0:0:
184,92,51824,2,0,P|128:92|76:120,1,99.9999999999999,2|8,2:0|0:0,0:0:0:0:
80,224,52522,6,0,L|112:332,1,99.9999999999999,2|8,2:0|0:0,0:0:0:0:
220,328,53219,1,2,2:0:0:0:
288,240,53568,1,8,0:0:0:0:
232,148,53917,2,0,P|184:116|88:120,2,150,2|8|8,2:0|0:0|0:0,0:0:0:0:
332,104,55312,5,2,2:0:0:0:
440,128,55661,2,0,L|500:136,2,50,8|0|2,0:0|0:0|2:0,0:0:0:0:
368,212,56359,1,8,0:0:0:0:
284,284,56708,2,0,L|224:292,2,50,2|0|8,2:0|0:0|0:0,0:0:0:0:
388,316,57406,2,0,P|440:288|460:248,1,99.9999999999999,2|8,2:0|0:0,0:0:0:0:
432,148,58103,6,0,P|384:124|328:132,1,99.9999999999999,4|8,0:0|0:0,0:0:0:0:
228,136,58801,1,2,2:0:0:0:
136,196,59150,2,0,P|200:244|312:208,1,200,8|8,0:0|0:0,0:0:0:0:
228,136,60196,1,2,2:0:0:0:
128,88,60545,6,0,L|84:48,2,50,0|0|2,0:0|0:0|2:0,0:0:0:0:
136,196,61243,2,0,L|120:260,2,50,8|0|2,0:0|0:0|2:0,0:0:0:0:
228,136,61940,1,8,0:0:0:0:
284,232,62289,2,0,P|336:100|220:20,1,300,4|8,0:0|0:0,0:0:0:0:
116,44,63685,6,0,P|92:92|88:148,1,99.9999999999999,2|0,0:0|0:0,0:0:0:0:
100,244,64382,2,0,P|136:272|192:288,1,99.9999999999999,2|0,0:0|0:0,0:0:0:0:
296,288,65080,2,0,L|360:256,1,50,8|0,0:0|0:0,0:0:0:0:
416,348,65603,2,0,P|440:304|444:248,1,99.9999999999999,4|0,0:0|0:0,0:0:0:0:
444,200,66126,1,8,0:0:0:0:
412,96,66475,6,0,P|372:68|316:68,1,99.9999999999999,4|8,2:0|0:0,0:0:0:0:
232,132,67173,2,0,L|204:24,1,99.9999999999999,0|8,0:0|0:0,0:0:0:0:
116,100,67871,2,0,L|144:204,1,99.9999999999999,0|8,0:0|0:0,0:0:0:0:
64,272,68568,2,0,L|44:216,2,50,4|0|4,2:0|0:0|2:0,0:0:0:0:
156,332,69266,6,0,L|228:328,1,50
260,328,69615,2,0,P|300:344|360:336,1,99.9999999999999,8|8,0:0|0:0,0:0:0:0:
420,248,70312,1,8,0:0:0:0:
344,168,70661,2,0,L|332:96,1,50
320,64,71010,2,0,P|276:40|224:36,1,99.9999999999999,8|8,0:0|0:0,0:0:0:0:
128,84,71708,1,8,0:0:0:0:
100,188,72057,6,0,P|92:240|100:296,1,99.9999999999999,4|0,0:0|0:0,0:0:0:0:
200,332,72754,2,0,L|308:316,1,99.9999999999999,4|0,0:0|0:0,0:0:0:0:
344,216,73452,2,0,L|228:200,1,99.9999999999999,4|4,0:0|0:0,0:0:0:0:
156,136,74150,2,0,P|140:88|140:28,1,99.9999999999999,4|4,0:0|0:0,0:0:0:0:
248,52,74847,6,0,L|348:36,2,99.9999999999999,0|8|0,0:0|0:0|0:0,0:0:0:0:
256,164,75894,1,8,0:0:0:0:
184,248,76243,2,0,L|172:360,2,99.9999999999999,0|8|0,0:0|0:0|0:0,0:0:0:0:
140,148,77289,2,0,L|120:88,1,50,8|0,0:0|0:0,0:0:0:0:
132,44,77638,6,0,P|196:40|244:56,2,99.9999999999999,0|8|0,0:0|0:0|0:0,0:0:0:0:
36,100,78685,1,8,0:0:0:0:
84,200,79033,2,0,P|76:256|56:300,2,99.9999999999999,0|8|0,0:0|0:0|0:0,0:0:0:0:
140,104,80080,1,8,0:0:0:0:
252,100,80429,6,0,L|356:88,1,99.9999999999999,4|8,0:0|0:0,0:0:0:0:
416,180,81126,1,8,0:0:0:0:
452,76,81475,1,8,0:0:0:0:
416,180,81824,2,0,L|408:288,1,99.9999999999999,0|8,0:0|0:0,0:0:0:0:
304,320,82522,2,0,L|244:340,1,50,8|0,0:0|0:0,0:0:0:0:
212,308,82871,2,0,L|152:304,1,50,8|0,0:0|0:0,0:0:0:0:
84,228,83394,6,0,P|96:164|216:112,1,200
284,192,84440,2,0,P|352:200|428:144,1,150,4|8,2:0|0:0,0:0:0:0:
332,96,85312,2,0,P|296:72|236:64,1,99.9999999999999,0|8,0:0|0:0,0:0:0:0:
184,64,85836,1,0,0:0:0:0:
84,192,86359,5,4,0:0:0:0:
256,192,86446,12,0,88801,0:0:0:0:
