osu file format v14

[General]
AudioFilename: 03. (TV Version).mp3
AudioLeadIn: 1000
PreviewTime: 38394
Countdown: 0
SampleSet: Normal
StackLeniency: 0.7
Mode: 0
LetterboxInBreaks: 0
WidescreenStoryboard: 1

[Editor]
DistanceSpacing: 1.3
BeatDivisor: 4
GridSize: 4
TimelineZoom: 1.6

[Metadata]
Title:Hanamaru Pippi wa Yoiko dake (TV Version)
TitleUnicode:はなまるぴっぴはよいこだけ (TV Version)
Artist:AOP
ArtistUnicode:A応P
Creator:Yasora
Version:Hard
Source:おそ松さん
Tags:osomatsu san opening Armin A_r_M_i_N
BeatmapID:976337
BeatmapSetID:455500

[Difficulty]
HPDrainRate:6
CircleSize:4
OverallDifficulty:6
ApproachRate:7.5
SliderMultiplier:1.5
SliderTickRate:1

[Events]
//Background and Video events
0,0,"should i rename this.jpg",0,0
Video,-300,"yhaaa.avi"
//Break Periods
//Storyboard Layer 0 (Background)
//Storyboard Layer 1 (Fail)
//Storyboard Layer 2 (Pass)
//Storyboard Layer 3 (Foreground)
//Storyboard Sound Samples

[TimingPoints]
894.388628406962,348.837209302326,4,1,1,50,1,0
12057,-100,4,2,1,60,0,0
17638,-100,4,1,1,50,0,0
24615,-100,4,2,1,50,0,0
30545,-100,4,1,1,50,0,0
41359,-100,4,1,1,70,0,0
63685,-100,4,2,1,60,0,0
65603,-100,4,2,1,60,0,0
66475,-100,4,1,1,70,0,1
72057,-100,4,2,1,70,0,1
73452,-100,4,2,1,70,0,1
74499,-100,4,1,1,60,0,0
86446,-100,4,2,1,10,0,0

[Colours]
Combo1 : 255,72,164
Combo2 : 202,0,0
Combo3 : 0,128,192
Combo4 : 0,191,0
Combo5 : 128,0,255
Combo6 : 255,255,0

[HitObjects]
176,236,894,6,0,P|172:304|240:364,1,150,0|8,0:0|0:0,0:0:0:0:
264,272,1417,2,0,P|320:276|392:216,1,150,0|0,0:0|0:0,0:0:0:0:
420,128,1940,1,8,0:0:0:0:
352,56,2115,1,0,0:0:0:0:
352,56,2202,1,0,0:0:0:0:
352,56,2289,6,0,P|280:32|200:64,1,150,0|8,0:0|0:0,0:0:0:0:
140,120,2812,1,8,0:0:0:0:
76,192,2987,2,0,L|60:284,2,75,0|0|8,0:0|0:0|0:0,0:0:0:0:
60,95,3510,1,8,0:0:0:0:
64,80,3597,1,0,0:0:0:0:
72,64,3685,6,0,P|120:12|208:20,1,150,0|8,0:0|0:0,0:0:0:0:
240,100,4208,2,0,P|300:120|392:92,1,150,0|0,0:0|0:0,0:0:0:0:
480,104,4731,1,8,0:0:0:0:
500,200,4906,1,0,0:0:0:0:
496,220,4993,1,0,0:0:0:0:
492,240,5080,6,0,P|456:272|356:272,1,150,0|8,0:0|0:0,0:0:0:0:
276,220,5603,2,0,P|188:184|120:200,1,150,0|0,0:0|0:0,0:0:0:0:
52,260,6126,2,0,L|28:176,1,75,8|0,0:0|0:0,0:0:0:0:
164,284,6475,6,0,L|184:360,1,75,4|0,0:0|0:0,0:0:0:0:
236,216,6824,2,0,L|312:248,1,75,8|0,0:0|0:0,0:0:0:0:
136,192,7173,2,0,L|56:148,1,75,8|0,0:0|0:0,0:0:0:0:
208,120,7522,2,0,L|200:40,1,75,8|0,0:0|0:0,0:0:0:0:
322,101,7871,6,0,P|330:173|302:249,1,150,8|8,0:0|0:0,0:0:0:0:
224,316,8394,1,0,0:0:0:0:
120,292,8568,1,8,0:0:0:0:
120,292,8743,1,0,0:0:0:0:
104,196,8917,1,8,0:0:0:0:
104,196,9092,1,8,0:0:0:0:
100,168,9440,6,0,L|96:76,2,75,8|8|0,0:0|0:0|0:0,0:0:0:0:
204,204,9964,2,0,L|208:292,1,75,8|8,0:0|0:0,0:0:0:0:
207,278,10487,2,0,P|287:258|355:294,1,150,4|0,2:0|0:0,0:0:0:0:
424,348,11010,1,8,0:0:0:0:
456,260,11185,2,0,L|508:252,2,37.5,0|0|8,0:0|0:0|0:0,0:0:0:0:
404,176,11533,2,0,L|420:128,2,37.5,0|0|8,0:0|0:0|0:0,0:0:0:0:
308,192,11882,5,8,0:0:0:0:
308,192,12057,2,0,L|228:176,1,75,4|0,0:0|0:0,0:0:0:0:
60,340,13452,5,4,0:0:0:0:
60,340,13626,1,0,0:0:0:0:
324,300,14847,5,4,0:0:0:0:
324,300,15022,1,0,0:0:0:0:
324,300,16243,6,0,B|288:284|252:296|252:296|208:308|172:280,1,150,4|0,0:0|0:0,0:0:0:0:
100,244,16766,2,0,P|141:202|235:219,1,150,4|0,0:0|0:0,0:0:0:0:
226,211,17289,2,0,L|203:132,1,75,8|0,0:0|0:0,0:0:0:0:
268,72,17638,6,0,P|324:96|416:80,1,150,4|8,0:0|0:0,0:0:0:0:
496,36,18161,1,0,0:0:0:0:
496,132,18336,2,0,P|483:164|480:224,1,75,0|0,0:0|0:0,0:0:0:0:
432,292,18685,1,8,0:0:0:0:
344,336,18859,2,0,L|300:288,1,37.5,0|0,0:0|0:0,0:0:0:0:
280,284,19033,6,0,P|240:260|128:256,1,150,0|8,0:0|0:0,0:0:0:0:
44,280,19557,1,0,0:0:0:0:
40,184,19731,2,0,P|44:148|28:100,1,75
80,24,20080,1,8,0:0:0:0:
164,72,20254,2,0,L|220:68,1,37.5,0|0,0:0|0:0,0:0:0:0:
236,104,20429,6,0,B|276:128|276:128|384:96,1,150,0|8,0:0|0:0,0:0:0:0:
472,104,20952,1,8,0:0:0:0:
440,196,21126,2,0,P|424:232|388:260,1,75,0|0,0:0|0:0,0:0:0:0:
304,280,21475,2,0,P|272:236|240:228,1,75,8|0,0:0|0:0,0:0:0:0:
175,287,21824,6,0,P|111:291|55:227,1,150,4|8,0:0|0:0,0:0:0:0:
60,132,22347,1,0,0:0:0:0:
153,139,22522,2,0,L|177:295,1,150,0|8,0:0|0:0,0:0:0:0:
268,292,23045,2,0,L|288:240,1,37.5,0|0,0:0|0:0,0:0:0:0:
328,256,23219,6,0,P|396:260|464:212,1,150,0|8,0:0|0:0,0:0:0:0:
346,107,23743,2,0,L|326:267,1,150,4|8,0:0|0:0,0:0:0:0:
256,320,24266,1,8,0:0:0:0:
168,280,24440,1,0,0:0:0:0:
136,188,24615,6,0,L|124:104,1,75,4|0,0:0|0:0,0:0:0:0:
180,32,24964,2,0,P|216:24|260:28,1,75,8|0,0:0|0:0,0:0:0:0:
336,80,25312,1,2,0:0:0:0:
304,172,25487,2,0,P|268:180|224:176,1,75,0|8,0:0|0:0,0:0:0:0:
424,192,26010,6,0,P|412:248|388:276,1,75,2|0,0:0|0:0,0:0:0:0:
320,328,26359,2,0,P|304:288|304:248,1,75,8|0,0:0|0:0,0:0:0:0:
230,177,26708,2,0,P|190:177|154:161,1,75,2|0,0:0|0:0,0:0:0:0:
92,100,27057,2,0,P|124:76|176:72,1,75,8|0,0:0|0:0,0:0:0:0:
292,76,27406,6,0,L|376:68,2,75,2|0|8,0:0|0:0|0:0,0:0:0:0:
230,177,27929,2,0,L|148:188,2,75,0|2|0,0:0|0:0|0:0,0:0:0:0:
288,292,28452,1,8,0:0:0:0:
288,292,28626,1,0,0:0:0:0:
340,208,28801,6,0,P|380:168|480:152,2,150,4|4|4,0:0|0:0|0:0,0:0:0:0:
288,292,29673,2,0,P|252:300|200:288,1,75,0|8,0:0|0:0,0:0:0:0:
120,320,30022,1,0,0:0:0:0:
68,240,30196,5,4,0:0:0:0:
68,240,30545,2,0,L|60:148,1,75,8|0,0:0|0:0,0:0:0:0:
96,72,30894,1,8,0:0:0:0:
184,112,31068,1,0,0:0:0:0:
276,84,31243,2,0,P|272:44|260:8,1,75,8|0,0:0|0:0,0:0:0:0:
184,112,31592,6,0,P|188:156|204:192,1,75,8|0,0:0|0:0,0:0:0:0:
292,212,31940,2,0,P|324:188|348:148,1,75,8|0,0:0|0:0,0:0:0:0:
220,276,32289,2,0,L|236:364,2,75,8|0|8,0:0|0:0|0:0,0:0:0:0:
199,184,32812,1,0,0:0:0:0:
232,92,32987,6,0,P|272:68|328:68,1,75,4|0,0:0|0:0,0:0:0:0:
364,136,33336,2,0,L|444:144,1,75,8|0,0:0|0:0,0:0:0:0:
324,224,33685,2,0,L|248:244,1,75,8|0,0:0|0:0,0:0:0:0:
156,256,34033,2,0,P|128:228|116:184,1,75,8|0,0:0|0:0,0:0:0:0:
48,88,34382,6,0,L|16:164,2,75,8|0|8,0:0|0:0|0:0,0:0:0:0:
128,32,34906,1,0,0:0:0:0:
208,80,35080,2,0,L|256:144,2,75,8|0|8,0:0|0:0|0:0,0:0:0:0:
128,32,35603,1,0,0:0:0:0:
128,128,35778,6,0,L|136:216,1,75
152,300,36126,1,12,0:0:0:0:
152,300,36475,2,0,P|200:308|244:296,1,75,8|4,0:0|0:0,0:0:0:0:
360,184,36999,1,0,0:0:0:0:
280,140,37173,6,0,P|232:136|196:148,1,75,8|8,0:0|0:0,0:0:0:0:
328,352,37696,2,0,P|404:360|476:336,1,150,4|0,0:0|0:0,0:0:0:0:
472,337,38219,1,8,0:0:0:0:
420,148,38568,5,8,0:0:0:0:
420,148,38743,1,8,0:0:0:0:
352,80,38917,2,0,P|316:72|264:80,1,75,0|0,0:0|0:0,0:0:0:0:
188,108,39266,5,8,0:0:0:0:
188,108,39440,1,8,0:0:0:0:
112,48,39615,2,0,P|72:36|24:40,1,75,0|0,0:0|0:0,0:0:0:0:
40,144,39964,5,8,0:0:0:0:
40,144,40138,1,8,0:0:0:0:
104,324,40487,2,0,P|168:296|199:220,1,150,8|0,0:0|0:0,0:0:0:0:
236,136,41010,2,0,L|240:98,2,37.5,0|0|0,0:0|0:0|0:0,0:0:0:0:
308,204,41359,6,0,P|344:180|380:172,1,75,4|0,0:0|0:0,0:0:0:0:
460,224,41708,1,8,0:0:0:0:
460,224,41882,1,0,0:0:0:0:
440,320,42057,2,0,L|364:308,1,75,0|0,0:0|0:0,0:0:0:0:
280,356,42406,2,0,L|204:344,1,75,8|0,0:0|0:0,0:0:0:0:
128,288,42754,6,0,P|116:240|120:200,1,75,0|0,0:0|0:0,0:0:0:0:
204,116,43103,2,0,P|216:164|212:204,1,75,8|0,0:0|0:0,0:0:0:0:
104,128,43452,2,0,P|108:88|128:48,1,75,0|0,0:0|0:0,0:0:0:0:
212,20,43801,1,8,0:0:0:0:
384,56,44150,6,0,P|400:88|408:136,1,75,4|0,0:0|0:0,0:0:0:0:
324,180,44499,2,0,P|320:232|312:256,1,75,8|0,0:0|0:0,0:0:0:0:
260,336,44847,2,0,L|104:324,1,150,0|8,0:0|0:0,0:0:0:0:
44,252,45371,1,0,0:0:0:0:
112,180,45545,6,0,L|200:156,2,75,0|0|8,0:0|0:0|0:0,0:0:0:0:
124,80,46068,2,0,L|276:40,1,150
364,72,46592,1,8,0:0:0:0:
412,156,46766,1,0,0:0:0:0:
364,240,46940,6,0,L|388:324,1,75
264,236,47289,2,0,L|232:308,1,75,8|0,0:0|0:0,0:0:0:0:
156,212,47638,2,0,L|188:140,1,75
264,48,47987,2,0,L|296:116,1,75,8|0,0:0|0:0,0:0:0:0:
396,200,48336,6,0,P|412:124|384:44,2,150,4|4|0,0:0|0:0|0:0,0:0:0:0:
352,288,49208,1,0,0:0:0:0:
256,268,49382,2,0,P|216:252|176:252,1,75,12|0,0:0|0:0,0:0:0:0:
88,236,49731,6,0,P|56:204|24:104,1,150,2|8,2:0|0:0,0:0:0:0:
80,28,50254,1,0,0:0:0:0:
172,60,50429,2,0,P|184:96|172:144,1,75,2|0,2:0|0:0,0:0:0:0:
256,188,50778,1,8,0:0:0:0:
256,188,50952,1,0,0:0:0:0:
332,132,51126,6,0,P|326:95|338:60,2,75,2|0|8,2:0|0:0|0:0,0:0:0:0:
400,204,51650,1,0,0:0:0:0:
344,284,51824,1,2,2:0:0:0:
380,376,51999,2,0,L|292:364,1,75,0|8,0:0|0:0,0:0:0:0:
224,316,52347,1,0,0:0:0:0:
208,224,52522,6,0,L|288:196,1,75,2|0,2:0|0:0,0:0:0:0:
276,100,52871,2,0,L|188:72,1,75,8|8,0:0|0:0,0:0:0:0:
112,100,53219,2,0,P|96:168|144:264,1,150,2|8,2:0|0:0,0:0:0:0:
184,316,53743,1,0,0:0:0:0:
280,300,53917,6,0,P|344:300|416:256,1,150,2|8,2:0|0:0,0:0:0:0:
316,200,54440,2,0,P|360:172|388:76,1,150,2|0,2:0|0:0,0:0:0:0:
264,36,54964,2,0,P|272:84|296:116,1,75,8|8,0:0|0:0,0:0:0:0:
285,105,55312,6,0,P|228:92|132:108,1,150,2|8,2:0|0:0,0:0:0:0:
68,172,55836,1,0,0:0:0:0:
116,256,56010,2,0,L|132:348,1,75,2|0,2:0|0:0,0:0:0:0:
224,312,56359,2,0,L|236:232,1,75,8|0,0:0|0:0,0:0:0:0:
220,140,56708,6,0,P|180:116|140:112,1,75,2|0,2:0|0:0,0:0:0:0:
336,200,57057,2,0,P|376:172|396:144,1,75,8|0,0:0|0:0,0:0:0:0:
300,28,57406,2,0,P|300:80|308:116,1,75,2|0,2:0|0:0,0:0:0:0:
460,96,57754,2,0,P|460:48|452:16,1,75,8|0,0:0|0:0,0:0:0:0:
391,151,58103,6,0,L|387:235,1,75,4|0,0:0|0:0,0:0:0:0:
332,308,58452,1,8,0:0:0:0:
332,308,58626,1,0,0:0:0:0:
256,248,58801,2,0,P|196:216|104:224,1,150,0|8,0:0|0:0,0:0:0:0:
28,312,59324,6,0,L|52:160,1,150,0|8,0:0|0:0,0:0:0:0:
100,80,59847,1,8,0:0:0:0:
100,80,60022,1,0,0:0:0:0:
184,132,60196,2,0,P|240:132|320:80,1,150,8|8,0:0|0:0,0:0:0:0:
400,16,60719,6,0,L|380:188,1,150,0|2,0:0|2:0,0:0:0:0:
312,244,61243,1,8,0:0:0:0:
312,244,61417,1,2,2:0:0:0:
236,308,61592,2,0,L|212:232,1,75,8|2,0:0|2:0,0:0:0:0:
396,272,61940,2,0,L|424:352,1,75,8|2,0:0|2:0,0:0:0:0:
256,192,62289,12,0,63336,0:0:0:0:
76,336,63685,6,0,P|60:260|108:204,1,150,2|0,0:0|0:0,0:0:0:0:
200,56,64382,2,0,P|264:28|336:60,1,150,2|0,0:0|0:0,0:0:0:0:
432,212,65080,2,0,P|475:270|457:341,1,150,8|0,0:0|0:0,0:0:0:0:
360,348,65603,6,0,L|272:336,1,75,4|0,0:0|0:0,0:0:0:0:
224,260,65952,2,0,P|248:192|328:176,1,150,0|0,0:0|0:0,0:0:0:0:
212,168,66475,6,0,L|140:140,1,75,4|0,2:0|0:0,0:0:0:0:
208,68,66824,2,0,P|240:60|284:68,1,75,8|0,0:0|0:0,0:0:0:0:
376,96,67173,1,8,0:0:0:0:
420,184,67347,2,0,L|412:280,2,75,0|8|0,0:0|0:0|0:0,0:0:0:0:
304,256,67871,6,0,L|316:336,1,75,8|0,0:0|0:0,0:0:0:0:
200,300,68219,2,0,L|148:368,1,75,8|0,0:0|0:0,0:0:0:0:
152,200,68568,2,0,L|84:232,2,75,4|4|4,2:0|2:0|2:0,0:0:0:0:
328,280,69266,6,0,P|364:280|412:260,1,75,4|0,0:0|0:0,0:0:0:0:
304,168,69615,2,0,P|312:120|304:80,1,75,8|0,0:0|0:0,0:0:0:0:
218,233,69964,2,0,P|173:205|129:195,1,75,8|0,0:0|0:0,0:0:0:0:
96,88,70312,1,8,0:0:0:0:
96,88,70487,1,0,0:0:0:0:
52,176,70661,6,0,L|28:264,2,75,0|0|8,0:0|0:0|0:0,0:0:0:0:
192,100,71185,2,0,L|276:96,2,75,0|8|0,0:0|0:0|0:0,0:0:0:0:
151,199,71708,1,8,0:0:0:0:
151,199,71882,1,0,0:0:0:0:
228,268,72057,6,0,P|288:284|368:248,1,150,4|2,0:0|0:0,0:0:0:0:
400,156,72580,1,0,0:0:0:0:
372,64,72754,2,0,P|336:40|292:40,1,75,4|0,0:0|0:0,0:0:0:0:
212,68,73103,1,2,0:0:0:0:
212,68,73278,1,0,0:0:0:0:
120,40,73452,6,0,P|83:44|56:68,1,75,4|0,0:0|0:0,0:0:0:0:
136,200,73801,2,0,P|180:188|200:164,1,75,4|0,0:0|0:0,0:0:0:0:
24,156,74150,2,0,P|20:212|60:308,1,150,4|4,0:0|0:0,0:0:0:0:
244,328,74847,6,0,P|284:288|392:292,1,150,0|8,0:0|0:0,0:0:0:0:
452,344,75371,2,0,P|424:300|424:200,1,150,0|0,0:0|0:0,0:0:0:0:
436,108,75894,1,8,0:0:0:0:
360,48,76068,1,0,0:0:0:0:
360,48,76156,1,0,0:0:0:0:
360,48,76243,6,0,P|288:24|200:44,1,150,0|8,0:0|0:0,0:0:0:0:
128,80,76766,1,0,0:0:0:0:
76,164,76940,2,0,P|56:216|32:236,2,75,8|0|8,0:0|0:0|0:0,0:0:0:0:
172,176,77464,1,8,0:0:0:0:
172,176,77551,1,0,0:0:0:0:
172,176,77638,6,0,P|236:204|312:188,1,150,0|8,0:0|0:0,0:0:0:0:
380,116,78161,2,0,P|352:172|364:260,1,150,0|0,0:0|0:0,0:0:0:0:
396,348,78685,1,8,0:0:0:0:
300,332,78859,1,0,0:0:0:0:
300,332,78946,1,0,0:0:0:0:
300,332,79033,6,0,P|256:296|160:288,1,150,0|8,0:0|0:0,0:0:0:0:
108,364,79557,2,0,P|124:296|96:204,1,150,0|8,0:0|0:0,0:0:0:0:
96,124,80080,2,0,L|16:108,1,75,8|0,0:0|0:0,0:0:0:0:
184,172,80429,6,0,L|288:164,1,75,4|0,0:0|0:0,0:0:0:0:
352,280,80778,2,0,L|268:272,1,75,8|0,0:0|0:0,0:0:0:0:
360,172,81126,2,0,L|440:180,1,75,8|0,0:0|0:0,0:0:0:0:
312,84,81475,2,0,L|224:72,1,75,8|0,0:0|0:0,0:0:0:0:
140,92,81824,6,0,P|120:144|140:244,1,150,8|8,0:0|0:0,0:0:0:0:
188,316,82347,1,0,0:0:0:0:
284,324,82522,1,8,0:0:0:0:
284,324,82696,1,0,0:0:0:0:
348,252,82871,1,8,0:0:0:0:
348,252,83045,1,8,0:0:0:0:
356,216,83394,6,0,L|372:116,2,75,8|8|0,0:0|0:0|0:0,0:0:0:0:
240,208,83917,2,0,L|224:128,1,75,8|8,0:0|0:0,0:0:0:0:
224,136,84440,2,0,P|148:132|80:188,1,150,4|0,2:0|0:0,0:0:0:0:
76,268,84964,2,0,L|84:316,2,37.5,8|0|0,0:0|0:0|0:0,0:0:0:0:
172,288,85312,2,0,L|184:348,2,37.5,8|0|0,0:0|0:0|0:0,0:0:0:0:
264,296,85661,2,0,L|280:356,2,37.5,0|0|0,0:0|0:0|0:0,0:0:0:0:
264,296,86359,5,4,0:0:0:0:
256,192,86446,12,0,88801,0:0:0:0:
