osu file format v14

[General]
AudioFilename: OSOMATSU-SAN OP- OP.mp3
AudioLeadIn: 0
PreviewTime: 38724
Countdown: 1
SampleSet: Soft
StackLeniency: 0.7
Mode: 0
LetterboxInBreaks: 0
WidescreenStoryboard: 1

[Editor]
Bookmarks: 26864
DistanceSpacing: 0.6
BeatDivisor: 4
GridSize: 8
TimelineZoom: 1.5

[Metadata]
Title:Hanamaru Pippi wa Yoiko Dake
TitleUnicode:はなまる ピッピ わ 良い子 だけ
Artist:AOP
ArtistUnicode:AOP
Creator:LanJay
Version:Dasu~
Source:おそ松さん
Tags:osomatsu san op aop hanamaru pippi wa yoiko dake jyushimatsu choromatsu karamastsu todomatsu ichimatsu
BeatmapID:837838
BeatmapSetID:382940

[Difficulty]
HPDrainRate:5
CircleSize:4
OverallDifficulty:6
ApproachRate:8
SliderMultiplier:1.3
SliderTickRate:1

[Events]
//Background and Video events
0,0,"tumblr_nr43lbJTuj1qfatano1_500.png",0,0
Video,0,"195949966_mp4_h264_aac_hd.mp4"
//Break Periods
//Storyboard Layer 0 (Background)
//Storyboard Layer 1 (Fail)
//Storyboard Layer 2 (Pass)
//Storyboard Layer 3 (Foreground)
//Storyboard Sound Samples

[TimingPoints]
526,348.837209302326,4,2,0,100,1,0
1311,-66.6666666666667,4,2,0,100,0,0
4364,-100,4,2,0,100,0,0
7852,-66.6666666666667,4,2,0,100,0,0
10469,-100,4,2,0,100,0,0
16748,-66.6666666666667,4,2,0,100,0,0
17009,-100,4,2,0,100,0,0
19189,-66.6666666666667,4,2,0,100,0,0
21980,-200,4,2,0,100,0,0
24945,-100,4,2,0,100,0,0
28957,-55.5555555555556,4,2,0,100,0,0
35759,-100,4,2,0,100,0,0
37591,-55.5555555555556,4,2,0,100,0,0
38724,-55.5555555555556,4,2,0,100,0,1
48841,-66.6666666666667,4,2,0,100,0,1
49886,-55.5555555555556,4,2,0,100,0,1
50934,-100,4,2,0,100,0,1
54596,-133.333333333333,4,2,0,100,0,1
56864,-100,4,2,0,100,0,1
60875,-83.3333333333333,4,2,0,100,0,1
63841,-83.3333333333333,4,2,0,100,0,1
65236,-200,4,2,0,100,0,1
66631,-66.6666666666667,4,2,0,100,0,1
67852,-100,4,2,0,100,0,1
68724,-66.6666666666667,4,2,0,100,0,1
74829,-100,4,2,0,100,0,0

[HitObjects]
248,134,526,2,0,L|192:96,2,65
152,180,1049,2,0,P|168:260|232:276,1,130
366,284,1572,5,0,0:0:0:0:
366,284,1659,1,0,0:0:0:0:
366,284,1746,1,0,0:0:0:0:
302,164,1921,1,0,0:0:0:0:
302,164,2008,1,0,0:0:0:0:
302,164,2095,1,0,0:0:0:0:
230,56,2270,2,0,B|186:115|319:250|221:229,1,195.00000743866
176,288,2793,5,0,0:0:0:0:
272,304,2967,1,0,0:0:0:0:
176,288,3142,1,0,0:0:0:0:
272,304,3316,1,0,0:0:0:0:
176,288,3491,1,0,0:0:0:0:
272,304,3665,1,0,0:0:0:0:
336,256,3839,6,0,P|416:192|368:80,1,195.00000743866
336,64,4363,1,0,0:0:0:0:
320,64,4450,1,0,0:0:0:0:
304,64,4537,2,0,P|256:80|240:112,1,65
192,192,4886,5,0,0:0:0:0:
160,176,5060,2,0,P|81:159|40:199,1,130
32,224,5584,1,0,0:0:0:0:
55,250,5758,2,0,P|121:294|174:272,1,130
186,267,6281,1,0,0:0:0:0:
186,267,6369,1,0,0:0:0:0:
186,267,6456,1,0,0:0:0:0:
144,96,6630,6,0,P|188:88|192:110,1,65
224,128,6979,1,0,0:0:0:0:
256,96,7153,2,0,P|300:88|304:110,1,65
336,128,7502,1,0,0:0:0:0:
343,145,7589,1,0,0:0:0:0:
350,163,7677,1,0,0:0:0:0:
184,200,7851,6,0,L|217:225,2,32.5
272,272,8200,1,0,0:0:0:0:
336,232,8374,1,0,0:0:0:0:
336,304,8549,1,0,0:0:0:0:
400,264,8723,1,0,0:0:0:0:
400,336,8898,1,0,0:0:0:0:
464,296,9072,1,0,0:0:0:0:
464,296,9159,1,0,0:0:0:0:
464,296,9246,1,0,0:0:0:0:
246,249,9596,5,0,0:0:0:0:
229,140,9770,1,0,0:0:0:0:
307,218,9945,1,0,0:0:0:0:
198,201,10119,1,0,0:0:0:0:
297,150,10294,1,0,0:0:0:0:
256,192,10642,12,8,11863,0:0:0:0:
128,256,12212,5,0,0:0:0:0:
80,184,12386,1,0,0:0:0:0:
384,256,13607,5,0,0:0:0:0:
432,184,13781,1,0,0:0:0:0:
256,208,15002,5,0,0:0:0:0:
260,294,15176,1,0,0:0:0:0:
168,232,16398,6,0,L|224:176,1,65
272,120,16746,1,0,0:0:0:0:
272,120,16921,1,0,0:0:0:0:
352,224,17095,6,0,L|372:147,1,65
386,75,17443,1,0,0:0:0:0:
386,75,17618,1,0,0:0:0:0:
