osu file format v14

[General]
AudioFilename: audio.mp3
AudioLeadIn: 0
PreviewTime: 61843
Countdown: 0
SampleSet: Soft
StackLeniency: 0.7
Mode: 0
LetterboxInBreaks: 0
WidescreenStoryboard: 1

[Editor]
DistanceSpacing: 1
BeatDivisor: 3
GridSize: 8
TimelineZoom: 1

[Metadata]
Title:Oh Boy
TitleUnicode:Oh Boy
Artist:AOA
ArtistUnicode:AOA
Creator:TmacBoris
Version:Normal
Source:
Tags:에프엔씨엔터테인먼트 FNC Entertainment 에이오에이 Ji Min Cho A Yu Na You Kyung Hye Jeong Min A Seol Hyun Chan Mi 1st Album ANGEL`S KNOCK 지민 초아 유나 혜정 민아 설현 찬미 kpop 한승훈 이상호 InnoVator Han Seunghun Lee Sangho Öhrn Andreas Wahle Chris
BeatmapID:1401144
BeatmapSetID:631131

[Difficulty]
HPDrainRate:3
CircleSize:3.5
OverallDifficulty:4
ApproachRate:5
SliderMultiplier:1.4
SliderTickRate:1

[Events]
//Background and Video events
0,0,"aoa oh boy 1.png",0,0
//Break Periods
2,47042,53384
2,93010,94029
2,110914,117255
//Storyboard Layer 0 (Background)
//Storyboard Layer 1 (Fail)
//Storyboard Layer 2 (Pass)
//Storyboard Layer 3 (Foreground)
//Storyboard Sound Samples

[TimingPoints]
391,483.870967741935,4,2,0,80,1,0
61842,-100,4,1,0,90,0,1
92810,-100,4,2,0,80,0,0
125713,-100,4,1,0,90,0,1
156681,-100,4,2,0,70,0,0
176036,-100,4,1,0,90,0,1
207003,-100,4,2,0,80,0,0

[Colours]
Combo1 : 53,49,52
Combo2 : 255,128,192
Combo3 : 255,255,255
Combo4 : 242,24,57

[HitObjects]
65,295,2326,5,0,0:0:0:0:
205,295,2810,1,0,0:0:0:0:
344,289,3294,2,0,P|319:214|247:160,1,140
195,125,4100,5,0,0:0:0:0:
195,125,4261,1,0,0:0:0:0:
270,6,4745,1,0,0:0:0:0:
409,14,5229,2,0,B|392:105|322:135,1,140
467,176,6197,6,0,P|291:281|216:41,1,513.333333333333,4|4,3:3|3:3,3:3:0:0:
241,22,8132,6,0,P|288:31|299:86,1,93.3333333333333
304,116,8616,2,0,P|301:145|266:201,1,93.3333333333333
239,236,9100,1,0,0:0:0:0:
239,236,9261,1,0,0:0:0:0:
333,240,9584,2,0,P|317:290|271:324,1,93.3333333333333
243,330,10068,5,0,0:0:0:0:
102,333,10552,1,0,0:0:0:0:
182,218,11036,1,0,0:0:0:0:
182,218,11197,1,0,0:0:0:0:
88,215,11520,2,0,P|111:152|158:129,1,93.3333333333333
170,114,12003,1,0,0:0:0:0:
289,40,12487,1,0,0:0:0:0:
240,168,12971,2,0,P|224:216|240:256,2,93.3333333333333
336,160,13939,6,0,P|240:344|136:152,1,513.333333333333,4|4,3:3|3:3,3:3:0:0:
150,117,15874,6,0,P|182:70|267:63,1,140
356,63,16681,1,0,0:0:0:0:
356,63,16842,1,0,0:0:0:0:
480,112,17326,2,0,L|424:152,1,46.6666666666667
328,200,17810,6,0,P|360:256|354:336,1,140
221,291,18777,1,0,0:0:0:0:
88,344,19261,2,0,L|104:288,1,46.6666666666667
120,208,19745,5,0,0:0:0:0:
161,74,20229,1,0,0:0:0:0:
199,208,20713,1,0,0:0:0:0:
240,74,21197,1,0,0:0:0:0:
279,208,21681,2,0,B|310:153|329:78,2,140
232,288,22971,6,0,L|168:309,1,46.6666666666667
111,329,23455,1,0,0:0:0:0:
111,329,23616,1,0,0:0:0:0:
104,192,24100,5,0,0:0:0:0:
198,87,24584,2,0,P|242:152|239:228,1,140
248,352,25552,2,0,P|318:335|368:279,1,140
456,176,26520,1,0,0:0:0:0:
376,128,26842,5,0,0:0:0:0:
336,104,27003,2,0,P|279:105|230:150,1,93.3333333333333
221,162,27487,1,0,0:0:0:0:
344,232,27971,1,0,0:0:0:0:
408,112,28455,1,0,0:0:0:0:
264,112,28939,1,0,0:0:0:0:
168,208,29423,6,0,P|200:239|249:243,1,93.3333333333333
293,241,29907,1,0,0:0:0:0:
368,120,30390,1,0,0:0:0:0:
319,40,30713,1,0,0:0:0:0:
319,40,30874,1,0,0:0:0:0:
447,96,31358,6,0,P|386:205|284:99,1,280
240,2,32810,1,0,0:0:0:0:
102,29,33294,2,0,P|73:150|196:170,1,280
321,106,34745,6,0,P|371:84|423:162,1,140
465,271,35713,1,0,0:0:0:0:
359,178,36197,1,0,0:0:0:0:
404,314,36681,1,0,0:0:0:0:
300,219,37165,2,0,P|325:324|340:357,2,140
280,127,38455,2,0,P|245:140|219:201,1,93.3333333333333
172,268,39100,6,0,L|127:183,1,93.3333333333333
111,142,39584,1,0,0:0:0:0:
249,160,40068,2,0,L|204:75,1,93.3333333333333
188,34,40552,1,0,0:0:0:0:
328,36,41036,2,0,P|403:154|313:246,1,280
296,140,42487,6,0,P|239:100|210:31,1,140
348,8,43455,1,0,0:0:0:0:
482,47,43939,1,0,0:0:0:0:
347,83,44423,1,0,0:0:0:0:
213,43,44907,6,0,P|133:83|90:262,1,280
119,344,46197,1,0,0:0:0:0:
119,344,46358,1,0,0:0:0:0:
174,215,46842,1,0,0:0:0:0:
426,143,54584,5,0,0:0:0:0:
410,99,54745,1,0,0:0:0:0:
335,155,55068,1,0,0:0:0:0:
247,186,55390,1,0,0:0:0:0:
230,142,55552,1,0,0:0:0:0:
176,16,56036,5,0,0:0:0:0:
51,79,56520,1,0,0:0:0:0:
176,142,57003,1,0,0:0:0:0:
51,206,57487,1,0,0:0:0:0:
176,267,57971,2,0,P|127:318|122:385,1,140
262,378,58939,2,0,B|318:402|414:378|462:298|446:218,1,280
365,118,60390,6,0,P|221:126|229:334,1,373.333333333333,4|4,3:3|3:3,3:3:0:0:
394,282,62326,6,0,P|394:227|436:175,1,93.3333333333333
438,156,62810,2,0,B|485:133|485:69,1,93.3333333333333
466,37,63294,2,0,P|434:21|370:45,1,93.3333333333333
344,64,63778,1,0,0:0:0:0:
325,157,64100,5,0,0:0:0:0:
325,157,64261,1,0,0:0:0:0:
333,293,64745,1,0,0:0:0:0:
213,365,65229,2,0,P|141:357|149:277,1,140
133,205,66036,5,0,0:0:0:0:
136,158,66197,2,0,B|138:93|192:56|191:57,1,93.3333333333333
203,39,66681,2,0,B|244:13|297:47,1,93.3333333333333
329,70,67165,1,0,0:0:0:0:
387,143,67488,1,0,0:0:0:0:
387,143,67649,1,0,0:0:0:0:
389,237,67971,5,0,0:0:0:0:
389,237,68132,1,0,0:0:0:0:
293,133,68616,1,0,0:0:0:0:
325,269,69100,1,0,0:0:0:0:
229,261,69423,1,0,0:0:0:0:
229,261,69584,1,0,0:0:0:0:
93,293,70068,6,0,P|148:293|200:335,1,93.3333333333333
219,337,70552,2,0,B|242:384|306:384,1,93.3333333333333
337,364,71036,2,0,P|353:332|329:268,1,93.3333333333333
309,242,71520,1,0,0:0:0:0:
218,224,71842,5,0,0:0:0:0:
218,224,72003,1,0,0:0:0:0:
82,232,72487,1,0,0:0:0:0:
77,93,72971,2,0,P|85:21|165:29,1,140
237,13,73778,5,0,0:0:0:0:
284,16,73939,2,0,B|349:18|386:72|385:71,1,93.3333333333333
403,83,74423,2,0,B|429:124|395:177,1,93.3333333333333
380,214,74907,2,0,P|336:263|256:255,1,140
176,263,75713,5,0,0:0:0:0:
176,263,75874,1,0,0:0:0:0:
280,167,76358,1,0,0:0:0:0:
352,47,76842,2,0,P|264:47|224:87,1,140
128,183,77810,6,0,P|96:215|88:279,1,93.3333333333333
88,311,78294,2,0,B|100:361|160:359,1,93.3333333333333
208,359,78778,2,0,P|248:367|344:327,1,140
328,231,79745,5,0,0:0:0:0:
192,231,80229,1,0,0:0:0:0:
192,95,80713,2,0,P|264:87|328:127,1,140
354,235,81681,6,0,B|352:300|298:337|299:336,1,93.3333333333333
277,342,82165,2,0,B|210:343|144:287,1,140
80,169,83133,1,0,0:0:0:0:
193,171,83616,5,0,0:0:0:0:
289,275,84100,1,0,0:0:0:0:
257,139,84584,1,0,0:0:0:0:
353,139,84907,1,0,0:0:0:0:
353,139,85068,1,0,0:0:0:0:
473,67,85552,6,0,P|433:43|377:27,1,93.3333333333333
345,21,86036,2,0,B|297:21|249:53,1,93.3333333333333
217,67,86520,2,0,P|185:107|185:147,1,93.3333333333333
190,193,87004,1,0,0:0:0:0:
249,259,87326,5,0,0:0:0:0:
249,259,87487,1,0,0:0:0:0:
385,267,87971,1,0,0:0:0:0:
390,128,88455,2,0,P|382:56|302:64,1,140
233,51,89262,5,0,0:0:0:0:
185,59,89423,2,0,B|120:61|83:115|84:114,1,93.3333333333333
66,126,89907,2,0,B|40:167|74:220,1,93.3333333333333
97,252,90391,1,0,0:0:0:0:
170,310,90714,1,0,0:0:0:0:
170,310,90875,1,0,0:0:0:0:
265,299,91197,5,0,0:0:0:0:
265,299,91358,1,0,0:0:0:0:
161,203,91842,1,0,0:0:0:0:
297,235,92326,1,0,0:0:0:0:
289,139,92649,1,0,0:0:0:0:
289,139,92810,1,0,0:0:0:0:
394,55,95229,6,0,B|268:192|108:66|32:231,1,420
167,269,97165,6,0,P|225:232|313:250,2,140
280,352,98617,6,0,P|330:374|382:296,1,140
424,187,99585,1,0,0:0:0:0:
318,280,100069,1,0,0:0:0:0:
357,146,100553,1,0,0:0:0:0:
253,241,101037,2,0,P|278:136|293:103,2,140
226,330,102327,2,0,P|191:317|165:256,1,93.3333333333333
160,176,102972,6,0,L|205:91,1,93.3333333333333
221,50,103456,1,0,0:0:0:0:
288,176,103940,2,0,L|333:91,1,93.3333333333333
349,50,104424,1,0,0:0:0:0:
464,128,104908,2,0,P|545:229|469:336,1,280
328,344,106359,6,0,P|271:304|242:235,1,140
240,104,107327,1,0,0:0:0:0:
374,65,107811,1,0,0:0:0:0:
239,29,108295,1,0,0:0:0:0:
96,32,108778,6,0,P|32:96|112:256,1,280
192,256,110069,5,0,0:0:0:0:
192,256,110230,1,0,0:0:0:0:
192,112,110714,1,0,0:0:0:0:
416,200,118455,5,0,0:0:0:0:
400,240,118616,1,0,0:0:0:0:
328,192,118939,1,0,0:0:0:0:
248,160,119261,1,0,0:0:0:0:
232,200,119423,1,0,0:0:0:0:
171,374,119907,5,0,0:0:0:0:
46,311,120391,1,0,0:0:0:0:
171,248,120874,1,0,0:0:0:0:
46,184,121358,1,0,0:0:0:0:
171,123,121842,2,0,P|122:72|117:5,1,140
257,12,122810,2,0,B|313:-12|409:12|457:92|441:172,1,280
360,272,124261,6,0,P|216:264|224:56,1,373.333333333333,4|4,3:3|3:3,3:3:0:0:
91,218,126197,6,0,P|91:163|49:111,1,93.3333333333333
53,88,126681,2,0,B|57:45|118:19,1,93.3333333333333
158,13,127165,2,0,P|190:-3|254:21,1,93.3333333333333
287,26,127649,1,0,0:0:0:0:
248,110,127971,5,0,0:0:0:0:
248,110,128132,1,0,0:0:0:0:
203,242,128616,1,0,0:0:0:0:
282,357,129100,2,0,P|347:365|369:288,1,140
379,206,129907,5,0,0:0:0:0:
376,159,130068,2,0,B|374:94|320:57|321:58,1,93.3333333333333
309,40,130552,2,0,B|268:14|215:48,1,93.3333333333333
183,71,131036,1,0,0:0:0:0:
125,144,131359,1,0,0:0:0:0:
125,144,131520,1,0,0:0:0:0:
123,238,131842,5,0,0:0:0:0:
123,238,132003,1,0,0:0:0:0:
219,134,132487,1,0,0:0:0:0:
187,270,132971,1,0,0:0:0:0:
283,262,133294,1,0,0:0:0:0:
283,262,133455,1,0,0:0:0:0:
419,294,133939,6,0,P|364:294|312:336,1,93.3333333333333
293,338,134423,2,0,B|270:385|206:385,1,93.3333333333333
175,365,134907,2,0,P|159:333|183:269,1,93.3333333333333
203,243,135391,1,0,0:0:0:0:
294,225,135713,5,0,0:0:0:0:
294,225,135874,1,0,0:0:0:0:
430,233,136358,1,0,0:0:0:0:
435,94,136842,2,0,P|427:22|347:30,1,140
275,14,137649,5,0,0:0:0:0:
228,17,137810,2,0,B|163:19|126:73|127:72,1,93.3333333333333
109,84,138294,2,0,B|83:125|117:178,1,93.3333333333333
130,215,138778,2,0,P|176:264|256:256,1,140
336,264,139584,5,0,0:0:0:0:
336,264,139745,1,0,0:0:0:0:
232,168,140229,1,0,0:0:0:0:
160,48,140713,2,0,P|248:48|288:88,1,140
384,184,141681,6,0,P|416:216|424:280,1,93.3333333333333
424,312,142165,2,0,B|412:362|352:360,1,93.3333333333333
304,360,142649,2,0,P|264:368|168:328,1,140
184,232,143616,5,0,0:0:0:0:
320,232,144100,1,0,0:0:0:0:
320,96,144584,2,0,P|248:88|184:128,1,140
158,236,145552,6,0,B|160:301|214:338|213:337,1,93.3333333333333
225,355,146036,2,0,B|266:381|357:302,1,140
448,224,147004,1,0,0:0:0:0:
319,172,147487,5,0,0:0:0:0:
223,276,147971,1,0,0:0:0:0:
255,140,148455,1,0,0:0:0:0:
159,140,148778,1,0,0:0:0:0:
159,140,148939,1,0,0:0:0:0:
39,68,149423,6,0,P|79:44|135:28,1,93.3333333333333
167,22,149907,2,0,B|215:22|263:54,1,93.3333333333333
295,68,150391,2,0,P|327:108|327:148,1,93.3333333333333
322,194,150875,1,0,0:0:0:0:
263,260,151197,5,0,0:0:0:0:
263,260,151358,1,0,0:0:0:0:
127,268,151842,1,0,0:0:0:0:
122,129,152326,2,0,P|130:57|210:65,1,140
279,52,153133,5,0,0:0:0:0:
327,60,153294,2,0,B|392:62|429:116|428:115,1,93.3333333333333
446,127,153778,2,0,B|472:168|438:221,1,93.3333333333333
415,253,154262,1,0,0:0:0:0:
342,311,154585,1,0,0:0:0:0:
342,311,154746,1,0,0:0:0:0:
247,300,155068,5,0,0:0:0:0:
247,300,155229,1,0,0:0:0:0:
351,204,155713,1,0,0:0:0:0:
215,236,156197,5,0,0:0:0:0:
223,140,156520,1,0,0:0:0:0:
223,140,156681,1,0,0:0:0:0:
304,56,157165,5,0,0:0:0:0:
444,56,157649,2,0,P|484:88|501:156,1,93.3333333333333
507,171,158132,2,0,P|503:232|474:267,1,93.3333333333333
312,320,159100,5,0,0:0:0:0:
171,316,159584,2,0,P|132:282|115:212,1,93.3333333333333
108,198,160068,2,0,P|112:137|141:102,1,93.3333333333333
296,48,161036,5,0,0:0:0:0:
436,46,161520,2,0,P|476:78|494:145,1,93.3333333333333
497,162,162003,2,0,P|493:223|464:258,1,93.3333333333333
312,304,162971,5,0,0:0:0:0:
172,287,163455,2,0,B|155:116|248:173|249:18,1,280
392,32,164907,2,0,B|496:54|496:112|496:112|480:120|480:120|496:128|496:128|480:136|480:136|496:144|496:144|480:152|480:152|496:160|496:160|480:168|480:168|484:205,1,280
288,368,166842,5,0,0:0:0:0:
147,368,167326,2,0,P|107:336|93:274,1,93.3333333333333
86,251,167810,2,0,P|90:190|119:155,1,93.3333333333333
247,53,168777,5,0,0:0:0:0:
386,47,169261,2,0,P|426:79|439:144,1,93.3333333333333
444,164,169745,2,0,P|440:225|411:260,1,93.3333333333333
261,314,170713,5,0,0:0:0:0:
120,316,171197,2,0,P|80:284|72:222,1,93.3333333333333
61,198,171681,2,0,P|65:137|94:102,1,93.3333333333333
116,79,172165,2,0,P|161:55|220:68,1,93.3333333333333
365,266,174584,6,0,P|221:258|229:50,1,373.333333333333,4|4,3:3|3:3,3:3:0:0:
394,102,176520,6,0,P|394:157|436:209,1,93.3333333333333
438,228,177004,2,0,B|485:251|485:315,1,93.3333333333333
466,347,177488,2,0,P|434:363|370:339,1,93.3333333333333
344,320,177972,1,0,0:0:0:0:
325,227,178294,5,0,0:0:0:0:
325,227,178455,1,0,0:0:0:0:
333,91,178939,1,0,0:0:0:0:
213,19,179423,2,0,P|141:27|149:107,1,140
133,179,180230,5,0,0:0:0:0:
136,226,180391,2,0,B|138:291|192:328|191:327,1,93.3333333333333
203,345,180875,2,0,B|244:371|297:337,1,93.3333333333333
329,314,181359,1,0,0:0:0:0:
387,241,181682,1,0,0:0:0:0:
387,241,181843,1,0,0:0:0:0:
389,147,182165,5,0,0:0:0:0:
389,147,182326,1,0,0:0:0:0:
293,251,182810,1,0,0:0:0:0:
325,115,183294,1,0,0:0:0:0:
229,123,183617,1,0,0:0:0:0:
229,123,183778,1,0,0:0:0:0:
93,91,184262,6,0,P|148:91|200:49,1,93.3333333333333
219,47,184746,2,0,B|242:0|306:0,1,93.3333333333333
337,20,185230,2,0,P|353:52|329:116,1,93.3333333333333
309,142,185714,1,0,0:0:0:0:
218,160,186036,5,0,0:0:0:0:
218,160,186197,1,0,0:0:0:0:
82,152,186681,1,0,0:0:0:0:
77,291,187165,2,0,P|85:363|165:355,1,140
237,371,187972,5,0,0:0:0:0:
284,368,188133,2,0,B|349:366|386:312|385:313,1,93.3333333333333
403,301,188617,2,0,B|429:260|395:207,1,93.3333333333333
380,169,189101,2,0,P|336:121|256:129,1,140
176,121,189907,5,0,0:0:0:0:
176,121,190068,1,0,0:0:0:0:
280,217,190552,1,0,0:0:0:0:
352,337,191036,2,0,P|264:337|224:297,1,140
128,201,192004,6,0,P|96:169|88:105,1,93.3333333333333
88,73,192488,2,0,B|100:23|160:25,1,93.3333333333333
208,25,192972,2,0,P|248:17|344:57,1,140
328,153,193939,5,0,0:0:0:0:
192,153,194423,1,0,0:0:0:0:
192,289,194907,2,0,P|264:297|328:257,1,140
354,149,195875,6,0,B|352:84|298:47|299:48,1,93.3333333333333
271,63,196359,2,0,B|196:66|139:115,1,140
44,212,197327,1,0,0:0:0:0:
193,213,197810,5,0,0:0:0:0:
289,109,198294,1,0,0:0:0:0:
257,245,198778,1,0,0:0:0:0:
353,245,199101,1,0,0:0:0:0:
353,245,199262,1,0,0:0:0:0:
473,317,199746,6,0,P|433:341|377:357,1,93.3333333333333
345,363,200230,2,0,B|297:363|249:331,1,93.3333333333333
217,317,200714,2,0,P|185:277|185:237,1,93.3333333333333
190,191,201198,1,0,0:0:0:0:
249,125,201520,5,0,0:0:0:0:
249,125,201681,1,0,0:0:0:0:
385,117,202165,1,0,0:0:0:0:
390,256,202649,2,0,P|382:328|302:320,1,140
233,333,203456,5,0,0:0:0:0:
185,325,203617,2,0,B|120:323|83:269|84:270,1,93.3333333333333
66,258,204101,2,0,B|40:217|74:164,1,93.3333333333333
97,132,204585,1,0,0:0:0:0:
170,74,204908,1,0,0:0:0:0:
170,74,205069,1,0,0:0:0:0:
265,85,205391,5,0,0:0:0:0:
265,85,205552,1,0,0:0:0:0:
161,181,206036,1,0,0:0:0:0:
297,149,206520,1,0,0:0:0:0:
289,245,206843,1,0,0:0:0:0:
289,245,207004,1,0,0:0:0:0:
