osu file format v14

[General]
AudioFilename: audio.mp3
AudioLeadIn: 0
PreviewTime: 61843
Countdown: 0
SampleSet: Normal
StackLeniency: 0.7
Mode: 0
LetterboxInBreaks: 0
WidescreenStoryboard: 1

[Editor]
DistanceSpacing: 1.6
BeatDivisor: 3
GridSize: 8
TimelineZoom: 1.4

[Metadata]
Title:Oh Boy
TitleUnicode:Oh Boy
Artist:AOA
ArtistUnicode:AOA
Creator:TmacBoris
Version:Insane test
Source:
Tags:에프엔씨엔터테인먼트 FNC Entertainment 에이오에이 Ji Min Cho A Yu Na You Kyung Hye Jeong Min A Seol Hyun Chan Mi 1st Album ANGEL`S KNOCK 지민 초아 유나 혜정 민아 설현 찬미 kpop 한승훈 이상호 InnoVator Han Seunghun Lee Sangho Öhrn Andreas Wahle Chris
BeatmapID:1489498
BeatmapSetID:631131

[Difficulty]
HPDrainRate:6
CircleSize:4.5
OverallDifficulty:7
ApproachRate:9
SliderMultiplier:2
SliderTickRate:1

[Events]
//Background and Video events
0,0,"aoa oh boy 1.png",0,0
//Break Periods
2,47042,49629
2,50913,53984
//Storyboard Layer 0 (Background)
//Storyboard Layer 1 (Fail)
//Storyboard Layer 2 (Pass)
//Storyboard Layer 3 (Foreground)
//Storyboard Sound Samples

[TimingPoints]
391,483.870967741935,4,1,0,100,1,0
19745,-133.333333333333,4,1,0,100,0,0
21681,-100,4,1,0,100,0,0
62326,-100,4,1,0,100,0,1
92810,-100,4,1,0,100,0,0
176520,-100,4,1,0,100,0,1
207003,-100,4,1,0,100,0,0

[Colours]
Combo1 : 80,72,85
Combo2 : 255,128,192
Combo3 : 255,255,255
Combo4 : 242,24,57

[HitObjects]
160,112,2326,6,0,P|208:96|240:96,1,66.6666666666667
424,176,2810,2,0,P|392:248|384:256,1,66.6666666666667
192,184,3294,5,0,0:0:0:0:
280,120,3455,1,0,0:0:0:0:
184,80,3616,1,0,0:0:0:0:
184,80,3778,1,0,0:0:0:0:
184,80,3939,1,0,0:0:0:0:
96,128,4100,1,0,0:0:0:0:
96,232,4261,2,0,P|88:288|104:312,1,66.6666666666667
272,176,4745,6,0,P|264:128|272:96,1,66.6666666666667
368,64,5068,1,0,0:0:0:0:
472,40,5229,2,0,P|480:96|464:128,1,66.6666666666667
448,208,5552,1,0,0:0:0:0:
448,208,5713,1,0,0:0:0:0:
224,120,6197,5,0,0:0:0:0:
112,55,6359,1,0,0:0:0:0:
200,143,6520,1,0,0:0:0:0:
136,32,6681,1,0,0:0:0:0:
168,152,6843,1,0,0:0:0:0:
168,23,7004,1,0,0:0:0:0:
136,143,7165,1,0,0:0:0:0:
200,32,7326,1,0,0:0:0:0:
112,120,7488,1,0,0:0:0:0:
224,55,7649,1,0,0:0:0:0:
103,87,7810,1,0,0:0:0:0:
232,87,7972,1,0,0:0:0:0:
328,88,8132,6,0,P|382:128|385:198,1,133.333333333333
392,296,8616,2,0,P|352:350|282:353,1,133.333333333333
192,320,9100,2,0,P|152:328|128:352,2,66.6666666666667
264,240,9584,2,0,P|256:200|232:184,1,66.6666666666667
136,144,9907,1,0,0:0:0:0:
128,248,10068,2,0,P|96:304|32:264,1,133.333333333333
32,168,10552,6,0,P|26:124|42:100,1,66.6666666666667
136,80,10874,1,0,0:0:0:0:
240,72,11036,2,0,P|320:96|336:168,1,133.333333333333
368,232,11520,1,0,0:0:0:0:
240,326,11842,5,0,0:0:0:0:
152,270,12003,2,0,B|112:310|136:358|136:358,1,66.6666666666667
176,126,12487,2,0,P|152:86|120:78,1,66.6666666666667
336,134,12971,2,0,P|352:78|384:62,1,66.6666666666667
256,70,13294,1,0,0:0:0:0:
256,174,13455,2,0,L|256:246,1,66.6666666666667
256,342,13778,1,0,0:0:0:0:
176,304,13939,5,0,0:0:0:0:
64,239,14101,1,0,0:0:0:0:
152,327,14262,1,0,0:0:0:0:
88,216,14423,1,0,0:0:0:0:
120,336,14585,1,0,0:0:0:0:
120,207,14746,1,0,0:0:0:0:
88,327,14907,1,0,0:0:0:0:
152,216,15068,1,0,0:0:0:0:
64,304,15230,1,0,0:0:0:0:
176,239,15391,1,0,0:0:0:0:
55,271,15552,1,0,0:0:0:0:
184,271,15714,1,0,0:0:0:0:
272,240,15874,5,0,0:0:0:0:
272,240,16197,1,0,0:0:0:0:
272,144,16358,1,0,0:0:0:0:
136,72,16681,5,0,0:0:0:0:
104,144,16842,1,0,0:0:0:0:
272,160,17165,5,0,0:0:0:0:
296,72,17326,2,0,L|368:80,1,66.6666666666667
408,160,17649,1,0,0:0:0:0:
408,248,17810,1,0,0:0:0:0:
224,328,18132,5,0,0:0:0:0:
160,264,18294,1,0,0:0:0:0:
160,88,18616,1,0,0:0:0:0:
232,32,18778,1,0,0:0:0:0:
332,153,19100,5,0,0:0:0:0:
332,62,19261,2,0,P|384:26|429:66,1,133.333333333333
434,153,19745,2,0,L|435:211,1,50.0000019073487
435,283,20068,5,0,0:0:0:0:
355,285,20229,2,0,L|281:286,1,50.0000019073487
224,289,20552,1,0,0:0:0:0:
144,291,20713,2,0,L|143:229,1,50.0000019073487
139,160,21036,6,0,L|78:134,2,50.0000019073487
216,195,21520,1,0,0:0:0:0:
232,112,21681,6,0,L|160:72,1,66.6666666666667
272,24,22003,1,0,0:0:0:0:
368,80,22165,2,0,L|304:120,1,66.6666666666667
272,216,22487,1,0,0:0:0:0:
376,248,22649,2,0,L|312:288,1,66.6666666666667
272,376,22971,1,0,0:0:0:0:
200,296,23132,2,0,L|144:248,2,66.6666666666667
112,368,23616,2,0,P|56:344|32:256,1,133.333333333333
28,173,24100,6,0,P|61:146|83:140,1,66.6666666666667
189,118,24423,1,0,0:0:0:0:
200,223,24584,2,0,P|187:264|173:281,1,66.6666666666667
100,360,24907,1,0,0:0:0:0:
88,256,25068,2,0,P|100:214|114:197,1,66.6666666666667
189,118,25391,1,0,0:0:0:0:
266,191,25552,2,0,P|279:231|277:254,1,66.6666666666667
263,360,25875,1,0,0:0:0:0:
185,289,26036,2,0,P|171:248|173:225,1,66.6666666666667
189,118,26359,1,0,0:0:0:0:
295,121,26520,2,0,P|332:134|363:158,1,66.6666666666667
429,225,26842,5,0,0:0:0:0:
351,298,27003,2,0,P|364:334|402:365,2,66.6666666666667
255,249,27487,2,0,P|188:234|143:169,1,133.333333333333
148,78,27971,2,0,P|187:28|256:35,1,133.333333333333
353,32,28455,2,0,P|377:32|416:69,1,66.6666666666667
446,157,28778,1,0,0:0:0:0:
340,142,28939,1,0,0:0:0:0:
452,307,29261,5,0,0:0:0:0:
452,307,29423,2,0,P|373:293|313:313,1,133.333333333333
225,328,29907,2,0,P|177:336|155:316,1,66.6666666666667
79,275,30229,1,0,0:0:0:0:
44,181,30390,2,0,P|27:141|41:112,1,66.6666666666667
107,44,30713,1,0,0:0:0:0:
208,77,30874,2,0,P|208:117|184:157,1,66.6666666666667
157,240,31197,1,0,0:0:0:0:
248,192,31358,5,0,0:0:0:0:
304,160,31520,1,0,0:0:0:0:
368,160,31681,1,0,0:0:0:0:
384,232,31842,5,0,0:0:0:0:
376,296,32003,1,0,0:0:0:0:
328,336,32165,1,0,0:0:0:0:
248,336,32326,5,0,0:0:0:0:
256,272,32487,1,0,0:0:0:0:
296,224,32649,1,0,0:0:0:0:
384,232,32810,6,0,L|384:160,1,66.6666666666667
256,24,33294,1,0,0:0:0:0:
80,40,33616,1,0,0:0:0:0:
32,120,33778,1,0,0:0:0:0:
72,304,34100,5,0,0:0:0:0:
152,352,34261,1,0,0:0:0:0:
240,328,34423,1,0,0:0:0:0:
240,328,34584,1,0,0:0:0:0:
200,248,34745,2,0,P|200:200|232:176,2,66.6666666666667
104,222,35229,6,0,L|116:151,1,66.6666666666667
130,72,35552,1,0,0:0:0:0:
216,72,35713,2,0,L|202:150,1,66.6666666666667
184,224,36036,1,0,0:0:0:0:
272,224,36197,2,0,L|284:153,1,66.6666666666667
304,72,36520,1,0,0:0:0:0:
392,72,36681,2,0,L|378:150,1,66.6666666666667
360,224,37003,1,0,0:0:0:0:
384,336,37165,6,0,P|352:344|320:336,1,66.6666666666667
224,336,37487,1,0,0:0:0:0:
288,264,37649,2,0,P|256:272|224:264,1,66.6666666666667
136,264,37971,1,0,0:0:0:0:
200,192,38132,2,0,P|168:200|136:192,1,66.6666666666667
48,192,38455,6,0,L|48:120,2,66.6666666666667
48,288,38939,2,0,L|48:360,2,66.6666666666667
144,288,39423,5,0,0:0:0:0:
240,288,39584,2,0,P|240:256|192:224,1,66.6666666666667
144,176,39907,1,0,0:0:0:0:
144,80,40068,2,0,P|176:80|224:112,1,66.6666666666667
288,152,40390,1,0,0:0:0:0:
388,152,40552,2,0,P|388:176|364:216,1,66.6666666666667
293,279,40874,1,0,0:0:0:0:
376,346,41036,6,0,P|376:266|376:266,2,66.6666666666667
280,346,41520,2,0,L|280:279,1,66.6666666666667
280,186,41842,1,0,0:0:0:0:
192,186,42003,2,0,L|192:274,1,66.6666666666667
192,346,42326,1,0,0:0:0:0:
112,264,42487,6,0,L|112:192,1,66.6666666666667
112,104,42810,2,0,L|64:56,2,66.6666666666667
208,104,43294,1,0,0:0:0:0:
152,32,43455,6,0,L|224:32,1,66.6666666666667
312,32,43778,1,0,0:0:0:0:
240,96,43939,2,0,L|320:96,1,66.6666666666667
400,96,44261,1,0,0:0:0:0:
328,160,44423,2,0,L|416:160,1,66.6666666666667
488,160,44745,1,0,0:0:0:0:
488,88,44907,6,0,P|464:56|368:32,1,133.333333333333
280,32,45390,2,0,P|208:96|208:176,1,133.333333333333
200,224,45874,2,0,P|232:208|272:208,2,66.6666666666667
200,320,46358,1,0,0:0:0:0:
284,275,46520,1,0,0:0:0:0:
284,369,46681,1,0,0:0:0:0:
200,320,46842,1,0,0:0:0:0:
256,192,50229,5,0,0:0:0:0:
256,192,50713,1,0,0:0:0:0:
172,35,54584,37,0,0:0:0:0:
244,235,54907,1,0,0:0:0:0:
148,267,55068,1,0,0:0:0:0:
352,327,55390,1,0,0:0:0:0:
425,249,55552,6,0,P|449:217|433:177,1,66.6666666666667
338,198,55874,1,0,0:0:0:0:
383,100,56036,2,0,P|359:60|311:44,1,66.6666666666667
247,98,56358,1,0,0:0:0:0:
151,48,56520,2,0,P|119:56|95:96,1,66.6666666666667
96,184,56842,1,0,0:0:0:0:
112,296,57003,2,0,P|144:296|176:272,1,66.6666666666667
256,224,57326,1,0,0:0:0:0:
352,168,57487,2,0,P|384:128|376:96,1,66.6666666666667
336,24,57810,1,0,0:0:0:0:
232,24,57971,6,0,L|232:96,2,66.6666666666667
120,32,58455,2,0,P|88:40|72:80,1,66.6666666666667
72,176,58778,1,0,0:0:0:0:
72,288,58939,2,0,P|96:304|136:288,1,66.6666666666667
208,224,59261,1,0,0:0:0:0:
120,160,59423,1,0,0:0:0:0:
280,32,59745,1,0,0:0:0:0:
360,96,59907,2,0,L|440:80,1,66.6666666666667
456,184,60229,1,0,0:0:0:0:
384,256,60390,5,0,0:0:0:0:
259,306,60552,1,0,0:0:0:0:
393,302,60713,1,0,0:0:0:0:
264,260,60874,1,0,0:0:0:0:
371,343,61036,1,0,0:0:0:0:
300,228,61197,1,0,0:0:0:0:
327,360,61358,1,0,0:0:0:0:
346,228,61519,1,0,0:0:0:0:
283,346,61681,1,0,0:0:0:0:
56,232,62326,6,0,P|56:160|88:104,1,133.333333333333
152,24,62810,2,0,B|208:64|184:144|184:152,1,133.333333333333
192,248,63294,2,0,P|272:232|320:184,1,133.333333333333
312,104,63778,6,0,P|320:72|352:48,1,66.6666666666667
432,112,64100,2,0,P|440:80|472:56,2,66.6666666666667
432,216,64584,1,0,0:0:0:0:
432,320,64745,2,0,P|336:304|328:264,1,133.333333333333
328,184,65229,2,0,P|304:160|304:120,1,66.6666666666667
232,40,65552,2,0,L|152:40,2,66.6666666666667
232,152,66036,5,0,0:0:0:0:
232,264,66197,2,0,L|232:336,1,66.6666666666667
128,328,66520,1,0,0:0:0:0:
128,216,66681,2,0,L|128:136,1,66.6666666666667
128,40,67003,1,0,0:0:0:0:
24,40,67165,2,0,L|24:120,1,66.6666666666667
24,208,67487,2,0,L|24:280,2,66.6666666666667
136,208,67971,5,0,0:0:0:0:
232,208,68132,2,0,L|328:208,1,66.6666666666667
296,112,68455,1,0,0:0:0:0:
200,112,68616,2,0,L|120:112,1,66.6666666666667
128,16,68939,1,0,0:0:0:0:
224,16,69100,2,0,L|304:16,1,66.6666666666667
392,16,69423,1,0,0:0:0:0:
392,16,69584,1,0,0:0:0:0:
464,184,69907,5,0,0:0:0:0:
464,288,70068,2,0,P|424:288|392:256,1,66.6666666666667
344,184,70390,1,0,0:0:0:0:
344,288,70552,2,0,P|304:288|280:264,1,66.6666666666667
224,184,70874,1,0,0:0:0:0:
224,288,71036,2,0,P|184:288|160:264,1,66.6666666666667
104,184,71358,1,0,0:0:0:0:
96,88,71520,6,0,P|96:64|128:32,1,66.6666666666667
224,32,71842,2,0,L|304:32,2,66.6666666666667
224,136,72326,1,0,0:0:0:0:
224,240,72487,2,0,P|224:272|256:304,1,66.6666666666667
344,296,72810,1,0,0:0:0:0:
344,200,72971,2,0,P|344:176|384:144,1,66.6666666666667
464,144,73294,6,0,L|464:72,2,66.6666666666667
464,248,73778,2,0,L|464:336,2,66.6666666666667
360,248,74261,1,0,0:0:0:0:
264,248,74422,2,0,L|184:248,1,66.6666666666667
104,248,74744,1,0,0:0:0:0:
104,352,74906,2,0,L|184:352,1,66.6666666666667
272,352,75229,2,0,L|352:352,2,66.6666666666667
272,264,75712,5,0,0:0:0:0:
272,168,75874,2,0,L|272:72,1,66.6666666666667
176,104,76196,1,0,0:0:0:0:
176,200,76358,2,0,L|176:280,1,66.6666666666667
80,272,76680,1,0,0:0:0:0:
80,176,76841,2,0,L|80:96,1,66.6666666666667
80,16,77164,1,0,0:0:0:0:
80,16,77325,1,0,0:0:0:0:
248,32,77649,5,0,0:0:0:0:
344,32,77810,2,0,L|416:32,1,66.6666666666667
408,120,78132,1,0,0:0:0:0:
312,120,78294,2,0,L|232:120,1,66.6666666666667
248,208,78616,1,0,0:0:0:0:
336,208,78778,2,0,L|408:208,1,66.6666666666667
496,208,79100,1,0,0:0:0:0:
496,208,79261,1,0,0:0:0:0:
488,40,79584,5,0,0:0:0:0:
384,40,79745,2,0,P|328:56|352:128,1,133.333333333333
432,152,80229,2,0,P|360:208|296:200,1,133.333333333333
216,192,80713,2,0,L|216:120,1,66.6666666666667
216,24,81036,2,0,P|280:24|288:24,2,66.6666666666667
104,24,81520,5,0,0:0:0:0:
104,128,81681,2,0,P|120:184|192:160,1,133.333333333333
224,88,82165,2,0,P|296:152|280:224,1,133.333333333333
256,280,82649,2,0,L|184:280,1,66.6666666666667
88,280,82972,2,0,P|88:216|88:208,2,66.6666666666667
88,368,83455,5,0,0:0:0:0:
184,368,83616,2,0,L|264:368,1,66.6666666666667
352,368,83939,1,0,0:0:0:0:
352,272,84100,2,0,L|280:272,1,66.6666666666667
184,272,84423,1,0,0:0:0:0:
88,272,84584,2,0,L|88:184,1,66.6666666666667
88,104,84907,1,0,0:0:0:0:
88,104,85068,1,0,0:0:0:0:
344,104,85390,5,0,0:0:0:0:
240,104,85552,2,0,P|184:144|176:216,1,133.333333333333
272,248,86036,2,0,P|285:184|339:147,1,133.333333333333
416,216,86520,2,0,P|360:256|352:328,1,133.333333333333
256,328,87003,6,0,L|184:328,1,66.6666666666667
88,328,87326,2,0,L|16:328,2,66.6666666666667
88,232,87810,1,0,0:0:0:0:
184,232,87971,2,0,L|264:232,1,66.6666666666667
344,232,88294,1,0,0:0:0:0:
440,232,88455,2,0,L|440:144,1,66.6666666666667
440,72,88778,2,0,L|440:0,2,66.6666666666667
344,72,89261,6,0,L|344:0,2,66.6666666666667
344,168,89745,1,0,0:0:0:0:
344,264,89907,2,0,L|344:336,1,66.6666666666667
248,328,90229,1,0,0:0:0:0:
248,232,90390,2,0,L|248:160,1,66.6666666666667
248,72,90713,1,0,0:0:0:0:
248,72,90874,1,0,0:0:0:0:
32,72,91197,5,0,0:0:0:0:
32,160,91358,2,0,L|32:256,1,66.6666666666667
120,224,91681,1,0,0:0:0:0:
120,136,91842,2,0,L|120:64,1,66.6666666666667
208,72,92165,1,0,0:0:0:0:
208,160,92326,2,0,L|208:232,1,66.6666666666667
208,312,92649,1,0,0:0:0:0:
208,312,92810,1,0,0:0:0:0:
256,192,93294,12,0,94745,0:0:0:0:
344,144,95229,5,0,0:0:0:0:
256,240,95390,1,0,0:0:0:0:
288,120,95552,1,0,0:0:0:0:
320,248,95713,1,0,0:0:0:0:
232,144,95874,1,0,0:0:0:0:
352,192,96036,1,0,0:0:0:0:
232,208,96197,1,0,0:0:0:0:
328,136,96358,1,0,0:0:0:0:
280,248,96520,1,0,0:0:0:0:
272,120,96681,1,0,0:0:0:0:
208,48,96842,6,0,B|184:56|160:88|160:88,1,66.6666666666667
136,160,97165,5,0,0:0:0:0:
48,256,97326,1,0,0:0:0:0:
80,136,97488,1,0,0:0:0:0:
112,264,97649,1,0,0:0:0:0:
24,160,97810,1,0,0:0:0:0:
144,208,97972,1,0,0:0:0:0:
24,224,98133,1,0,0:0:0:0:
120,152,98294,1,0,0:0:0:0:
72,264,98456,1,0,0:0:0:0:
64,136,98617,1,0,0:0:0:0:
56,48,98778,6,0,P|88:32|128:48,1,66.6666666666667
112,136,99100,2,0,L|112:208,1,66.6666666666667
112,296,99423,1,0,0:0:0:0:
200,296,99584,2,0,L|200:216,1,66.6666666666667
200,136,99907,1,0,0:0:0:0:
288,136,100068,2,0,L|288:208,1,66.6666666666667
288,296,100391,1,0,0:0:0:0:
376,296,100552,2,0,L|376:216,1,66.6666666666667
376,136,100874,1,0,0:0:0:0:
384,48,101036,6,0,P|352:40|320:48,1,66.6666666666667
224,48,101358,1,0,0:0:0:0:
288,120,101520,2,0,P|256:112|224:120,1,66.6666666666667
136,120,101842,1,0,0:0:0:0:
200,192,102003,2,0,P|168:184|136:192,1,66.6666666666667
48,192,102326,6,0,L|48:264,2,66.6666666666667
48,96,102810,2,0,L|48:24,2,66.6666666666667
144,96,103294,5,0,0:0:0:0:
240,96,103455,2,0,P|240:128|192:160,1,66.6666666666667
144,208,103778,1,0,0:0:0:0:
144,304,103939,2,0,P|176:304|224:272,1,66.6666666666667
288,232,104261,1,0,0:0:0:0:
384,232,104423,2,0,P|384:208|360:168,1,66.6666666666667
296,112,104745,1,0,0:0:0:0:
368,32,104907,6,0,P|368:112|368:112,2,66.6666666666667
272,32,105391,2,0,L|272:112,1,66.6666666666667
272,192,105713,1,0,0:0:0:0:
184,192,105874,2,0,L|184:104,1,66.6666666666667
184,32,106197,1,0,0:0:0:0:
112,120,106358,6,0,L|112:192,1,66.6666666666667
112,280,106681,2,0,L|64:328,2,66.6666666666667
208,280,107165,1,0,0:0:0:0:
152,352,107326,6,0,L|224:352,1,66.6666666666667
312,352,107649,1,0,0:0:0:0:
240,288,107810,2,0,L|320:288,1,66.6666666666667
400,288,108132,1,0,0:0:0:0:
328,224,108294,2,0,L|416:224,1,66.6666666666667
488,224,108616,1,0,0:0:0:0:
488,296,108778,6,0,P|464:328|368:352,1,133.333333333333
280,352,109261,2,0,P|208:288|208:208,1,133.333333333333
200,160,109745,2,0,P|240:176|272:176,2,66.6666666666667
200,64,110229,1,0,0:0:0:0:
284,109,110391,1,0,0:0:0:0:
284,15,110552,1,0,0:0:0:0:
200,64,110713,1,0,0:0:0:0:
