osu file format v14

[General]
AudioFilename: audio.mp3
AudioLeadIn: 0
PreviewTime: 61843
Countdown: 0
SampleSet: Soft
StackLeniency: 0.3
Mode: 0
LetterboxInBreaks: 0
WidescreenStoryboard: 1

[Editor]
Bookmarks: 66036
DistanceSpacing: 1.1
BeatDivisor: 3
GridSize: 8
TimelineZoom: 1.4

[Metadata]
Title:Oh Boy
TitleUnicode:Oh Boy
Artist:AOA
ArtistUnicode:AOA
Creator:TmacBoris
Version:Hard
Source:
Tags:에프엔씨엔터테인먼트 FNC Entertainment 에이오에이 Ji Min Cho A Yu Na You Kyung Hye Jeong Min A Seol Hyun Chan Mi 1st Album ANGEL`S KNOCK 지민 초아 유나 혜정 민아 설현 찬미 kpop 한승훈 이상호 InnoVator Han Seunghun Lee Sangho Öhrn Andreas Wahle Chris
BeatmapID:1348508
BeatmapSetID:631131

[Difficulty]
HPDrainRate:5.7
CircleSize:4
OverallDifficulty:5.8
ApproachRate:7.5
SliderMultiplier:1.8
SliderTickRate:1

[Events]
//Background and Video events
0,0,"aoa oh boy 1.png",0,0
//Break Periods
2,47042,49404
2,51396,53759
2,110912,113275
2,115267,117630
//Storyboard Layer 0 (Background)
//Storyboard Layer 1 (Fail)
//Storyboard Layer 2 (Pass)
//Storyboard Layer 3 (Foreground)
//Storyboard Sound Samples

[TimingPoints]
391,483.870967741935,4,2,0,80,1,0
391,-111.111111111111,4,2,0,80,0,0
6197,-100,4,2,0,80,0,0
61842,-90.9090909090909,4,1,0,90,0,1
92810,-100,4,2,0,80,0,0
125713,-90.9090909090909,4,1,0,90,0,1
156681,-100,4,2,0,70,0,0
176036,-90.9090909090909,4,1,0,90,0,1
207003,-100,4,2,0,80,0,0

[Colours]
Combo1 : 80,72,85
Combo2 : 255,128,192
Combo3 : 255,255,255
Combo4 : 242,24,57

[HitObjects]
280,96,2326,5,2,0:0:0:0:
392,208,2810,1,2,0:0:0:0:
256,288,3294,1,2,0:0:0:0:
208,264,3455,1,2,0:0:0:0:
168,232,3616,1,2,0:0:0:0:
136,192,3778,1,2,0:0:0:0:
80,112,4100,1,2,0:0:0:0:
128,88,4261,1,2,0:0:0:0:
280,72,4745,5,2,0:0:0:0:
424,32,5229,1,2,0:0:0:0:
424,80,5390,1,2,0:0:0:0:
408,128,5552,1,2,0:0:0:0:
392,176,5713,1,2,0:0:0:0:
261,266,6197,6,0,L|328:254,2,60,4|4|4,3:3|3:3|3:3,2:2:0:0:
187,308,6681,2,0,L|244:347,2,60,4|4|4,3:3|3:3|3:3,2:2:0:0:
106,290,7165,2,0,L|117:356,2,60,4|4|4,3:3|3:3|3:3,2:2:0:0:
57,220,7649,2,0,L|16:277,2,60,4|4|4,3:3|3:3|3:3,2:2:0:0:
104,160,8132,5,8,0:0:0:0:
286,44,8616,1,8,0:0:0:0:
457,175,9100,2,0,P|497:239|481:287,1,120,8|0,0:0|0:0,0:0:0:0:
453,342,9584,6,0,L|517:390,2,60,8|0|0,0:0|0:0|0:0,0:0:0:0:
386,313,10068,2,0,L|298:305,1,60,8|0,0:0|0:0,0:0:0:0:
182,295,10552,1,8,0:0:0:0:
84,102,11036,6,0,L|84:38,2,60,8|0|0,0:0|0:0|0:0,0:0:0:0:
164,78,11520,2,0,P|220:54|276:78,1,120,8|0,0:0|0:0,0:0:0:0:
348,102,12003,1,8,0:0:0:0:
446,294,12487,1,8,0:0:0:0:
229,294,12971,1,8,0:0:0:0:
208,168,13294,6,0,P|192:136|184:96,2,60,0|4|0,0:0|0:0|0:0,0:0:0:0:
257,220,13778,1,0,0:0:0:0:
338,237,13939,6,0,L|300:293,2,60,4|4|4,3:3|3:3|3:3,2:2:0:0:
404,186,14423,2,0,L|417:252,2,60,4|4|4,3:3|3:3|3:3,2:2:0:0:
420,105,14907,2,0,L|475:141,2,60,4|4|4,3:3|3:3|3:3,2:2:0:0:
377,32,15391,2,0,L|443:17,2,60,4|4|4,3:3|3:3|3:3,2:2:0:0:
317,40,15874,5,8,0:0:0:0:
199,66,16197,1,0,0:0:0:0:
199,125,16358,1,8,0:0:0:0:
317,147,16681,1,0,0:0:0:0:
318,206,16842,1,8,0:0:0:0:
259,310,17165,5,0,0:0:0:0:
199,307,17326,2,0,B|175:307|123:284,1,60,8|0,0:0|0:0,0:0:0:0:
93,181,17810,1,8,0:0:0:0:
210,44,18294,1,8,0:0:0:0:
311,192,18778,1,8,0:0:0:0:
441,210,19100,5,0,0:0:0:0:
438,275,19261,2,0,P|424:333|356:350,1,120,8|0,0:0|0:0,0:0:0:0:
309,354,19745,2,0,P|270:350|240:343,1,60,8|0,0:0|0:0,0:0:0:0:
133,314,20229,1,8,0:0:0:0:
259,186,20713,1,8,0:0:0:0:
388,311,21197,6,0,P|388:255|380:231,1,60,8|0,0:0|0:0,0:0:0:0:
388,131,21681,2,0,P|332:131|308:139,1,60,8|0,0:0|0:0,0:0:0:0:
227,196,22165,2,0,P|187:156|176:133,1,60,8|0,0:0|0:0,0:0:0:0:
127,48,22649,2,0,P|167:37|202:37,1,60,8|0,0:0|0:0,0:0:0:0:
245,36,22971,5,0,0:0:0:0:
316,39,23132,2,0,P|356:54|378:77,1,60,8|0,0:0|0:0,0:0:0:0:
421,114,23455,1,0,0:0:0:0:
423,197,23616,6,0,P|414:257|363:305,1,120,8|0,0:0|0:0,0:0:0:0:
298,335,24100,2,0,P|226:351|167:341,1,120,8|0,0:0|0:0,0:0:0:0:
99,322,24584,2,0,P|47:280|71:237,1,120,8|0,0:0|0:0,0:0:0:0:
135,194,25068,2,0,P|166:147|116:118,1,120,8|0,0:0|0:0,0:0:0:0:
39,112,25552,2,0,P|63:56|143:32,1,120,8|0,0:0|0:0,0:0:0:0:
197,25,26036,2,0,P|254:37|270:101,1,120,8|0,0:0|0:0,0:0:0:0:
266,174,26520,1,0,0:0:0:0:
409,261,26842,1,0,0:0:0:0:
492,260,27003,2,0,P|466:321|418:345,1,120,8|0,0:0|0:0,0:0:0:0:
336,352,27487,2,0,P|297:355|273:351,1,60,8|0,0:0|0:0,0:0:0:0:
310,187,27971,6,0,P|290:239|237:277,1,120
155,293,28455,2,0,P|164:234|208:195,1,120
259,129,28939,2,0,P|247:71|194:29,1,120
118,35,29423,6,0,P|118:83|142:107,1,60,8|0,0:0|0:0,0:0:0:0:
177,156,29746,1,0,0:0:0:0:
228,89,29907,2,0,P|286:107|304:170,1,120,8|0,0:0|0:0,0:0:0:0:
314,242,30390,2,0,P|314:290|338:314,1,60,8|0,0:0|0:0,0:0:0:0:
378,363,30713,1,0,0:0:0:0:
378,363,30874,6,0,P|431:333|448:269,1,120
459,190,31358,6,0,L|453:120,1,60
441,45,31681,1,0,0:0:0:0:
354,48,31842,2,0,L|346:124,1,60,8|0,0:0|0:0,0:0:0:0:
339,193,32165,1,0,0:0:0:0:
254,184,32326,2,0,P|219:154|207:124,1,60,8|0,0:0|0:0,0:0:0:0:
200,57,32649,1,0,0:0:0:0:
113,64,32810,2,0,P|93:108|95:146,1,60,8|0,0:0|0:0,0:0:0:0:
93,207,33132,1,0,0:0:0:0:
100,295,33294,6,0,P|61:289|24:262,2,60
189,303,33778,6,0,P|223:308|260:303,1,60
310,284,34100,1,0,0:0:0:0:
353,242,34261,1,0,0:0:0:0:
348,185,34422,1,0,0:0:0:0:
298,157,34583,1,0,0:0:0:0:
232,149,34745,2,0,P|198:116|247:59,1,120
291,37,35229,2,0,P|320:31|360:39,1,60
415,42,35552,1,0,0:0:0:0:
471,75,35713,6,0,P|480:114|474:144,1,60
464,198,36036,1,0,0:0:0:0:
399,185,36197,2,0,P|358:182|325:200,1,60
275,197,36520,1,0,0:0:0:0:
225,239,36681,2,0,P|209:277|216:314,1,60
229,358,37003,1,0,0:0:0:0:
295,358,37165,6,0,P|327:353|366:345,1,60
408,312,37487,1,0,0:0:0:0:
453,262,37649,2,0,P|468:220|463:192,1,60
464,136,37971,1,0,0:0:0:0:
456,72,38132,2,0,P|434:50|401:37,1,60
343,24,38455,1,0,0:0:0:0:
325,87,38616,6,0,L|260:82,1,60
199,76,38939,2,0,L|190:14,2,60
48,35,39584,6,0,B|16:83|80:99|48:155,1,120
129,139,40068,2,0,B|97:187|161:203|129:259,1,120
210,243,40552,2,0,B|178:291|242:307|210:363,1,120
298,356,41036,6,0,B|270:307|334:291|302:243,1,120
379,252,41520,2,0,B|351:202|415:186|383:138,1,120
460,148,42004,2,0,B|432:98|496:82|464:34,1,120
391,62,42487,2,0,L|327:70,1,60
232,72,42810,6,0,P|208:46|200:18,2,60
294,128,43294,1,0,0:0:0:0:
368,166,43455,2,0,P|381:192|384:233,1,60
351,299,43778,1,0,0:0:0:0:
294,236,43939,2,0,P|281:209|256:193,1,60
182,152,44261,1,0,0:0:0:0:
99,170,44423,2,0,P|91:194|107:234,1,60
149,294,44745,1,0,0:0:0:0:
223,333,44907,6,0,P|247:341|287:325,1,60
355,295,45229,1,0,0:0:0:0:
324,216,45390,2,0,P|300:208|258:208,1,60
181,207,45712,1,0,0:0:0:0:
96,211,45874,2,0,P|83:165|81:137,1,60
65,70,46197,1,0,0:0:0:0:
65,70,46358,2,0,L|125:66,1,60
247,180,46842,1,4,0:0:0:0:
96,48,50229,5,0,0:0:0:0:
288,48,50713,2,0,L|288:232,1,180
368,80,54584,5,8,0:0:0:0:
368,216,54907,1,0,0:0:0:0:
368,216,55068,1,8,0:0:0:0:
328,352,55390,1,0,0:0:0:0:
328,352,55552,1,8,0:0:0:0:
184,344,56036,5,8,0:0:0:0:
112,160,56520,2,0,L|64:112,1,60,8|0,0:0|0:0,0:0:0:0:
176,64,57003,2,0,L|224:104,1,60,8|0,0:0|0:0,0:0:0:0:
320,32,57487,2,0,P|325:83|375:142,1,120,8|0,0:0|0:0,0:0:0:0:
419,193,57971,2,0,P|439:229|444:264,1,60,8|0,0:0|0:0,0:0:0:0:
426,322,58294,6,0,P|422:366|434:397,2,60,0|8|0,0:0|0:0|0:0,0:0:0:0:
280,344,58939,1,8,0:0:0:0:
104,240,59423,1,8,0:0:0:0:
136,32,59907,1,8,0:0:0:0:
321,118,60390,6,0,L|254:130,2,60,4|4|4,3:3|3:3|3:3,2:2:0:0:
395,76,60874,2,0,L|338:37,2,60,4|4|4,3:3|3:3|3:3,2:2:0:0:
476,94,61358,2,0,L|465:28,2,60,4|4|4,3:3|3:3|3:3,2:2:0:0:
113,85,62326,6,0,L|263:98,1,132.00000402832
337,107,62810,2,0,P|377:150|329:193,1,132.00000402832
242,206,63294,2,0,L|92:219,1,132.00000402832
18,227,63778,1,0,0:0:0:0:
140,346,64100,5,0,0:0:0:0:
225,347,64261,2,0,P|284:322|326:269,1,132.00000402832
328,184,64745,2,0,P|287:132|227:107,1,132.00000402832
141,105,65229,1,0,0:0:0:0:
98,268,65552,1,0,0:0:0:0:
184,271,65713,1,0,0:0:0:0:
141,105,66036,5,0,0:0:0:0:
208,52,66197,2,0,L|345:64,1,132.00000402832
377,140,66681,2,0,L|245:128,1,132.00000402832
159,120,67165,1,0,0:0:0:0:
30,232,67487,1,0,0:0:0:0:
30,232,67649,1,0,0:0:0:0:
177,318,67971,5,0,0:0:0:0:
177,318,68132,2,0,L|243:312,1,66.0000020141602,0|0,0:0|2:0,0:0:0:0:
181,242,68455,1,0,0:0:0:0:
181,242,68616,2,0,L|114:236,1,66.0000020141602,0|0,0:0|2:0,0:0:0:0:
178,168,68939,1,0,0:0:0:0:
178,168,69100,2,0,L|244:162,1,66.0000020141602,0|0,0:0|2:0,0:0:0:0:
336,154,69423,1,0,0:0:0:0:
336,154,69584,1,0,0:0:0:0:
208,39,69907,5,0,0:0:0:0:
293,49,70068,2,0,P|257:109|195:124,1,132.00000402832
116,137,70552,2,0,P|72:176|116:223,1,132.00000402832
196,239,71036,2,0,P|252:269|273:330,1,132.00000402832
188,325,71520,1,0,0:0:0:0:
359,334,71842,5,0,0:0:0:0:
370,249,72003,2,0,P|352:187|304:139,1,132.00000402832
231,96,72487,2,0,P|166:81|104:99,1,132.00000402832
30,144,72971,1,0,0:0:0:0:
170,242,73294,1,0,0:0:0:0:
256,245,73455,1,0,0:0:0:0:
315,83,73778,5,0,0:0:0:0:
322,168,73939,2,0,L|333:305,1,132.00000402832
265,350,74423,2,0,L|253:217,1,132.00000402832
247,132,74907,1,0,0:0:0:0:
93,207,75229,1,0,0:0:0:0:
93,207,75391,1,0,0:0:0:0:
168,53,75713,5,0,0:0:0:0:
168,53,75874,2,0,L|31:41,1,132.00000402832
79,117,76358,2,0,L|215:128,1,132.00000402832
296,135,76842,1,0,3:3:0:0:
356,159,77003,1,0,3:3:0:0:
409,200,77164,1,0,3:3:0:0:
449,251,77325,1,0,3:3:0:0:
452,78,77649,5,0,0:0:0:0:
368,57,77810,2,0,P|303:56|256:100,1,132.00000402832
178,135,78294,2,0,P|242:134|289:178,1,132.00000402832
368,213,78778,2,0,P|303:212|256:256,1,132.00000402832
177,289,79261,2,0,L|177:140,1,132.00000402832
144,76,79745,6,0,P|208:75|255:119,1,132.00000402832
334,154,80229,2,0,P|269:153|222:197,1,132.00000402832
144,232,80713,2,0,P|208:231|255:275,1,132.00000402832
325,325,81197,2,0,L|325:176,1,132.00000402832
325,106,81681,5,0,0:0:0:0:
385,129,81842,1,0,0:0:0:0:
411,187,82003,1,0,0:0:0:0:
414,253,82165,2,0,L|481:273,2,66.0000020141602
361,321,82649,2,0,P|306:348|237:322,1,132.00000402832
189,258,83132,1,0,0:0:0:0:
176,193,83293,1,0,0:0:0:0:
198,132,83454,1,0,0:0:0:0:
227,72,83616,6,0,P|315:47|419:75,2,198.000006042481
67,136,84907,1,0,0:0:0:0:
67,136,85068,1,0,0:0:0:0:
113,299,85390,5,0,0:0:0:0:
113,299,85552,2,0,L|263:286,1,132.00000402832
337,277,86036,2,0,P|377:234|329:191,1,132.00000402832
242,178,86520,2,0,L|92:165,1,132.00000402832
18,157,87004,1,0,0:0:0:0:
152,51,87326,5,0,0:0:0:0:
237,50,87487,2,0,P|296:75|338:128,1,132.00000402832
340,213,87971,2,0,P|299:265|239:290,1,132.00000402832
153,292,88455,1,0,0:0:0:0:
110,129,88778,1,0,0:0:0:0:
196,126,88939,1,0,0:0:0:0:
153,292,89262,5,0,0:0:0:0:
238,287,89423,2,0,L|375:275,1,132.00000402832
407,199,89907,2,0,L|275:211,1,132.00000402832
189,219,90391,1,0,0:0:0:0:
60,107,90713,1,0,0:0:0:0:
60,107,90875,1,0,0:0:0:0:
207,21,91197,5,0,0:0:0:0:
207,21,91358,2,0,L|273:27,1,66.0000020141602,0|0,0:0|2:0,0:0:0:0:
211,97,91681,1,0,0:0:0:0:
211,97,91842,2,0,L|144:103,1,66.0000020141602,0|0,0:0|2:0,0:0:0:0:
208,171,92165,1,0,0:0:0:0:
208,171,92326,2,0,L|274:177,1,66.0000020141602,0|0,0:0|2:0,0:0:0:0:
366,185,92649,1,0,0:0:0:0:
366,185,92810,1,0,0:0:0:0:
256,192,93294,12,0,94261,0:0:0:0:
98,186,95229,6,0,P|106:210|138:250,1,60
178,287,95552,1,0,0:0:0:0:
248,308,95713,2,0,P|231:334|202:356,2,60
272,241,96197,2,0,P|272:190|229:123,1,120
188,78,96681,1,0,0:0:0:0:
330,62,97003,5,0,0:0:0:0:
402,51,97164,2,0,P|398:81|381:114,1,60
346,168,97487,1,0,0:0:0:0:
333,194,97648,1,0,0:0:0:0:
320,221,97809,1,0,0:0:0:0:
307,248,97970,1,0,0:0:0:0:
294,275,98132,2,0,P|269:296|229:313,1,60
174,294,98455,1,0,0:0:0:0:
110,261,98616,2,0,P|153:224|220:238,1,120
252,292,99100,6,0,P|273:271|285:243,1,60
258,176,99423,1,0,0:0:0:0:
188,157,99584,2,0,P|152:114|193:69,1,120
256,57,100068,2,0,P|315:66|363:106,1,120
403,161,100552,2,0,P|418:236|390:284,1,120
337,308,101036,6,0,L|249:308,1,60
225,258,101358,1,0,0:0:0:0:
276,207,101520,2,0,L|348:207,1,60
389,159,101842,1,0,0:0:0:0:
339,107,102003,2,0,L|259:107,1,60
223,61,102326,1,0,0:0:0:0:
156,32,102487,6,0,P|94:46|61:108,1,120
56,162,102971,2,0,P|55:193|61:225,1,60
78,291,103294,1,0,0:0:0:0:
105,357,103455,2,0,P|148:295|128:240,1,120
133,183,103939,2,0,P|172:190|201:219,1,60
240,250,104261,1,0,0:0:0:0:
291,279,104422,1,0,0:0:0:0:
351,285,104583,1,0,0:0:0:0:
408,267,104744,1,0,0:0:0:0:
471,207,104907,6,0,P|482:79|482:79,1,120
391,80,105390,2,0,L|380:199,1,120
289,195,105874,2,0,P|299:75|299:75,1,120
209,64,106358,2,0,B|202:143|202:135,2,60
119,54,106842,2,0,L|114:113,1,60
91,292,107326,6,0,L|43:340,1,60
223,292,107810,2,0,L|263:340,1,60
223,161,108294,2,0,L|263:113,1,60
408,63,108778,6,0,P|408:119|392:183,1,120
315,173,109261,2,0,P|315:229|291:301,1,120
218,286,109745,2,0,P|213:318|194:359,2,60
229,226,110229,1,0,0:0:0:0:
232,166,110390,1,0,0:0:0:0:
218,108,110551,1,0,0:0:0:0:
189,56,110712,1,0,0:0:0:0:
96,48,114100,5,0,0:0:0:0:
288,48,114584,2,0,L|288:232,1,180
144,304,118455,5,0,0:0:0:0:
144,168,118778,1,0,0:0:0:0:
144,168,118939,1,0,0:0:0:0:
184,32,119261,1,0,0:0:0:0:
184,32,119423,1,0,0:0:0:0:
328,40,119907,5,0,0:0:0:0:
400,224,120391,2,0,L|448:272,1,60
336,320,120874,2,0,L|288:280,1,60
192,352,121358,2,0,P|187:301|137:242,1,120,8|0,0:0|0:0,0:0:0:0:
93,191,121842,2,0,P|73:155|68:120,1,60,8|0,0:0|0:0,0:0:0:0:
86,62,122165,6,0,P|90:18|78:-13,2,60,0|8|0,0:0|0:0|0:0,0:0:0:0:
232,40,122810,1,0,0:0:0:0:
408,144,123294,1,0,0:0:0:0:
376,352,123778,1,0,0:0:0:0:
194,274,124261,6,0,L|261:262,2,60,4|4|4,3:3|3:3|3:3,2:2:0:0:
120,316,124745,2,0,L|177:355,2,60,4|4|4,3:3|3:3|3:3,2:2:0:0:
39,298,125229,2,0,L|50:364,2,60,4|4|4,3:3|3:3|3:3,2:2:0:0:
399,299,126197,6,0,L|249:286,1,132.00000402832
175,277,126681,2,0,P|135:234|183:191,1,132.00000402832
270,178,127165,2,0,L|420:165,1,132.00000402832
494,157,127649,1,0,0:0:0:0:
372,38,127971,5,0,0:0:0:0:
287,37,128132,2,0,P|228:62|186:115,1,132.00000402832
184,200,128616,2,0,P|225:252|285:277,1,132.00000402832
371,279,129100,1,0,0:0:0:0:
414,116,129423,1,0,0:0:0:0:
328,113,129584,1,0,0:0:0:0:
371,279,129907,5,0,0:0:0:0:
304,332,130068,2,0,L|167:320,1,132.00000402832
135,244,130552,2,0,L|267:256,1,132.00000402832
353,264,131036,1,0,0:0:0:0:
482,152,131358,1,0,0:0:0:0:
482,152,131520,1,0,0:0:0:0:
335,66,131842,5,0,0:0:0:0:
335,66,132003,2,0,L|269:72,1,66.0000020141602,0|0,0:0|2:0,0:0:0:0:
331,142,132326,1,0,0:0:0:0:
331,142,132487,2,0,L|398:148,1,66.0000020141602,0|0,0:0|2:0,0:0:0:0:
334,216,132810,1,0,0:0:0:0:
334,216,132971,2,0,L|268:222,1,66.0000020141602,0|0,0:0|2:0,0:0:0:0:
176,230,133294,1,0,0:0:0:0:
176,230,133455,1,0,0:0:0:0:
304,345,133778,5,0,0:0:0:0:
219,335,133939,2,0,P|255:275|317:260,1,132.00000402832
396,247,134423,2,0,P|440:208|396:161,1,132.00000402832
316,145,134907,2,0,P|260:115|239:54,1,132.00000402832
324,59,135391,1,0,0:0:0:0:
153,50,135713,5,0,0:0:0:0:
142,135,135874,2,0,P|160:197|208:245,1,132.00000402832
281,288,136358,2,0,P|346:303|408:285,1,132.00000402832
482,240,136842,1,0,0:0:0:0:
342,142,137165,1,0,0:0:0:0:
256,139,137326,1,0,0:0:0:0:
197,301,137649,5,0,0:0:0:0:
190,216,137810,2,0,L|179:79,1,132.00000402832
247,34,138294,2,0,L|259:167,1,132.00000402832
265,252,138778,1,0,0:0:0:0:
419,177,139100,1,0,0:0:0:0:
419,177,139262,1,0,0:0:0:0:
344,331,139584,5,0,0:0:0:0:
344,331,139745,2,0,L|481:343,1,132.00000402832
433,267,140229,2,0,L|297:256,1,132.00000402832
216,249,140713,1,0,3:3:0:0:
156,225,140874,1,0,3:3:0:0:
103,184,141035,1,0,3:3:0:0:
63,133,141196,1,0,3:3:0:0:
202,29,141520,5,0,0:0:0:0:
202,29,141681,2,0,P|267:28|314:72,1,132.00000402832
392,107,142165,2,0,P|328:106|281:150,1,132.00000402832
202,185,142649,2,0,P|267:184|314:228,1,132.00000402832
393,261,143132,2,0,L|393:112,1,132.00000402832
426,48,143616,6,0,P|362:47|315:91,1,132.00000402832
236,126,144100,2,0,P|301:125|348:169,1,132.00000402832
426,204,144584,2,0,P|362:203|315:247,1,132.00000402832
245,297,145068,2,0,L|245:148,1,132.00000402832
245,78,145552,5,0,0:0:0:0:
185,101,145713,1,0,0:0:0:0:
159,159,145874,1,0,0:0:0:0:
156,225,146036,2,0,L|89:245,2,66.0000020141602
209,293,146520,2,0,P|264:320|333:294,1,132.00000402832
381,230,147003,1,0,0:0:0:0:
394,165,147164,1,0,0:0:0:0:
372,104,147325,1,0,0:0:0:0:
343,44,147487,6,0,P|255:19|151:47,2,198.000006042481
454,175,148778,1,0,0:0:0:0:
454,175,148939,1,0,0:0:0:0:
303,93,149261,5,0,0:0:0:0:
303,93,149423,2,0,L|153:106,1,132.00000402832
79,115,149907,2,0,P|39:158|87:201,1,132.00000402832
174,214,150391,2,0,L|324:227,1,132.00000402832
398,235,150875,1,0,0:0:0:0:
257,332,151197,5,0,0:0:0:0:
172,333,151358,2,0,P|113:308|71:255,1,132.00000402832
69,170,151842,2,0,P|110:118|170:93,1,132.00000402832
256,91,152326,1,0,0:0:0:0:
299,254,152649,1,0,0:0:0:0:
213,257,152810,1,0,0:0:0:0:
256,91,153133,5,0,0:0:0:0:
171,96,153294,2,0,L|34:108,1,132.00000402832
12,184,153778,2,0,L|144:172,1,132.00000402832
220,164,154262,1,0,0:0:0:0:
349,276,154584,1,0,0:0:0:0:
349,276,154746,1,0,0:0:0:0:
202,362,155068,5,0,0:0:0:0:
202,362,155229,2,0,L|136:356,1,66.0000020141602,0|0,0:0|2:0,0:0:0:0:
198,286,155552,1,0,0:0:0:0:
198,286,155713,2,0,L|265:280,1,66.0000020141602,0|0,0:0|2:0,0:0:0:0:
201,212,156036,1,0,0:0:0:0:
201,212,156197,2,0,L|135:206,1,66.0000020141602,0|0,0:0|2:0,0:0:0:0:
43,198,156520,1,0,0:0:0:0:
43,198,156681,1,0,0:0:0:0:
264,208,157165,5,0,0:0:0:0:
96,64,157649,1,0,0:0:0:0:
96,64,157810,2,0,B|76:91|76:91|76:128,1,60
78,189,158132,1,0,0:0:0:0:
78,189,158294,2,0,B|77:221|77:221|86:257,1,60
248,176,159100,5,0,0:0:0:0:
409,319,159584,1,2,0:0:0:0:
409,319,159745,2,0,B|429:292|429:292|429:255,1,60
431,193,160067,1,2,0:0:0:0:
431,193,160229,2,0,B|432:161|432:161|423:125,1,60
264,208,161036,5,0,0:0:0:0:
96,64,161520,1,2,0:0:0:0:
96,64,161681,2,0,B|76:91|76:91|76:128,1,60
80,184,162003,1,2,0:0:0:0:
80,184,162165,2,0,B|79:216|79:216|88:252,1,60
119,306,162487,5,0,0:0:0:0:
298,185,162971,1,0,0:0:0:0:
133,44,163455,5,0,0:0:0:0:
191,95,163616,1,0,0:0:0:0:
122,132,163778,1,0,0:0:0:0:
106,208,163939,2,0,P|101:235|116:273,1,60
149,333,164261,2,0,P|123:356|110:396,3,60
224,304,164907,6,2,B|240:288|240:288|224:280|224:280|240:272|240:272|224:264|224:264|240:256|240:256|288:184|288:184|280:168|280:168|296:168|296:168|288:152|288:152|304:152|304:152|296:136|296:136|312:136|312:136|344:64,1,360,2|4,1:1|0:0,1:1:0:0:
344,64,166358,6,0,L|344:0,2,60
269,115,166842,2,0,P|218:140|162:103,1,120
96,64,167326,5,0,0:0:0:0:
96,64,167487,2,0,P|82:91|80:128,1,60
86,191,167809,1,0,0:0:0:0:
86,191,167971,2,0,P|89:220|103:247,1,60
248,176,168777,5,0,0:0:0:0:
416,320,169261,1,0,0:0:0:0:
416,320,169423,2,0,P|430:293|432:256,1,60
426,193,169745,1,0,0:0:0:0:
426,193,169907,2,0,P|422:163|408:136,1,60
264,208,170713,5,0,0:0:0:0:
96,64,171197,1,0,0:0:0:0:
96,64,171358,2,0,P|82:91|80:128,1,60
86,191,171680,1,0,0:0:0:0:
86,191,171842,2,0,P|89:220|103:247,1,60
155,313,172165,5,0,0:0:0:0:
193,238,172326,1,0,0:0:0:0:
239,309,172488,1,0,0:0:0:0:
191,118,174584,6,0,L|258:130,2,60,4|4|4,3:3|3:3|3:3,2:2:0:0:
117,76,175068,2,0,L|174:37,2,60,4|4|4,3:3|3:3|3:3,2:2:0:0:
36,94,175552,2,0,L|47:28,2,60,4|4|4,3:3|3:3|3:3,2:2:0:0:
399,85,176520,6,0,L|249:98,1,132.00000402832
175,107,177004,2,0,P|135:150|183:193,1,132.00000402832
270,206,177488,2,0,L|420:219,1,132.00000402832
494,227,177972,1,0,0:0:0:0:
372,346,178294,5,0,0:0:0:0:
287,347,178455,2,0,P|228:322|186:269,1,132.00000402832
184,184,178939,2,0,P|225:132|285:107,1,132.00000402832
371,105,179423,1,0,0:0:0:0:
414,268,179746,1,0,0:0:0:0:
328,271,179907,1,0,0:0:0:0:
371,105,180230,5,0,0:0:0:0:
304,52,180391,2,0,L|167:64,1,132.00000402832
135,140,180875,2,0,L|267:128,1,132.00000402832
353,120,181359,1,0,0:0:0:0:
482,232,181681,1,0,0:0:0:0:
482,232,181843,1,0,0:0:0:0:
335,318,182165,5,0,0:0:0:0:
335,318,182326,2,0,L|269:312,1,66.0000020141602,0|0,0:0|2:0,0:0:0:0:
331,242,182649,1,0,0:0:0:0:
331,242,182810,2,0,L|398:236,1,66.0000020141602,0|0,0:0|2:0,0:0:0:0:
334,168,183133,1,0,0:0:0:0:
334,168,183294,2,0,L|268:162,1,66.0000020141602,0|0,0:0|2:0,0:0:0:0:
176,154,183617,1,0,0:0:0:0:
176,154,183778,1,0,0:0:0:0:
304,39,184101,5,0,0:0:0:0:
219,49,184262,2,0,P|255:109|317:124,1,132.00000402832
396,137,184746,2,0,P|440:176|396:223,1,132.00000402832
316,239,185230,2,0,P|260:269|239:330,1,132.00000402832
324,325,185714,1,0,0:0:0:0:
153,334,186036,5,0,0:0:0:0:
142,249,186197,2,0,P|160:187|208:139,1,132.00000402832
281,96,186681,2,0,P|346:81|408:99,1,132.00000402832
482,144,187165,1,0,0:0:0:0:
342,242,187488,1,0,0:0:0:0:
256,245,187649,1,0,0:0:0:0:
197,83,187972,5,0,0:0:0:0:
190,168,188133,2,0,L|179:305,1,132.00000402832
247,350,188617,2,0,L|259:217,1,132.00000402832
265,132,189101,1,0,0:0:0:0:
419,207,189423,1,0,0:0:0:0:
419,207,189585,1,0,0:0:0:0:
344,53,189907,5,0,0:0:0:0:
344,53,190068,2,0,L|481:41,1,132.00000402832
433,117,190552,2,0,L|297:128,1,132.00000402832
216,135,191036,1,0,3:3:0:0:
156,159,191197,1,0,3:3:0:0:
103,200,191358,1,0,3:3:0:0:
63,251,191519,1,0,3:3:0:0:
60,78,191843,5,0,0:0:0:0:
144,57,192004,2,0,P|209:56|256:100,1,132.00000402832
334,135,192488,2,0,P|270:134|223:178,1,132.00000402832
144,213,192972,2,0,P|209:212|256:256,1,132.00000402832
335,289,193455,2,0,L|335:140,1,132.00000402832
368,76,193939,6,0,P|304:75|257:119,1,132.00000402832
178,154,194423,2,0,P|243:153|290:197,1,132.00000402832
368,232,194907,2,0,P|304:231|257:275,1,132.00000402832
187,325,195391,2,0,L|187:176,1,132.00000402832
187,106,195875,5,0,0:0:0:0:
127,129,196036,1,0,0:0:0:0:
101,187,196197,1,0,0:0:0:0:
98,253,196359,2,0,L|31:273,2,66.0000020141602
151,321,196843,2,0,P|206:348|275:322,1,132.00000402832
323,258,197326,1,0,0:0:0:0:
336,193,197487,1,0,0:0:0:0:
314,132,197648,1,0,0:0:0:0:
285,72,197810,6,0,P|197:47|93:75,2,198.000006042481
445,136,199101,1,0,0:0:0:0:
445,136,199262,1,0,0:0:0:0:
399,299,199584,5,0,0:0:0:0:
399,299,199746,2,0,L|249:286,1,132.00000402832
175,277,200230,2,0,P|135:234|183:191,1,132.00000402832
270,178,200714,2,0,L|420:165,1,132.00000402832
494,157,201198,1,0,0:0:0:0:
360,51,201520,5,0,0:0:0:0:
275,50,201681,2,0,P|216:75|174:128,1,132.00000402832
172,213,202165,2,0,P|213:265|273:290,1,132.00000402832
359,292,202649,1,0,0:0:0:0:
402,129,202972,1,0,0:0:0:0:
316,126,203133,1,0,0:0:0:0:
359,292,203456,5,0,0:0:0:0:
274,287,203617,2,0,L|137:275,1,132.00000402832
105,199,204101,2,0,L|237:211,1,132.00000402832
323,219,204585,1,0,0:0:0:0:
452,107,204907,1,0,0:0:0:0:
452,107,205069,1,0,0:0:0:0:
305,21,205391,5,0,0:0:0:0:
305,21,205552,2,0,L|239:27,1,66.0000020141602,0|0,0:0|2:0,0:0:0:0:
301,97,205875,1,0,0:0:0:0:
301,97,206036,2,0,L|368:103,1,66.0000020141602,0|0,0:0|2:0,0:0:0:0:
304,171,206359,1,0,0:0:0:0:
304,171,206520,2,0,L|238:177,1,66.0000020141602,0|0,0:0|2:0,0:0:0:0:
146,185,206843,1,0,0:0:0:0:
146,185,207004,1,0,0:0:0:0:
