osu file format v14

[General]
AudioFilename: audio.mp3
AudioLeadIn: 0
PreviewTime: 66879
Countdown: 0
SampleSet: Soft
StackLeniency: 0.5
Mode: 0
LetterboxInBreaks: 0
WidescreenStoryboard: 0

[Editor]
DistanceSpacing: 1.2
BeatDivisor: 4
GridSize: 4
TimelineZoom: 1.8

[Metadata]
Title:Heart Attack
TitleUnicode:심쿵해
Artist:AOA
ArtistUnicode:AOA
Creator:Marianna
Version:Hard
Source:
Tags:Ace of Angels FNC Entertainment Choa Jimin Yuna Hyejeong Mina Seolhyun Chanmi 초아 지민 유나 혜정 민아 설현 찬미
BeatmapID:1359365
BeatmapSetID:640859

[Difficulty]
HPDrainRate:6
CircleSize:3.7
OverallDifficulty:7
ApproachRate:7.5
SliderMultiplier:1.6
SliderTickRate:1

[Events]
//Background and Video events
0,0,"bg.jpg",0,0
Video,0,"AoA-HA.avi"
//Break Periods
//Storyboard Layer 0 (Background)
//Storyboard Layer 1 (Fail)
//Storyboard Layer 2 (Pass)
//Storyboard Layer 3 (Foreground)
//Storyboard Sound Samples

[TimingPoints]
4885,476.190476190476,4,2,1,65,1,0
4885,-111.111111111111,4,2,1,65,0,0
21075,-111.111111111111,4,2,1,65,0,0
22027,-100,4,2,1,85,0,0
24289,-100,4,2,1,20,0,0
24408,-100,4,2,1,85,0,0
27742,-90.9090909090909,4,2,1,85,0,0
29646,-100,4,2,1,85,0,0
35361,-90.9090909090909,4,2,1,85,0,0
36789,-111.111111111111,4,2,1,85,0,0
37265,-100,4,2,1,85,0,0
52504,-125,4,2,1,75,0,0
66789,-100,4,2,1,65,0,0
67742,-90.9090909090909,4,2,1,100,0,1
82980,-90.9090909090909,4,2,1,85,0,0
96313,-76.9230769230769,4,2,1,85,0,0
97265,-76.9230769230769,4,2,1,75,0,0
98218,-100,4,2,1,85,0,0
113456,-125,4,2,1,75,0,0
127742,-100,4,2,1,65,0,0
128694,-90.9090909090909,4,2,1,80,0,1
143932,-100,4,2,1,85,0,0
159170,-125,4,2,1,75,0,0
173456,-100,4,2,1,65,0,0
174408,-83.3333333333333,4,2,1,100,0,1
178099,-83.3333333333333,4,2,1,5,0,1
178218,-83.3333333333333,4,2,1,100,0,1
185718,-83.3333333333333,4,2,1,5,0,1
185837,-83.3333333333333,4,2,1,100,0,1
189646,-200,4,2,1,100,0,0
189765,-200,4,2,1,5,0,0

[Colours]
Combo1 : 255,0,128
Combo2 : 230,66,82
Combo3 : 211,172,213
Combo4 : 180,71,220
SliderBorder : 190,31,167
SliderTrackOverride : 236,196,233

[HitObjects]
108,84,4884,6,0,P|164:104|220:84,1,120,4|0,0:0|0:0,0:0:0:0:
256,64,5361,2,0,L|256:136,1,71.9999978027344,8|0,0:0|0:0,0:0:0:0:
320,196,5837,2,0,P|376:176|424:196,1,107.999996704102,2|0,0:0|0:0,0:0:0:0:
456,216,6314,2,0,L|456:144,1,71.9999978027344,8|0,0:0|0:0,0:0:0:0:
372,256,6789,6,0,L|372:364,1,107.999996704102,2|0,0:0|0:0,0:0:0:0:
328,372,7265,2,0,P|292:364|256:372,1,71.9999978027344,8|0,0:0|0:0,0:0:0:0:
208,300,7742,2,0,P|152:320|104:300,1,107.999996704102,2|0,0:0|0:0,0:0:0:0:
80,272,8218,2,0,L|80:200,1,71.9999978027344,8|2,0:0|0:0,0:0:0:0:
140,88,8694,6,0,L|248:88,1,107.999996704102,2|0,0:0|0:0,0:0:0:0:
280,56,9170,2,0,P|272:92|280:128,1,71.9999978027344,8|0,0:0|0:0,0:0:0:0:
332,192,9646,2,0,P|352:240|336:292,1,107.999996704102,2|0,0:0|0:0,0:0:0:0:
300,316,10123,2,0,L|224:316,1,71.9999978027344,8|0,0:0|0:0,0:0:0:0:
124,240,10599,6,0,B|112:208|120:184|124:192|132:168|120:132,1,107.999996704102,2|0,0:0|0:0,0:0:0:0:
96,100,11075,2,0,L|168:100,1,71.9999978027344,8|2,0:0|0:0,0:0:0:0:
236,152,11551,2,0,L|344:152,1,107.999996704102,2|0,0:0|0:0,0:0:0:0:
384,132,12027,2,0,P|376:168|388:200,1,71.9999978027344,8|0,0:0|0:0,0:0:0:0:
444,268,12504,6,0,P|396:288|344:272,1,107.999996704102,2|2,0:0|0:0,0:0:0:0:
312,248,12980,2,0,L|240:248,1,71.9999978027344,8|2,0:0|0:0,0:0:0:0:
172,192,13456,2,0,L|172:84,1,107.999996704102,2|0,0:0|0:0,0:0:0:0:
152,44,13932,2,0,P|188:52|224:44,1,71.9999978027344,8|2,0:0|0:0,0:0:0:0:
344,12,14408,6,0,L|416:12,1,71.9999978027344,2|0,0:0|0:0,0:0:0:0:
472,76,14884,1,8,0:0:0:0:
404,132,15123,2,0,P|392:164|400:200,1,71.9999978027344,2|8,0:0|0:0,0:0:0:0:
452,268,15599,1,2,0:0:0:0:
376,312,15837,2,0,L|304:312,1,71.9999978027344,8|2,0:0|0:0,0:0:0:0:
192,244,16313,6,0,B|176:204|196:156|196:156|224:92|184:36|112:56|120:112|128:136,1,287.999991210938,2|8,0:0|0:0,0:0:0:0:
288,208,17504,1,2,0:0:0:0:
288,208,17742,2,0,L|360:208,1,71.9999978027344,2|0,0:0|0:0,0:0:0:0:
476,324,18218,6,0,L|400:324,1,71.9999978027344,4|0,0:0|0:0,0:0:0:0:
324,356,18694,1,8,0:0:0:0:
432,244,18932,1,2,0:0:0:0:
432,244,19170,2,0,P|444:192|428:136,2,107.999996704102,4|2|2,0:0|0:0|0:0,0:0:0:0:
360,192,20123,5,4,0:0:0:0:
432,194,21075,2,0,L|360:192,1,71.9999978027344,8|8,0:1|0:1,0:0:0:0:
308,124,21551,1,8,0:1:0:0:
308,124,21670,1,8,0:1:0:0:
308,124,21789,1,4,0:3:0:0:
368,268,22027,6,0,L|368:348,1,80,4|0,0:0|0:0,0:0:0:0:
276,312,22504,2,0,L|276:232,1,80,8|0,0:0|0:0,0:0:0:0:
224,152,22980,2,0,P|184:144|144:152,1,80,2|0,0:3|0:0,0:0:0:0:
276,232,23456,2,0,P|315:239|354:231,1,80,8|0,0:0|0:0,0:0:0:0:
436,180,23932,1,2,0:3:0:0:
276,232,24170,6,0,L|276:312,1,80,2|8,0:0|0:0,0:0:0:0:
192,356,24646,1,0,0:0:0:0:
192,356,24884,2,0,P|152:364|112:356,1,80,2|0,0:3|0:0,0:0:0:0:
116,260,25361,2,0,P|156:252|196:260,1,80,8|0,0:0|0:0,0:0:0:0:
312,340,25837,6,0,L|392:340,1,80,2|0,0:3|0:0,0:0:0:0:
436,256,26313,2,0,L|356:256,1,80,8|0,0:0|0:0,0:0:0:0:
284,192,26789,2,0,P|276:152|284:112,1,80,2|0,0:3|0:0,0:0:0:0:
324,28,27265,2,0,L|244:28,1,80,8|2,0:0|0:0,0:0:0:0:
368,112,27742,6,0,P|380:152|368:196,1,88.000002685547,4|0,0:0|0:0,0:0:0:0:
404,296,28218,2,0,P|364:308|320:296,1,88.000002685547,4|0,0:0|0:0,0:0:0:0:
224,340,28694,2,0,P|212:300|224:256,1,88.000002685547,2|2,0:3|0:0,0:0:0:0:
184,160,29170,2,0,P|224:148|268:160,1,88.000002685547,8|2,0:0|0:0,0:0:0:0:
368,195,29646,6,0,L|452:195,1,80,2|0,0:3|0:0,0:0:0:0:
464,176,30004,1,0,0:0:0:0:
480,156,30123,2,0,P|488:116|480:76,1,80,8|0,0:0|0:0,0:0:0:0:
368,195,30599,2,0,P|360:235|368:275,1,80,2|0,0:3|0:0,0:0:0:0:
400,364,31075,2,0,P|360:371|321:363,1,80,8|0,0:0|0:0,0:0:0:0:
256,296,31551,1,2,0:3:0:0:
120,344,31789,6,0,L|40:344,1,80,4|8,0:0|0:0,0:0:0:0:
4,256,32265,1,2,0:0:0:0:
4,256,32504,2,0,P|16:220|8:180,1,80,2|2,0:3|0:0,0:0:0:0:
80,56,32980,2,0,P|68:92|76:132,1,80,8|2,0:0|0:0,0:0:0:0:
172,240,33456,6,0,L|252:240,1,80,2|2,0:3|0:0,0:0:0:0:
300,156,33932,2,0,L|220:156,1,80,8|2,0:0|0:0,0:0:0:0:
172,240,34408,2,0,P|160:276|172:316,1,80,2|2,0:3|0:0,0:0:0:0:
220,156,34884,2,0,P|232:120|220:80,1,80,8|0,0:0|0:0,0:0:0:0:
320,40,35361,6,0,L|408:40,1,88.000002685547,4|0,0:0|0:0,0:0:0:0:
468,124,35837,2,0,L|380:124,1,88.000002685547,4|0,0:0|0:0,0:0:0:0:
300,192,36313,2,0,P|292:236|300:280,1,88.000002685547,4|0,0:0|0:0,0:0:0:0:
368,332,36789,6,0,L|440:332,1,71.9999978027344,10|2,0:0|0:0,0:0:0:0:
299,278,37265,6,0,L|175:278,1,120,4|0,0:0|0:0,0:0:0:0:
136,304,37742,2,0,P|144:268|136:224,1,80,2|2,0:3|0:0,0:0:0:0:
76,152,38218,2,0,P|132:132|188:152,1,120,8|2,0:0|0:0,0:0:0:0:
224,180,38694,2,0,L|224:96,1,80,2|2,0:3|0:0,0:0:0:0:
340,12,39170,6,0,P|376:4|420:12,1,80,8|2,0:0|0:0,0:0:0:0:
416,108,39646,2,0,P|376:115|337:107,1,80,2|2,0:3|0:0,0:0:0:0:
256,56,40123,2,0,L|176:60,1,80,8|0,0:0|0:0,0:0:0:0:
128,64,40480,1,2,0:0:0:0:
128,64,40599,2,0,L|48:68,1,80,2|0,0:3|0:0,0:0:0:0:
44,212,41075,6,0,L|168:204,1,120,8|0,0:0|0:0,0:0:0:0:
208,184,41551,2,0,P|200:220|212:264,1,80,2|2,0:3|0:0,0:0:0:0:
296,304,42027,2,0,L|420:296,1,120,8|0,0:0|0:0,0:0:0:0:
460,276,42503,2,0,P|452:312|464:356,1,80,2|2,0:3|0:0,0:0:0:0:
484,192,42980,6,0,L|484:112,1,80,8|0,0:0|0:0,0:0:0:0:
420,40,43456,2,0,P|380:28|344:40,1,80,2|0,0:3|0:0,0:0:0:0:
256,76,43932,2,0,P|216:88|180:76,1,80,8|2,0:0|0:0,0:0:0:0:
144,48,44289,1,0,0:0:0:0:
144,48,44408,2,0,L|64:48,1,80,2|2,0:3|0:0,0:0:0:0:
0,160,44884,6,0,L|80:160,1,80,2|0,0:3|0:0,0:0:0:0:
156,220,45361,2,0,P|168:256|156:296,1,80,8|0,0:0|0:0,0:0:0:0:
256,364,45837,2,0,P|244:328|256:288,1,80,2|2,0:3|0:0,0:0:0:0:
292,256,46194,1,2,0:0:0:0:
292,256,46313,2,0,L|372:256,1,80,8|2,0:0|0:0,0:0:0:0:
436,128,46789,6,0,L|356:128,1,80,2|0,0:3|0:0,0:0:0:0:
264,160,47265,2,0,P|256:120|268:80,1,80,8|0,0:0|0:0,0:0:0:0:
356,128,47742,2,0,P|364:168|352:208,1,80,2|2,0:3|0:0,0:0:0:0:
332,248,48099,1,2,0:0:0:0:
332,248,48218,2,0,L|412:248,1,80,8|2,0:0|0:0,0:0:0:0:
296,332,48694,6,0,L|216:332,1,80,2|0,0:3|0:0,0:0:0:0:
144,268,49170,2,0,P|132:232|144:192,1,80,8|2,0:0|0:0,0:0:0:0:
180,104,49646,2,0,P|192:68|180:28,1,80,2|2,0:3|0:0,0:0:0:0:
143,192,50123,2,0,P|179:204|219:192,1,80,8|0,0:0|0:0,0:0:0:0:
296,136,50599,6,0,P|368:140|304:232,1,240,2|2,0:0|0:0,0:0:0:0:
260,212,51432,1,2,0:0:0:0:
218,192,51551,2,0,P|204:148|208:108,1,80,2|2,0:3|0:0,0:0:0:0:
256,32,52027,1,4,0:0:0:0:
256,32,52504,6,0,L|192:32,1,64,8|2,0:3|0:0,0:0:0:0:
124,68,52980,2,0,L|60:68,1,64,8|0,0:0|0:0,0:0:0:0:
8,124,53456,2,0,P|4:152|8:188,1,64,8|0,0:0|0:0,0:0:0:0:
24,220,53813,1,0,0:0:0:0:
24,220,53932,2,0,P|28:248|24:284,1,64,8|0,0:0|0:0,0:0:0:0:
128,332,54408,6,0,L|196:332,1,64,8|0,0:0|0:0,0:0:0:0:
256,236,54884,2,0,L|192:236,1,64,8|0,0:0|0:0,0:0:0:0:
128,192,55361,2,0,P|104:140|132:80,1,128,8|8,0:0|0:0,0:0:0:0:
182,138,56075,1,0,0:0:0:0:
256,236,56313,6,0,B|256:336|256:336|232:312,1,128,8|8,0:0|0:0,0:0:0:0:
176,268,57027,1,0,0:0:0:0:
176,268,57265,2,0,B|156:248|156:248|156:348,1,128,8|8,0:0|0:0,0:0:0:0:
256,280,57980,1,2,0:0:0:0:
256,280,58218,6,0,B|284:268|320:276|316:284|352:292|384:280,1,128,8|10,0:0|0:0,0:0:0:0:
440,228,58932,1,0,0:0:0:0:
440,228,59170,2,0,P|456:172|432:108,1,128,8|10,0:0|0:0,0:0:0:0:
292,44,60123,6,0,L|228:44,1,64,8|0,0:0|0:0,0:0:0:0:
176,100,60599,2,0,L|112:100,1,64,8|0,0:0|0:0,0:0:0:0:
68,164,61075,2,0,P|60:196|68:228,1,64,8|0,0:0|0:0,0:0:0:0:
92,264,61432,1,0,0:0:0:0:
92,264,61551,2,0,L|160:264,1,64,8|0,0:0|0:0,0:0:0:0:
256,192,62027,6,0,L|192:192,1,64,8|0,0:0|0:0,0:0:0:0:
152,128,62504,2,0,P|144:96|152:64,1,64,8|0,0:0|0:0,0:0:0:0:
220,32,62980,2,0,B|248:20|284:28|280:36|316:44|348:32,1,128,8|8,0:0|0:0,0:0:0:0:
408,76,63694,1,0,0:0:0:0:
352,176,63932,6,0,L|352:248,1,64,8|0,0:0|0:0,0:0:0:0:
380,312,64408,2,0,P|348:320|316:312,1,64,8|0,0:0|0:0,0:0:0:0:
264,260,64884,2,0,P|232:252|200:260,1,64,8|0,0:0|0:0,0:0:0:0:
136,300,65361,2,0,P|104:308|72:300,1,64,8|0,0:0|0:0,0:0:0:0:
0,168,66075,6,0,L|0:104,1,64,2|0,0:0|0:0,0:0:0:0:
56,52,66551,1,2,0:0:0:0:
128,112,66789,6,0,P|168:120|208:112,1,80,8|8,0:1|0:1,0:0:0:0:
292,68,67265,1,8,0:1:0:0:
292,68,67384,1,8,0:1:0:0:
292,68,67504,1,4,0:3:0:0:
472,192,67742,6,0,L|472:280,1,88.000002685547,4|0,0:0|0:0,0:0:0:0:
388,216,68218,2,0,L|388:304,1,88.000002685547,4|0,0:0|0:0,0:0:0:0:
300,244,68694,2,0,L|300:332,1,88.000002685547,4|0,0:0|0:0,0:0:0:0:
200,364,69170,2,0,P|156:372|112:364,1,88.000002685547,8|0,0:0|0:0,0:0:0:0:
52,228,69646,6,0,P|96:220|140:228,1,88.000002685547,2|0,0:0|0:0,0:0:0:0:
224,288,70123,2,0,L|312:288,1,88.000002685547,8|0,0:0|0:0,0:0:0:0:
356,192,70599,2,0,L|268:192,1,88.000002685547,2|2,0:0|0:0,0:0:0:0:
228,156,70956,1,0,0:0:0:0:
228,156,71075,2,0,P|216:116|228:72,1,88.000002685547,8|2,0:0|0:0,0:0:0:0:
384,96,71551,6,0,L|296:112,1,88.000002685547,4|0,0:0|0:0,0:0:0:0:
144,72,72027,2,0,P|184:60|228:72,1,88.000002685547,4|0,0:0|0:0,0:0:0:0:
204,224,72504,2,0,L|188:136,1,88.000002685547,4|0,0:0|0:0,0:0:0:0:
104,200,72980,2,0,L|119:286,1,88.000002685547,8|2,0:0|0:0,0:0:0:0:
200,356,73456,6,0,B|248:376|288:356|284:348|312:332|372:348,1,176.000005371094,2|8,0:0|0:0,0:0:0:0:
460,292,74170,1,0,0:0:0:0:
460,292,74408,2,0,B|480:244|460:204|452:208|436:180|452:120,1,176.000005371094,2|8,0:0|0:0,0:0:0:0:
500,24,75123,1,2,0:0:0:0:
308,60,75361,6,0,L|396:56,1,88.000002685547,4|0,0:0|0:0,0:0:0:0:
240,20,75837,2,0,P|228:68|248:108,1,88.000002685547,4|0,0:0|0:0,0:0:0:0:
316,224,76313,2,0,L|312:136,1,88.000002685547,4|0,0:0|0:0,0:0:0:0:
220,184,76789,2,0,L|224:272,1,88.000002685547,8|0,0:0|0:0,0:0:0:0:
264,368,77265,6,0,P|220:380|180:368,1,88.000002685547,2|0,0:0|0:0,0:0:0:0:
56,272,77742,2,0,P|100:260|140:272,1,88.000002685547,8|0,0:0|0:0,0:0:0:0:
208,192,78218,2,0,L|208:104,1,88.000002685547,2|0,0:0|0:0,0:0:0:0:
304,64,78694,2,0,L|304:152,1,88.000002685547,8|2,0:0|0:0,0:0:0:0:
348,300,79170,6,0,P|308:312|264:300,1,88.000002685547,4|0,0:0|0:0,0:0:0:0:
304,152,79646,2,0,P|316:192|304:236,1,88.000002685547,4|0,0:0|0:0,0:0:0:0:
152,192,80123,2,0,L|244:192,1,88.000002685547,4|0,0:0|0:0,0:0:0:0:
204,92,80599,2,0,L|116:92,1,88.000002685547,8|0,0:0|0:0,0:0:0:0:
32,152,81075,6,0,P|20:192|32:236,1,88.000002685547,2|0,0:0|0:0,0:0:0:0:
0,336,81551,2,0,P|40:348|84:336,1,88.000002685547,8|0,0:0|0:0,0:0:0:0:
160,260,82027,2,0,P|200:248|244:260,1,88.000002685547,2|0,0:0|0:0,0:0:0:0:
332,320,82504,1,8,0:0:0:0:
332,320,82742,1,2,0:0:0:0:
448,224,82980,6,0,L|448:136,1,88.000002685547,4|0,0:0|0:0,0:0:0:0:
476,92,83337,1,2,0:0:0:0:
476,92,83456,2,0,P|432:100|388:88,1,88.000002685547,8|2,0:0|0:0,0:0:0:0:
300,36,83932,2,0,P|256:28|212:40,1,88.000002685547,2|0,0:0|0:0,0:0:0:0:
168,64,84289,1,2,0:0:0:0:
168,64,84408,2,0,L|168:156,1,88.000002685547,8|2,0:0|0:0,0:0:0:0:
252,216,84884,6,0,L|252:128,1,88.000002685547,2|0,0:0|0:0,0:0:0:0:
300,36,85361,2,0,P|344:28|388:40,1,88.000002685547,8|0,0:0|0:0,0:0:0:0:
476,92,85837,1,2,0:0:0:0:
476,92,85956,2,0,L|476:180,1,88.000002685547,2|0,0:0|0:0,0:0:0:0:
504,224,86313,2,0,P|460:212|420:224,1,88.000002685547,8|2,0:0|0:0,0:0:0:0:
272,280,86789,6,0,P|228:292|188:280,1,88.000002685547,2|0,0:0|0:0,0:0:0:0:
128,192,87265,2,0,L|128:104,1,88.000002685547,8|2,0:0|0:0,0:0:0:0:
104,56,87623,1,0,0:0:0:0:
104,56,87742,2,0,P|60:44|20:56,1,88.000002685547,0|2,0:0|0:0,0:0:0:0:
212,132,88218,2,0,P|256:144|296:132,1,88.000002685547,8|2,0:0|0:0,0:0:0:0:
392,88,88694,5,2,0:0:0:0:
392,88,88813,2,0,P|436:88|476:108,1,88.000002685547,0|0,0:0|0:0,0:0:0:0:
500,156,89170,1,8,0:0:0:0:
500,156,89289,2,0,P|500:200|480:240,1,88.000002685547,2|0,0:0|0:0,0:0:0:0:
432,264,89646,1,0,0:0:0:0:
432,264,89765,2,0,P|388:264|348:244,1,88.000002685547,2|0,0:0|0:0,0:0:0:0:
304,216,90123,2,0,L|212:216,1,88.000002685547,8|2,0:0|0:0,0:0:0:0:
168,100,90599,6,0,L|256:100,1,88.000002685547,2|0,0:0|0:0,0:0:0:0:
356,132,91075,2,0,P|364:92|352:48,1,88.000002685547,8|2,0:0|0:0,0:0:0:0:
256,100,91551,2,0,P|248:140|260:184,1,88.000002685547,2|0,0:0|0:0,0:0:0:0:
292,228,91908,1,2,0:0:0:0:
292,228,92027,1,8,0:0:0:0:
352,312,92265,1,2,0:0:0:0:
196,272,92504,6,0,L|108:272,1,88.000002685547,2|0,0:0|0:0,0:0:0:0:
40,192,92980,2,0,P|32:152|44:104,1,88.000002685547,8|2,0:0|0:0,0:0:0:0:
128,44,93456,2,0,B|152:36|176:40|172:48|192:56|224:44,1,88.000002685547,2|0,0:0|0:0,0:0:0:0:
260,20,93813,1,2,0:0:0:0:
260,20,93932,2,0,B|284:12|308:16|304:24|324:32|356:20,1,88.000002685547,8|2,0:0|0:0,0:0:0:0:
436,80,94408,6,0,L|436:172,1,88.000002685547,2|0,0:0|0:0,0:0:0:0:
476,264,94884,2,0,P|432:276|392:264,1,88.000002685547,8|2,0:0|0:0,0:0:0:0:
352,228,95242,1,0,0:0:0:0:
352,228,95361,2,0,P|308:216|268:228,1,88.000002685547,2|0,0:0|0:0,0:0:0:0:
224,256,95718,1,0,0:0:0:0:
224,256,95837,2,0,L|136:256,1,88.000002685547,8|2,0:0|0:0,0:0:0:0:
40,176,96313,5,4,0:0:0:0:
104,68,96551,2,0,L|100:16,2,51.999997619629,2|0|4,0:0|0:0|0:0,0:0:0:0:
139,204,97027,2,0,L|135:256,1,51.999997619629,2|0,0:0|0:0,0:0:0:0:
92,300,97265,6,0,P|136:288|192:304,1,103.999995239258,8|8,0:1|0:1,0:0:0:0:
300,368,97742,1,8,0:1:0:0:
300,368,97861,1,8,0:1:0:0:
300,368,97980,1,4,0:3:0:0:
380,248,98218,6,0,L|380:120,1,120,4|0,0:0|0:0,0:0:0:0:
404,84,98694,2,0,P|360:92|328:80,1,80,2|0,0:3|0:0,0:0:0:0:
244,36,99170,2,0,B|204:20|184:32|188:40|160:52|124:36,1,120,8|0,0:0|0:0,0:0:0:0:
84,16,99646,2,0,L|84:96,1,80,2|0,0:3|0:0,0:0:0:0:
24,212,100123,6,0,P|72:232|136:216,1,120,8|0,0:0|0:0,0:0:0:0:
168,180,100599,2,0,L|168:260,1,80,2|0,0:3|0:0,0:0:0:0:
256,328,101075,2,0,L|336:324,1,80,8|0,0:0|0:0,0:0:0:0:
384,320,101432,1,0,0:3:0:0:
384,320,101551,2,0,L|464:316,1,80,2|2,0:3|0:0,0:0:0:0:
468,172,102027,6,0,L|344:180,1,120,8|0,0:0|0:0,0:0:0:0:
304,200,102503,2,0,P|312:164|300:120,1,80,2|2,0:3|0:0,0:0:0:0:
216,80,102979,2,0,L|92:88,1,120,8|2,0:0|0:0,0:0:0:0:
52,108,103455,2,0,P|60:72|48:28,1,80,2|2,0:3|0:0,0:0:0:0:
28,192,103932,6,0,L|28:272,1,80,8|0,0:0|0:0,0:0:0:0:
92,344,104408,2,0,P|132:356|168:344,1,80,2|0,0:3|0:0,0:0:0:0:
256,308,104884,2,0,P|296:296|332:308,1,80,8|0,0:0|0:0,0:0:0:0:
368,336,105241,1,0,0:3:0:0:
368,336,105360,2,0,L|448:336,1,80,2|2,0:3|0:0,0:0:0:0:
512,224,105836,6,0,L|432:224,1,80,8|0,0:3|0:0,0:0:0:0:
356,164,106313,2,0,P|344:128|356:88,1,80,2|0,0:0|0:0,0:0:0:0:
256,20,106789,2,0,P|268:56|256:96,1,80,8|2,0:0|0:0,0:0:0:0:
220,128,107146,1,2,0:0:0:0:
220,128,107265,2,0,L|140:128,1,80,8|2,0:0|0:0,0:0:0:0:
76,256,107741,6,0,L|156:256,1,80,2|0,0:3|0:0,0:0:0:0:
248,224,108217,2,0,P|256:264|244:304,1,80,8|0,0:0|0:0,0:0:0:0:
156,256,108694,2,0,P|148:216|160:176,1,80,2|2,0:3|0:0,0:0:0:0:
180,136,109051,1,2,0:0:0:0:
180,136,109170,2,0,L|100:136,1,80,8|2,0:0|0:0,0:0:0:0:
216,52,109646,6,0,L|296:52,1,80,2|2,0:3|0:0,0:0:0:0:
368,116,110122,2,0,P|380:152|368:192,1,80,8|2,0:0|0:0,0:0:0:0:
332,280,110598,2,0,P|320:316|332:356,1,80,2|2,0:3|0:0,0:0:0:0:
369,192,111075,2,0,P|333:180|293:192,1,80,8|2,0:0|0:0,0:0:0:0:
216,248,111551,6,0,P|144:244|208:152,1,240,2|2,0:3|0:0,0:0:0:0:
252,172,112384,1,2,0:0:0:0:
294,192,112503,2,0,P|308:236|304:276,1,80,8|2,0:0|0:0,0:0:0:0:
256,352,112979,1,4,0:0:0:0:
256,352,113456,6,0,L|320:352,1,64,8|2,0:3|0:0,0:0:0:0:
388,316,113932,2,0,L|452:316,1,64,8|0,0:0|0:0,0:0:0:0:
504,260,114408,2,0,P|508:232|504:196,1,64,8|0,0:0|0:0,0:0:0:0:
488,164,114765,1,0,0:0:0:0:
488,164,114884,2,0,P|484:136|488:100,1,64,8|0,0:0|0:0,0:0:0:0:
384,52,115360,6,0,L|316:52,1,64,8|0,0:0|0:0,0:0:0:0:
256,148,115836,2,0,L|320:148,1,64,8|0,0:0|0:0,0:0:0:0:
384,192,116313,2,0,P|408:244|380:304,1,128,8|8,0:0|0:0,0:0:0:0:
330,246,117027,1,0,0:0:0:0:
256,148,117265,6,0,B|256:48|256:48|280:72,1,128,8|8,0:0|0:0,0:0:0:0:
336,116,117979,1,0,0:0:0:0:
336,116,118217,2,0,B|356:136|356:136|356:36,1,128,8|8,0:0|0:0,0:0:0:0:
256,104,118932,1,0,0:0:0:0:
256,104,119170,6,0,B|228:116|192:108|196:100|160:92|128:104,1,128,8|10,0:0|0:0,0:0:0:0:
72,156,119884,1,0,0:0:0:0:
72,156,120122,2,0,P|56:212|80:276,1,128,8|10,0:0|0:0,0:0:0:0:
220,340,121075,6,0,L|284:340,1,64,8|2,0:0|0:0,0:0:0:0:
336,284,121551,2,0,L|400:284,1,64,8|0,0:0|0:0,0:0:0:0:
444,220,122027,2,0,P|452:188|444:156,1,64,8|2,0:0|0:0,0:0:0:0:
420,120,122384,1,0,0:0:0:0:
420,120,122503,2,0,L|352:120,1,64,8|2,0:0|0:0,0:0:0:0:
256,192,122979,6,0,L|320:192,1,64,8|2,0:0|0:0,0:0:0:0:
360,256,123456,2,0,P|368:288|360:320,1,64,8|0,0:0|0:0,0:0:0:0:
292,352,123932,2,0,B|264:364|228:356|232:348|196:340|164:352,1,128,8|8,0:0|0:0,0:0:0:0:
104,308,124646,1,2,0:0:0:0:
160,208,124884,6,0,L|160:136,1,64,8|2,0:0|0:0,0:0:0:0:
132,72,125360,2,0,P|164:64|196:72,1,64,8|0,0:0|0:0,0:0:0:0:
248,124,125836,2,0,P|280:132|312:124,1,64,8|2,0:0|0:0,0:0:0:0:
376,84,126313,2,0,P|408:76|440:84,1,64,8|2,0:0|0:0,0:0:0:0:
512,216,127027,6,0,L|512:280,1,64,2|0,0:0|0:0,0:0:0:0:
456,332,127503,1,2,0:0:0:0:
384,272,127741,6,0,P|352:268|316:272,1,64,8|8,0:1|0:1,0:0:0:0:
220,316,128217,1,8,0:1:0:0:
220,316,128336,1,8,0:1:0:0:
220,316,128456,1,4,0:3:0:0:
40,192,128694,6,0,L|40:104,1,88.000002685547,4|0,0:0|0:0,0:0:0:0:
124,168,129170,2,0,L|124:80,1,88.000002685547,4|0,0:0|0:0,0:0:0:0:
212,140,129646,2,0,L|212:52,1,88.000002685547,4|0,0:0|0:0,0:0:0:0:
312,20,130122,2,0,P|356:12|400:20,1,88.000002685547,8|2,0:0|0:0,0:0:0:0:
460,156,130598,6,0,P|416:164|372:156,1,88.000002685547,2|0,0:0|0:0,0:0:0:0:
288,96,131075,2,0,L|200:96,1,88.000002685547,8|2,0:0|0:0,0:0:0:0:
156,192,131551,2,0,L|244:192,1,88.000002685547,2|0,0:0|0:0,0:0:0:0:
284,228,131908,1,2,0:0:0:0:
284,228,132027,2,0,P|296:268|284:312,1,88.000002685547,8|2,0:0|0:0,0:0:0:0:
128,288,132503,6,0,L|216:272,1,88.000002685547,4|0,0:0|0:0,0:0:0:0:
368,312,132979,2,0,P|328:324|284:312,1,88.000002685547,4|0,0:0|0:0,0:0:0:0:
308,160,133456,2,0,L|324:248,1,88.000002685547,4|0,0:0|0:0,0:0:0:0:
408,184,133932,2,0,L|393:98,1,88.000002685547,8|2,0:0|0:0,0:0:0:0:
312,28,134408,6,0,B|264:8|224:28|228:36|200:52|140:36,1,176.000005371094,2|8,0:0|0:0,0:0:0:0:
52,92,135122,1,0,0:0:0:0:
52,92,135360,2,0,B|32:140|52:180|60:176|76:204|60:264,1,176.000005371094,2|8,0:0|0:0,0:0:0:0:
12,360,136075,1,2,0:0:0:0:
204,324,136313,6,0,L|116:328,1,88.000002685547,4|0,0:0|0:0,0:0:0:0:
272,364,136789,2,0,P|284:316|264:276,1,88.000002685547,4|0,0:0|0:0,0:0:0:0:
196,160,137265,2,0,L|200:248,1,88.000002685547,4|0,0:0|0:0,0:0:0:0:
292,200,137741,2,0,L|288:112,1,88.000002685547,8|2,0:0|0:0,0:0:0:0:
248,16,138217,6,0,P|288:4|332:16,1,88.000002685547,0|2,0:0|0:0,0:0:0:0:
452,96,138694,2,0,P|412:108|368:96,1,88.000002685547,8|2,0:0|0:0,0:0:0:0:
304,192,139170,2,0,L|304:280,1,88.000002685547,2|0,0:0|0:0,0:0:0:0:
208,320,139646,2,0,L|208:232,1,88.000002685547,8|2,0:0|0:0,0:0:0:0:
164,84,140122,6,0,P|204:72|248:84,1,88.000002685547,4|0,0:0|0:0,0:0:0:0:
208,232,140598,2,0,P|196:192|208:148,1,88.000002685547,4|0,0:0|0:0,0:0:0:0:
360,192,141075,2,0,L|268:192,1,88.000002685547,4|0,0:0|0:0,0:0:0:0:
308,292,141551,2,0,L|396:292,1,88.000002685547,8|2,0:0|0:0,0:0:0:0:
480,232,142027,6,0,P|492:192|480:148,1,88.000002685547,2|0,0:0|0:0,0:0:0:0:
512,48,142503,2,0,P|472:36|428:48,1,88.000002685547,8|0,0:0|0:0,0:0:0:0:
336,100,142980,2,0,L|244:100,1,88.000002685547,8|8,0:1|0:1,0:0:0:0:
156,48,143456,1,8,0:1:0:0:
156,48,143575,1,8,0:1:0:0:
156,48,143694,1,4,0:3:0:0:
48,176,143932,6,0,L|48:256,1,80,4|0,0:0|0:0,0:0:0:0:
112,328,144408,2,0,P|152:336|192:328,1,80,2|0,0:0|0:0,0:0:0:0:
256,260,144884,2,0,P|296:252|336:260,1,80,8|0,0:0|0:0,0:0:0:0:
416,312,145361,2,0,L|416:232,1,80,2|0,0:0|0:0,0:0:0:0:
464,148,145837,6,0,L|464:68,1,80,8|0,0:0|0:0,0:0:0:0:
376,24,146313,2,0,P|336:16|296:24,1,80,2|0,0:0|0:0,0:0:0:0:
256,108,146789,2,0,P|216:116|176:108,1,80,8|0,0:0|0:0,0:0:0:0:
136,88,147146,1,0,0:0:0:0:
136,88,147265,2,0,L|136:168,1,80,2|0,0:0|0:0,0:0:0:0:
188,264,147742,5,8,0:0:0:0:
244,172,147980,1,0,0:0:0:0:
136,168,148218,1,2,0:0:0:0:
185,276,148456,5,0,0:0:0:0:
256,168,148694,1,8,0:0:0:0:
120,172,148932,1,0,0:0:0:0:
120,172,149051,1,0,0:0:0:0:
120,172,149170,1,2,0:0:0:0:
284,240,149408,6,0,L|364:240,1,80,0|8,0:0|0:0,0:0:0:0:
412,156,149884,2,0,L|332:156,1,80,0|2,0:0|0:0,0:0:0:0:
264,84,150361,1,0,0:0:0:0:
332,156,150599,2,0,P|344:192|332:232,1,80,8|2,0:0|0:0,0:0:0:0:
244,268,151075,2,0,P|232:232|244:192,1,80,8|2,0:0|0:0,0:0:0:0:
280,336,151551,6,0,P|244:348|204:336,1,80,8|0,0:3|0:0,0:0:0:0:
124,284,152027,1,2,0:0:0:0:
243,192,152265,2,0,P|255:228|243:268,1,80,0|8,0:0|0:0,0:0:0:0:
204,336,152742,1,2,0:0:0:0:
328,272,152980,2,0,L|408:272,1,80,8|0,0:0|0:0,0:0:0:0:
243,192,153456,6,0,L|163:192,1,80,2|0,0:0|0:0,0:0:0:0:
88,132,153932,2,0,P|76:96|88:56,1,80,8|0,0:0|0:0,0:0:0:0:
163,192,154408,2,0,P|175:228|163:268,1,80,2|0,0:0|0:0,0:0:0:0:
140,308,154765,1,2,0:0:0:0:
140,308,154884,2,0,L|220:308,1,80,8|0,0:0|0:0,0:0:0:0:
380,228,155361,6,0,L|300:228,1,80,2|0,0:0|0:0,0:0:0:0:
224,172,155837,2,0,P|212:136|224:96,1,80,8|0,0:0|0:3,0:0:0:0:
304,44,156313,2,0,L|384:44,1,80,2|0,0:0|0:0,0:0:0:0:
460,100,156789,2,0,P|472:136|460:176,1,80,8|2,0:0|0:0,0:0:0:0:
404,252,157265,6,0,P|404:328|480:252,1,240,2|0,0:0|0:0,0:0:0:0:
472,216,158099,1,2,0:0:0:0:
440,184,158218,2,0,P|396:176|360:192,1,80,2|0,0:3|0:0,0:0:0:0:
288,244,158694,1,4,0:0:0:0:
288,244,159170,6,0,L|224:244,1,64,8|0,0:3|0:0,0:0:0:0:
168,192,159646,2,0,P|160:164|168:128,1,64,8|0,0:0|0:0,0:0:0:0:
228,84,160123,2,0,P|236:56|228:20,1,64,8|0,0:0|0:0,0:0:0:0:
196,4,160480,1,0,0:0:0:0:
196,4,160599,2,0,L|132:4,1,64,8|0,0:0|0:0,0:0:0:0:
228,84,161075,6,0,L|292:84,1,64,10|0,0:0|0:0,0:0:0:0:
364,52,161551,2,0,P|376:80|368:116,1,64,8|0,0:0|0:0,0:0:0:0:
316,164,162027,2,0,P|292:216|320:276,1,128,8|8,0:0|0:0,0:0:0:0:
372,332,162742,1,0,0:0:0:0:
260,364,162980,6,0,L|196:364,1,64,8|0,0:0|0:0,0:0:0:0:
172,292,163456,2,0,L|108:292,1,64,8|2,0:0|0:0,0:0:0:0:
52,236,163932,2,0,P|44:200|56:176,1,64,8|0,0:0|0:0,0:0:0:0:
80,148,164289,1,0,0:0:0:0:
80,148,164408,2,0,P|88:112|76:88,1,64,8|2,0:0|0:0,0:0:0:0:
168,20,164884,6,0,B|196:4|236:16|228:24|252:36|300:20,1,128,8|10,0:0|0:0,0:0:0:0:
364,48,165599,1,0,0:0:0:0:
424,100,165837,2,0,B|440:128|428:168|420:160|408:184|424:232,1,128,8|10,0:0|0:0,0:0:0:0:
320,340,166789,6,0,L|256:340,1,64,8|0,0:0|0:0,0:0:0:0:
196,292,167265,2,0,L|132:292,1,64,8|0,0:0|0:0,0:0:0:0:
76,240,167742,2,0,P|72:208|80:176,1,64,8|0,0:0|0:0,0:0:0:0:
96,144,168099,1,0,0:0:0:0:
96,144,168218,2,0,P|100:112|92:80,1,64,8|2,0:0|0:0,0:0:0:0:
208,36,168694,5,10,0:0:0:0:
284,56,168932,1,0,0:0:0:0:
360,76,169170,1,0,0:0:0:0:
420,176,169408,5,10,0:0:0:0:
344,156,169646,1,0,0:0:0:0:
268,136,169884,1,0,0:0:0:0:
168,192,170123,5,10,0:0:0:0:
244,212,170361,1,0,0:0:0:0:
320,232,170599,6,0,P|328:264|320:296,1,64,8|2,0:0|0:0,0:0:0:0:
348,364,171075,2,0,P|316:372|284:364,1,64,8|2,0:0|0:0,0:0:0:0:
228,316,171551,2,0,P|196:308|164:316,1,64,8|0,0:0|0:0,0:0:0:0:
96,348,172027,2,0,L|32:348,1,64,8|0,0:0|0:0,0:0:0:0:
166,314,172504,5,2,0:0:0:0:
166,314,173456,6,0,L|164:232,1,80,8|8,0:1|0:1,0:0:0:0:
112,156,173932,1,8,0:1:0:0:
112,156,174051,1,8,0:1:0:0:
112,156,174170,1,4,0:3:0:0:
256,252,174408,6,0,P|300:264|348:252,1,95.9999970703126,4|0,0:0|0:0,0:0:0:0:
348,136,174884,2,0,P|302:124|256:136,1,95.9999970703126,4|0,0:0|0:0,0:0:0:0:
256,252,175361,2,0,L|256:348,1,95.9999970703126,4|2,0:0|0:0,0:0:0:0:
164,280,175837,2,0,L|164:184,1,95.9999970703126,8|2,0:0|0:0,0:0:0:0:
116,80,176313,6,0,P|161:68|207:80,1,95.9999970703126,2|0,0:0|0:0,0:0:0:0:
300,148,176789,2,0,P|345:159|391:147,1,95.9999970703126,8|0,0:0|0:0,0:0:0:0:
476,68,177265,2,0,L|492:164,1,95.9999970703126,4|0,0:0|0:0,0:0:0:0:
452,204,177623,2,0,L|468:300,1,95.9999970703126,4|0,0:0|0:0,0:0:0:0:
476,356,177980,1,4,0:0:0:0:
372,304,178218,6,0,L|276:316,1,95.9999970703126,4|0,0:0|0:0,0:0:0:0:
228,212,178694,2,0,L|324:224,1,95.9999970703126,4|0,0:0|0:0,0:0:0:0:
368,116,179170,2,0,L|272:128,1,95.9999970703126,4|0,0:0|0:0,0:0:0:0:
160,148,179646,1,8,0:0:0:0:
224,244,179884,1,2,0:0:0:0:
224,244,180004,1,2,0:0:0:0:
224,244,180123,6,0,P|272:256|316:244,1,95.9999970703126,2|2,0:0|0:0,0:0:0:0:
364,212,180480,1,2,0:0:0:0:
364,212,180599,2,0,P|412:200|456:212,1,95.9999970703126,8|2,0:0|0:0,0:0:0:0:
508,108,181075,2,0,L|508:12,2,95.9999970703126,2|2|8,0:0|0:0|0:0,0:0:0:0:
455,211,181789,1,2,0:0:0:0:
364,140,182027,6,0,L|264:144,1,95.9999970703126,4|0,0:0|0:0,0:0:0:0:
196,52,182504,2,0,L|296:56,1,95.9999970703126,4|0,0:0|0:0,0:0:0:0:
288,172,182980,2,0,L|188:176,1,95.9999970703126,4|2,0:0|0:0,0:0:0:0:
80,148,183456,2,0,P|68:104|84:56,1,95.9999970703126,8|2,0:0|0:0,0:0:0:0:
192,175,183932,6,0,P|204:219|188:267,1,95.9999970703126,0|2,0:0|0:0,0:0:0:0:
112,352,184408,2,0,L|16:352,1,95.9999970703126,8|0,0:0|0:0,0:0:0:0:
188,265,184884,2,0,L|284:265,1,95.9999970703126,4|0,0:0|0:0,0:0:0:0:
332,300,185242,2,0,L|428:300,1,95.9999970703126,4|0,0:0|0:0,0:0:0:0:
480,328,185599,1,4,0:0:0:0:
372,192,185837,6,0,P|360:148|376:100,1,95.9999970703126,4|0,0:0|0:0,0:0:0:0:
492,100,186313,2,0,P|504:144|488:192,1,95.9999970703126,4|0,0:0|0:0,0:0:0:0:
372,192,186789,2,0,L|276:192,1,95.9999970703126,4|0,0:0|0:0,0:0:0:0:
208,100,187265,2,0,L|304:100,1,95.9999970703126,8|0,0:3|0:0,0:0:0:0:
144,52,187742,6,0,P|128:96|140:144,1,95.9999970703126,2|0,0:0|0:0,0:0:0:0:
204,236,188218,2,0,P|220:280|208:328,1,95.9999970703126,8|0,0:0|0:0,0:0:0:0:
176,372,188575,1,2,0:0:0:0:
176,372,188694,2,0,L|272:372,1,95.9999970703126,8|0,0:0|0:0,0:0:0:0:
376,324,189170,1,8,0:0:0:0:
480,276,189408,1,2,0:0:0:0:
378,210,189646,6,0,P|366:170|458:174,1,160,8|0,0:3|0:0,0:0:0:0:
