osu file format v14

[General]
AudioFilename: audio.mp3
AudioLeadIn: 0
PreviewTime: 66879
Countdown: 0
SampleSet: Soft
StackLeniency: 0.5
Mode: 0
LetterboxInBreaks: 0
WidescreenStoryboard: 0

[Editor]
DistanceSpacing: 1.2
BeatDivisor: 4
GridSize: 4
TimelineZoom: 1.8

[Metadata]
Title:Heart Attack
TitleUnicode:심쿵해
Artist:AOA
ArtistUnicode:AOA
Creator:Marianna
Version:A Very Pink Insane
Source:
Tags:Ace of Angels FNC Entertainment Choa Jimin Yuna Hyejeong Mina Seolhyun Chanmi 초아 지민 유나 혜정 민아 설현 찬미
BeatmapID:1359113
BeatmapSetID:640859

[Difficulty]
HPDrainRate:6
CircleSize:4
OverallDifficulty:7.7
ApproachRate:8.4
SliderMultiplier:1.8
SliderTickRate:1

[Events]
//Background and Video events
Video,0,"AoA-HA.avi"
0,0,"bg.jpg",0,0
//Break Periods
//Storyboard Layer 0 (Background)
//Storyboard Layer 1 (Fail)
//Storyboard Layer 2 (Pass)
//Storyboard Layer 3 (Foreground)
//Storyboard Sound Samples

[TimingPoints]
4885,476.190476190476,4,2,1,65,1,0
4885,-111.111111111111,4,2,1,65,0,0
21075,-111.111111111111,4,2,1,65,0,0
22027,-100,4,2,1,85,0,0
24170,-83.3333333333333,4,2,1,85,0,0
24289,-83.3333333333333,4,2,1,20,0,0
24408,-100,4,2,1,85,0,0
27742,-90.9090909090909,4,2,1,85,0,0
29646,-100,4,2,1,85,0,0
31789,-83.3333333333333,4,2,1,85,0,0
31908,-83.3333333333333,4,2,1,85,0,0
32027,-100,4,2,1,85,0,0
35361,-90.9090909090909,4,2,1,85,0,0
36789,-111.111111111111,4,2,1,85,0,0
37265,-100,4,2,1,85,0,0
52027,-66.6666666666667,4,2,1,85,0,0
52504,-125,4,2,1,75,0,0
66789,-66.6666666666667,4,2,1,65,0,0
67742,-83.3333333333333,4,2,1,100,0,1
82980,-90.9090909090909,4,2,1,85,0,0
93456,-76.9230769230769,4,2,1,85,0,0
93932,-66.6666666666667,4,2,1,85,0,0
94408,-90.9090909090909,4,2,1,85,0,0
96313,-76.9230769230769,4,2,1,85,0,0
97265,-76.9230769230769,4,2,1,75,0,0
98218,-100,4,2,1,85,0,0
112980,-66.6666666666667,4,2,1,85,0,0
113456,-125,4,2,1,75,0,0
127742,-66.6666666666667,4,2,1,65,0,0
128694,-83.3333333333333,4,2,1,80,0,1
142980,-66.6666666666667,4,2,1,80,0,1
143932,-90.9090909090909,4,2,1,85,0,0
158694,-66.6666666666667,4,2,1,85,0,0
159170,-125,4,2,1,75,0,0
173456,-66.6666666666667,4,2,1,65,0,0
174408,-83.3333333333333,4,2,1,100,0,1
177265,-50,4,2,1,100,0,1
178099,-50,4,2,1,5,0,1
178218,-83.3333333333333,4,2,1,100,0,1
179884,-66.6666666666667,4,2,1,100,0,1
181075,-62.5,4,2,1,100,0,1
182027,-83.3333333333333,4,2,1,100,0,1
184884,-50,4,2,1,100,0,1
185718,-50,4,2,1,5,0,1
185837,-83.3333333333333,4,2,1,100,0,1
189646,-200,4,2,1,100,0,0
189765,-200,4,2,1,5,0,0

[Colours]
Combo1 : 255,0,128
Combo2 : 230,66,82
Combo3 : 211,172,213
Combo4 : 180,71,220
SliderBorder : 190,31,167
SliderTrackOverride : 236,196,233

[HitObjects]
104,136,4884,6,0,B|140:112|172:128|164:136|200:152|232:136,1,135,4|0,0:0|0:0,0:0:0:0:
272,108,5361,2,0,P|260:148|272:188,1,80.9999975280763,8|0,0:0|0:0,0:0:0:0:
332,260,5837,2,0,L|208:260,1,121.499996292114,2|0,0:0|0:0,0:0:0:0:
160,244,6313,2,0,P|172:284|160:320,1,80.9999975280763,8|0,0:0|0:0,0:0:0:0:
108,176,6789,6,0,P|161:154|220:176,1,121.499996292114,2|0,0:0|0:0,0:0:0:0:
256,200,7265,2,0,L|256:120,1,80.9999975280763,8|0,0:0|0:0,0:0:0:0:
316,40,7742,2,0,B|344:28|380:36|376:48|400:56|440:44,1,121.499996292114,2|0,0:0|0:0,0:0:0:0:
480,24,8218,2,0,L|480:104,1,80.9999975280763,8|2,0:0|0:0,0:0:0:0:
396,288,8694,6,0,L|396:164,1,121.499996292114,2|0,0:0|0:0,0:0:0:0:
408,120,9170,2,0,P|368:132|328:120,1,80.9999975280763,8|0,0:0|0:0,0:0:0:0:
256,60,9646,2,0,P|200:40|144:60,1,121.499996292114,2|0,0:0|0:0,0:0:0:0:
116,100,10123,2,0,L|116:180,1,80.9999975280763,8|0,0:0|0:0,0:0:0:0:
196,276,10599,6,0,B|224:288|260:280|256:268|280:260|320:272,1,121.499996292114,2|0,0:0|0:0,0:0:0:0:
360,288,11075,2,0,L|360:208,1,80.9999975280763,8|2,0:0|0:0,0:0:0:0:
416,128,11551,2,0,P|360:104|304:128,1,121.499996292114,2|0,0:0|0:0,0:0:0:0:
272,160,12027,2,0,L|272:80,1,80.9999975280763,8|0,0:0|0:0,0:0:0:0:
212,220,12504,6,0,P|268:244|324:220,1,121.499996292114,2|2,0:0|0:0,0:0:0:0:
356,188,12980,2,0,L|356:268,1,80.9999975280763,8|2,0:0|0:0,0:0:0:0:
288,340,13456,2,0,B|260:352|224:344|228:332|204:324|164:336,1,121.499996292114,2|0,0:0|0:0,0:0:0:0:
128,360,13932,2,0,P|140:320|128:284,1,80.9999975280763,8|2,0:0|0:0,0:0:0:0:
72,192,14408,6,0,P|60:152|72:116,1,80.9999975280763,2|0,0:0|0:0,0:0:0:0:
129,61,14884,1,8,0:0:0:0:
108,256,15123,2,0,P|68:268|32:256,1,80.9999975280763,2|8,0:0|0:0,0:0:0:0:
72,192,15599,1,2,0:0:0:0:
176,324,15837,2,0,L|256:320,1,80.9999975280763,8|2,0:0|0:0,0:0:0:0:
371,169,16313,6,0,B|395:194|443:194|485:132|424:69|381:97|353:117|353:117|319:139|281:145|237:123,1,323.999990112305,2|8,0:0|0:0,0:0:0:0:
228,8,17504,1,2,0:0:0:0:
228,8,17742,2,0,P|272:0|312:0,1,80.9999975280763,2|0,0:0|0:0,0:0:0:0:
396,140,18218,6,0,L|396:220,1,80.9999975280763,4|0,0:0|0:0,0:0:0:0:
396,320,18694,1,8,0:0:0:0:
308,192,18932,1,2,0:0:0:0:
308,192,19170,2,0,P|268:184|228:192,1,80.9999975280763,4|0,0:0|0:0,0:0:0:0:
216,204,19527,1,2,0:0:0:0:
200,216,19646,2,0,P|160:224|120:216,1,80.9999975280763,8|2,0:0|0:0,0:0:0:0:
12,144,20123,6,0,P|92:144|16:216,1,242.999992584229,4|0,0:0|0:0,0:0:0:0:
132,32,21075,6,0,L|176:32,1,40.4999987640381,8|0,0:1|0:0,0:0:0:0:
300,96,21313,2,0,L|256:96,1,40.4999987640381,8|0,0:1|0:0,0:0:0:0:
176,160,21551,1,8,0:1:0:0:
176,160,21670,1,8,0:1:0:0:
176,160,21789,1,4,0:3:0:0:
300,96,22027,6,0,L|300:4,1,90,4|0,0:0|0:0,0:0:0:0:
344,160,22504,2,0,P|304:172|256:160,1,90,8|0,0:0|0:0,0:0:0:0:
382,84,22980,2,0,P|425:73|468:86,1,90,2|0,0:3|0:0,0:0:0:0:
424,240,23456,2,0,L|424:150,1,90,8|0,0:0|0:0,0:0:0:0:
484,60,23932,1,2,0:3:0:0:
258,161,24170,6,0,L|202:161,1,53.9999983520508,2|0,0:0|0:0,0:0:0:0:
124,124,24408,6,0,P|108:84|124:40,1,90,8|0,0:0|0:0,0:0:0:0:
320,120,24884,2,0,P|336:160|320:204,1,90,2|0,0:3|0:0,0:0:0:0:
256,288,25361,2,0,L|164:288,1,90,8|0,0:0|0:0,0:0:0:0:
74,124,25837,6,0,L|164:124,1,90,2|0,0:3|0:0,0:0:0:0:
8,162,26313,2,0,P|-4:124|13:77,1,90,8|0,0:0|0:0,0:0:0:0:
76,200,26789,2,0,P|88:236|72:284,1,90,2|0,0:3|0:0,0:0:0:0:
56,300,27146,1,2,0:0:0:0:
40,316,27265,2,0,L|132:316,1,90,8|2,0:0|0:0,0:0:0:0:
336,192,27742,6,0,B|352:144|352:144|336:96,1,99.0000030212403,4|0,0:0|0:0,0:0:0:0:
284,260,28218,2,0,B|332:276|332:276|380:260,1,99.0000030212403,4|0,0:0|0:0,0:0:0:0:
208,212,28694,2,0,L|208:312,1,99.0000030212403,2|2,0:3|0:0,0:0:0:0:
268,148,29170,1,8,0:0:0:0:
128,192,29408,1,2,0:0:0:0:
336,192,29646,6,0,L|432:192,1,90,2|0,0:3|0:0,0:0:0:0:
444,176,30004,1,2,0:0:0:0:
456,160,30123,2,0,P|468:120|452:76,1,90,8|2,0:0|0:0,0:0:0:0:
336,192,30599,2,0,P|324:232|340:276,1,90,2|0,0:3|0:0,0:0:0:0:
404,360,31075,2,0,L|312:360,1,90,8|0,0:0|0:0,0:0:0:0:
232,292,31551,1,2,0:3:0:0:
336,192,31789,6,0,L|336:136,1,53.9999983520508,4|0,0:0|0:0,0:0:0:0:
380,52,32027,6,0,P|336:64|292:52,1,90,8|2,0:0|0:0,0:0:0:0:
124,36,32504,2,0,P|168:24|212:36,1,90,2|2,0:3|0:0,0:0:0:0:
168,104,32861,1,0,0:0:0:0:
168,104,32980,2,0,P|124:116|80:104,1,90,8|2,0:0|0:0,0:0:0:0:
60,248,33456,6,0,L|60:340,1,90,2|2,0:3|0:0,0:0:0:0:
100,184,33932,2,0,P|60:172|12:188,1,90,8|2,0:0|0:0,0:0:0:0:
136,256,34408,2,0,L|228:256,1,90,2|2,0:3|0:0,0:0:0:0:
312,192,34884,2,0,P|324:152|308:104,1,90,8|0,0:0|0:0,0:0:0:0:
156,56,35361,6,0,P|136:104|152:152,1,99.0000030212403,4|0,0:0|0:0,0:0:0:0:
310,107,35837,2,0,L|208:108,1,99.0000030212403,4|0,0:0|0:0,0:0:0:0:
312,192,36313,1,4,0:0:0:0:
312,16,36551,1,0,0:0:0:0:
148,148,36789,6,0,L|148:236,1,80.9999975280763,10|2,0:0|0:0,0:0:0:0:
300,328,37265,6,0,B|340:344|368:328|360:320|388:300|436:320,1,135,4|0,0:0|0:0,0:0:0:0:
500,236,37742,2,0,P|512:192|496:152,1,90,2|2,0:3|0:0,0:0:0:0:
304,196,38218,2,0,L|448:196,1,135,8|2,0:0|0:0,0:0:0:0:
360,32,38694,2,0,P|348:76|364:116,1,90,2|2,0:3|0:0,0:0:0:0:
512,72,39170,6,0,L|420:72,1,90,8|2,0:0|0:0,0:0:0:0:
200,0,39646,2,0,L|290:0,1,90,2|2,0:3|0:0,0:0:0:0:
168,132,40123,2,0,L|76:128,1,90,8|0,0:0|0:0,0:0:0:0:
36,200,40480,2,0,L|98:267,1,90,2|0,0:3|0:0,0:0:0:0:
180,252,40837,2,0,L|200:197,1,45,2|0,0:0|0:0,0:0:0:0:
256,340,41075,6,0,B|360:340|360:340|336:316,1,135,8|0,0:0|0:0,0:0:0:0:
284,180,41551,2,0,P|268:224|284:268,1,90,2|2,0:3|0:0,0:0:0:0:
473,224,42027,2,0,B|437:204|401:216|413:224|381:240|341:224,1,135,8|0,0:0|0:0,0:0:0:0:
369,68,42504,2,0,P|385:112|369:156,1,90,2|2,0:3|0:0,0:0:0:0:
220,112,42980,6,0,L|312:112,1,90,8|0,0:0|0:0,0:0:0:0:
152,152,43456,2,0,P|140:116|156:68,1,90,2|0,0:3|0:0,0:0:0:0:
232,208,43932,2,0,P|244:244|228:292,1,90,8|0,0:0|0:0,0:0:0:0:
151,241,44289,2,0,L|152:146,1,90,2|0,0:3|0:0,0:0:0:0:
264,80,44646,2,0,L|264:124,1,45,2|0,0:0|0:0,0:0:0:0:
372,244,44884,6,0,L|371:149,1,90,2|0,0:3|0:0,0:0:0:0:
419,55,45361,2,0,P|375:43|331:55,1,90,8|0,0:0|0:0,0:0:0:0:
200,168,45837,2,0,P|244:180|288:168,1,90,2|2,0:3|0:0,0:0:0:0:
244,96,46194,1,2,0:0:0:0:
244,96,46313,2,0,P|200:84|156:96,1,90,8|2,0:0|0:0,0:0:0:0:
64,240,46789,6,0,L|64:332,1,90,2|0,0:3|0:0,0:0:0:0:
158,184,47265,2,0,L|158:94,1,90,8|0,0:0|0:0,0:0:0:0:
236,16,47742,2,0,P|280:4|324:16,1,90,2|2,0:3|0:0,0:0:0:0:
396,52,48099,1,2,0:0:0:0:
396,52,48218,2,0,P|440:64|484:52,1,90,8|2,0:0|0:0,0:0:0:0:
512,212,48694,6,0,L|512:304,1,90,2|0,0:3|0:0,0:0:0:0:
396,142,49170,2,0,L|396:52,1,90,8|2,0:0|0:0,0:0:0:0:
352,208,49646,2,0,P|392:220|440:208,1,90,2|2,0:3|0:0,0:0:0:0:
324,140,50004,1,2,0:0:0:0:
324,140,50123,2,0,P|284:128|236:140,1,90,8|0,0:0|0:0,0:0:0:0:
88,312,50599,6,0,P|152:312|68:240,1,270,2|2,0:0|0:0,0:0:0:0:
4,276,51432,1,2,0:0:0:0:
16,260,51551,2,0,P|28:220|16:172,1,90,2|2,0:3|0:0,0:0:0:0:
84,0,52027,6,0,B|48:92|72:140|116:144|156:68|112:68,1,202.500007724762,4|0,0:0|0:0,0:0:0:0:
216,24,52504,6,0,L|288:24,1,72,8|2,0:3|0:0,0:0:0:0:
364,60,52980,2,0,L|436:60,1,72,8|0,0:0|0:0,0:0:0:0:
500,120,53456,2,0,P|508:156|500:192,1,72,8|0,0:0|0:0,0:0:0:0:
476,224,53813,1,0,0:0:0:0:
476,224,53932,2,0,P|468:260|476:296,1,72,8|0,0:0|0:0,0:0:0:0:
336,364,54408,6,0,L|408:364,1,72,8|0,0:0|0:0,0:0:0:0:
256,292,54884,2,0,L|184:292,1,72,8|0,0:0|0:0,0:0:0:0:
116,240,55361,2,0,P|108:204|116:168,1,72,8|0,0:0|0:0,0:0:0:0:
140,136,55718,1,0,0:0:0:0:
140,136,55837,2,0,P|148:100|140:64,1,72,8|0,0:0|0:0,0:0:0:0:
260,20,56313,6,0,L|332:20,1,72,8|0,0:0|0:0,0:0:0:0:
476,116,56789,2,0,L|404:116,1,72,8|0,0:0|0:0,0:0:0:0:
348,184,57265,2,0,P|340:220|348:256,1,72,8|0,0:0|0:0,0:0:0:0:
404,116,57742,2,0,P|412:80|404:44,1,72,8|2,0:0|0:0,0:0:0:0:
200,104,58218,6,0,B|244:120|268:96|264:88|296:68|336:84,1,144,8|10,0:0|0:0,0:0:0:0:
148,40,58932,1,0,0:0:0:0:
148,40,59170,2,0,P|120:88|148:168,1,144,8|10,0:0|0:0,0:0:0:0:
208,228,59884,1,0,0:0:0:0:
316,152,60123,6,0,L|388:152,1,72,8|0,0:0|0:0,0:0:0:0:
420,232,60599,2,0,L|348:232,1,72,8|0,0:0|0:0,0:0:0:0:
316,152,61075,2,0,P|308:116|316:80,1,72,8|0,0:0|0:0,0:0:0:0:
348,232,61551,2,0,P|356:268|348:304,1,72,8|0,0:0|0:0,0:0:0:0:
204,268,62027,6,0,L|276:268,1,72,8|0,0:0|0:0,0:0:0:0:
232,192,62504,2,0,L|160:192,1,72,8|0,0:0|0:0,0:0:0:0:
100,132,62980,2,0,P|92:96|100:60,1,72,8|0,0:0|0:0,0:0:0:0:
256,16,63456,2,0,P|264:49|256:88,1,72,8|0,0:0|0:0,0:0:0:0:
100,132,63932,6,0,L|28:132,1,72,8|0,0:0|0:0,0:0:0:0:
256,85,64408,2,0,L|328:85,1,72,8|0,0:0|0:0,0:0:0:0:
176,228,64884,2,0,L|104:228,1,72,8|0,0:0|0:0,0:0:0:0:
44,168,65242,1,0,0:0:0:0:
44,168,65361,1,0,0:0:0:0:
332,181,65599,6,0,L|404:181,1,72,8|0,0:0|0:0,0:0:0:0:
468,212,66075,2,0,P|476:179|468:143,1,72,2|0,0:0|0:0,0:0:0:0:
428,64,66551,1,2,0:0:0:0:
256,232,66789,6,0,L|256:300,1,67.5000025749208,8|0,0:1|0:0,0:0:0:0:
208,152,67027,2,0,L|208:84,1,67.5000025749208,8|0,0:1|0:0,0:0:0:0:
152,244,67265,1,8,0:1:0:0:
152,244,67384,1,8,0:1:0:0:
152,244,67504,1,4,0:3:0:0:
308,136,67742,6,0,P|356:120|412:140,1,107.999996704102,4|0,0:0|0:0,0:0:0:0:
408,268,68218,2,0,P|357:285|307:269,1,107.999996704102,4|0,0:0|0:0,0:0:0:0:
308,136,68694,2,0,L|308:28,1,107.999996704102,4|0,0:0|0:0,0:0:0:0:
409,134,69170,1,8,0:0:0:0:
208,84,69408,1,0,0:0:0:0:
409,134,69646,6,0,P|459:150|510:135,1,107.999996704102,2|0,0:0|0:0,0:0:0:0:
208,84,70123,2,0,P|157:67|106:82,1,107.999996704102,8|0,0:0|0:0,0:0:0:0:
40,128,70480,1,0,0:0:0:0:
40,128,70599,2,0,L|40:240,1,107.999996704102,2|2,0:0|0:0,0:0:0:0:
88,304,70956,1,0,0:0:0:0:
88,304,71075,2,0,L|144:300,1,53.9999983520508,8|0,0:0|0:0,0:0:0:0:
256,208,71313,2,0,L|200:204,1,53.9999983520508,2|0,0:0|0:0,0:0:0:0:
344,312,71551,6,0,P|396:332|444:312,1,107.999996704102,4|0,0:0|0:0,0:0:0:0:
396,160,72027,2,0,P|376:212|396:260,1,107.999996704102,4|0,0:0|0:0,0:0:0:0:
448,108,72504,2,0,L|340:108,1,107.999996704102,4|0,0:0|0:0,0:0:0:0:
260,68,72861,1,2,0:0:0:0:
260,68,72980,1,8,0:0:0:0:
300,192,73218,1,2,0:0:0:0:
448,108,73456,6,0,P|468:56|448:8,1,107.999996704102,2|0,0:0|0:0,0:0:0:0:
300,192,73932,2,0,P|280:244|300:292,1,107.999996704102,8|2,0:0|0:0,0:0:0:0:
464,240,74408,2,0,L|356:240,1,107.999996704102,2|0,0:0|0:0,0:0:0:0:
300,192,74765,1,2,0:0:0:0:
300,192,74884,2,0,L|308:136,1,53.9999983520508,8|0,0:0|0:0,0:0:0:0:
200,44,75123,2,0,L|208:100,1,53.9999983520508,2|0,0:0|0:0,0:0:0:0:
151,213,75361,6,0,P|99:229|47:213,1,107.999996704102,4|0,0:0|0:0,0:0:0:0:
105,96,75837,2,0,P|156:81|206:97,1,107.999996704102,4|0,0:0|0:0,0:0:0:0:
151,321,76313,2,0,L|151:213,1,107.999996704102,4|0,0:0|0:0,0:0:0:0:
207,97,76789,1,8,0:0:0:0:
49,214,77027,1,0,0:0:0:0:
207,97,77265,6,0,L|315:97,1,107.999996704102,2|0,0:0|0:0,0:0:0:0:
404,192,77742,2,0,L|296:192,1,107.999996704102,8|0,0:0|0:0,0:0:0:0:
207,97,78218,2,0,L|211:41,1,53.9999983520508,2|0,0:0|0:0,0:0:0:0:
112,128,78456,1,0,0:0:0:0:
112,128,78575,2,0,L|116:184,1,53.9999983520508,2|8,0:0|0:0,0:0:0:0:
204,232,78813,1,0,0:0:0:0:
204,232,78932,2,0,L|200:288,1,53.9999983520508,2|0,0:0|0:0,0:0:0:0:
324,352,79170,6,0,P|376:368|428:352,1,107.999996704102,4|0,0:0|0:0,0:0:0:0:
428,224,79646,2,0,P|376:209|326:225,1,107.999996704102,4|0,0:0|0:0,0:0:0:0:
228,312,80123,2,0,L|120:312,1,107.999996704102,4|0,0:0|0:0,0:0:0:0:
36,212,80599,1,8,0:0:0:0:
120,312,80837,1,0,0:0:0:0:
36,212,81075,6,0,P|24:164|40:108,1,107.999996704102,2|0,0:0|0:0,0:0:0:0:
244,28,81551,2,0,P|256:76|240:132,1,107.999996704102,8|0,0:0|0:0,0:0:0:0:
144,212,82027,2,0,L|36:212,1,107.999996704102,2|0,0:0|0:0,0:0:0:0:
240,131,82384,1,2,0:0:0:0:
240,131,82504,2,0,L|296:132,1,53.9999983520508,8|0,0:0|0:0,0:0:0:0:
424,44,82742,2,0,L|368:45,1,53.9999983520508,2|0,0:0|0:0,0:0:0:0:
293,131,82980,6,0,P|277:179|293:223,1,99.0000030212403,4|0,0:0|0:0,0:0:0:0:
344,296,83337,1,2,0:0:0:0:
344,296,83456,2,0,L|244:296,1,99.0000030212403,8|2,0:0|0:0,0:0:0:0:
360,176,83932,2,0,P|376:128|360:84,1,99.0000030212403,2|0,0:0|0:0,0:0:0:0:
309,11,84289,1,2,0:0:0:0:
309,11,84408,2,0,L|409:11,1,99.0000030212403,8|2,0:0|0:0,0:0:0:0:
293,131,84884,6,0,L|189:131,1,99.0000030212403,2|0,0:0|0:0,0:0:0:0:
360,176,85361,2,0,L|459:176,1,99.0000030212403,8|0,0:0|0:0,0:0:0:0:
293,131,85837,1,2,0:0:0:0:
293,131,85956,2,0,P|276:84|292:40,1,99.0000030212403,2|0,0:0|0:0,0:0:0:0:
359,84,86313,2,0,P|376:131|360:175,1,99.0000030212403,8|2,0:0|0:0,0:0:0:0:
256,248,86789,6,0,L|152:248,1,99.0000030212403,2|0,0:0|0:0,0:0:0:0:
48,292,87265,2,0,P|30:246|47:200,1,99.0000030212403,8|2,0:0|0:0,0:0:0:0:
100,128,87623,1,0,0:0:0:0:
100,128,87742,2,0,L|0:128,1,99.0000030212403,0|2,0:0|0:0,0:0:0:0:
72,32,88218,2,0,L|172:32,1,99.0000030212403,8|2,0:0|0:0,0:0:0:0:
100,228,88694,5,0,0:0:0:0:
100,228,88813,2,0,L|96:328,1,99.0000030212403,2|0,0:0|0:0,0:0:0:0:
184,236,89170,1,8,0:0:0:0:
184,236,89289,2,0,L|180:336,1,99.0000030212403,2|0,0:0|0:0,0:0:0:0:
260,338,89646,1,0,0:0:0:0:
260,338,89765,2,0,L|264:240,1,99.0000030212403,2|0,0:0|0:0,0:0:0:0:
344,212,90123,2,0,P|392:196|436:212,1,99.0000030212403,8|2,0:0|0:0,0:0:0:0:
264,240,90599,6,0,P|216:256|172:240,1,99.0000030212403,2|0,0:0|0:0,0:0:0:0:
92,152,91075,2,0,L|92:52,1,99.0000030212403,8|2,0:0|0:0,0:0:0:0:
172,240,91551,2,0,L|172:292,1,49.5000015106202,2|0,0:0|0:0,0:0:0:0:
220,176,91789,2,0,L|220:126,1,49.5000015106202,0|2,0:0|0:0,0:0:0:0:
264,240,92027,2,0,P|312:256|356:240,1,99.0000030212403,8|2,0:0|0:0,0:0:0:0:
480,128,92504,6,0,P|434:112|388:128,1,99.0000030212403,2|0,0:0|0:0,0:0:0:0:
355,240,92980,2,0,L|355:340,1,99.0000030212403,8|2,0:0|0:0,0:0:0:0:
388,128,93456,6,0,L|388:64,1,58.4999973220826,2|0,0:0|0:0,0:0:0:0:
260,0,93694,2,0,L|260:58,1,58.4999973220826,0|2,0:0|0:0,0:0:0:0:
172,192,93932,6,0,B|124:204|68:184|68:184|96:168,1,135.000005149842,8|2,0:0|0:0,0:0:0:0:
232,148,94289,1,0,0:0:0:0:
232,148,94408,6,0,P|248:196|232:240,1,99.0000030212403,2|0,0:0|0:0,0:0:0:0:
156,116,94884,2,0,P|140:68|156:24,1,99.0000030212403,8|2,0:0|0:0,0:0:0:0:
224,72,95242,1,0,0:0:0:0:
224,72,95361,2,0,L|324:72,1,99.0000030212403,2|0,0:0|0:0,0:0:0:0:
384,32,95718,1,0,0:0:0:0:
384,32,95837,2,0,L|484:32,1,99.0000030212403,8|2,0:0|0:0,0:0:0:0:
320,192,96313,6,0,L|328:252,1,58.4999973220826,4|0,0:0|0:0,0:0:0:0:
212,140,96551,1,2,0:0:0:0:
212,140,96670,1,0,0:0:0:0:
212,140,96789,2,0,L|204:200,1,58.4999973220826,4|0,0:0|0:0,0:0:0:0:
352,52,97027,1,2,0:0:0:0:
352,52,97146,1,0,0:0:0:0:
352,52,97265,6,0,L|360:112,1,58.4999973220826,8|0,0:1|0:0,0:0:0:0:
128,76,97504,2,0,L|136:16,1,58.4999973220826,8|0,0:1|0:0,0:0:0:0:
212,140,97742,1,8,0:1:0:0:
212,140,97861,1,8,0:1:0:0:
212,140,97980,1,4,0:3:0:0:
144,260,98218,6,0,B|104:276|72:264|84:256|56:240|8:260,1,135,4|0,0:0|0:0,0:0:0:0:
112,192,98694,2,0,L|112:100,1,90,2|0,0:3|0:0,0:0:0:0:
192,32,99170,2,0,P|252:8|316:32,1,135,8|0,0:0|0:0,0:0:0:0:
256,180,99646,2,0,L|256:80,1,90,2|0,0:3|0:0,0:0:0:0:
384,192,100123,6,0,L|384:328,1,135,8|0,0:0|0:0,0:0:0:0:
338,119,100599,2,0,P|382:107|426:119,1,90,2|0,0:3|0:0,0:0:0:0:
288,256,101075,2,0,L|196:252,1,90,8|0,0:0|0:0,0:0:0:0:
120,156,101432,2,0,L|212:152,1,90,2|0,0:3|0:0,0:0:0:0:
268,60,101789,2,0,L|223:56,1,45,2|0,0:0|0:0,0:0:0:0:
328,192,102027,6,0,B|368:208|400:196|388:188|416:172|464:192,1,135,8|0,0:0|0:0,0:0:0:0:
360,124,102504,2,0,L|360:32,1,90,2|2,0:3|0:0,0:0:0:0:
432,256,102980,2,0,P|460:316|432:376,1,135,8|2,0:0|0:0,0:0:0:0:
288,316,103456,2,0,L|384:316,1,90,2|2,0:3|0:0,0:0:0:0:
208,256,103932,6,0,L|116:256,1,90,8|0,0:0|0:0,0:0:0:0:
40,180,104408,2,0,P|28:140|44:96,1,90,2|0,0:3|0:0,0:0:0:0:
140,44,104765,1,0,0:0:0:0:
140,44,104884,2,0,L|192:48,1,45,8|0,0:0|0:0,0:0:0:0:
312,120,105123,1,0,0:0:0:0:
312,120,105242,2,0,L|260:124,1,45,0|2,0:3|0:3,0:0:0:0:
140,188,105480,1,0,0:0:0:0:
140,188,105599,2,0,L|192:192,1,45,2|0,0:0|0:3,0:0:0:0:
304,280,105837,6,0,L|396:280,1,90,8|0,0:3|0:0,0:0:0:0:
460,192,106313,2,0,P|472:152|456:108,1,90,2|0,0:0|0:0,0:0:0:0:
300,196,106789,2,0,P|288:236|304:280,1,90,8|2,0:0|0:0,0:0:0:0:
340,320,107146,1,2,0:0:0:0:
340,320,107265,2,0,L|248:320,1,90,8|2,0:0|0:0,0:0:0:0:
88,256,107742,6,0,L|178:256,1,90,2|0,0:3|0:0,0:0:0:0:
28,212,108218,2,0,P|12:256|28:300,1,90,8|0,0:0|0:0,0:0:0:0:
124,168,108694,2,0,P|140:124|124:80,1,90,2|2,0:3|0:0,0:0:0:0:
92,44,109051,1,2,0:0:0:0:
92,44,109170,2,0,L|184:44,1,90,8|2,0:0|0:0,0:0:0:0:
376,136,109646,6,0,L|286:136,1,90,2|2,0:3|0:0,0:0:0:0:
360,56,110123,1,8,0:0:0:0:
328,228,110361,1,2,0:0:0:0:
196,136,110599,2,0,L|286:136,1,90,2|2,0:3|0:0,0:0:0:0:
212,56,110956,1,2,0:0:0:0:
212,56,111076,1,8,0:0:0:0:
244,228,111314,1,2,0:0:0:0:
448,144,111551,6,0,P|448:52|376:136,1,270,2|2,0:3|0:0,0:0:0:0:
404,212,112384,1,2,0:0:0:0:
412,224,112504,2,0,P|452:232|500:216,1,90,8|2,0:0|0:0,0:0:0:0:
312,195,112980,6,0,B|220:159|172:183|168:227|244:267|244:223,1,202.500007724762,4|0,0:0|0:0,0:0:0:0:
288,100,113456,6,0,L|288:24,1,72,8|2,0:3|0:0,0:0:0:0:
204,12,113932,2,0,L|204:84,1,72,8|0,0:0|0:0,0:0:0:0:
144,144,114408,2,0,P|108:152|72:144,1,72,8|0,0:0|0:0,0:0:0:0:
40,120,114765,1,0,0:0:0:0:
40,120,114884,2,0,L|40:192,1,72,8|0,0:0|0:0,0:0:0:0:
112,304,115361,6,0,L|112:232,1,72,8|0,0:0|0:0,0:0:0:0:
152,156,115837,2,0,P|188:148|224:156,1,72,8|0,0:0|0:0,0:0:0:0:
296,200,116313,2,0,B|400:200|400:200|372:172,1,144,8|8,0:0|0:0,0:0:0:0:
308,112,117027,1,0,0:0:0:0:
256,272,117265,6,0,L|256:344,1,72,8|0,0:0|0:0,0:0:0:0:
336,312,117742,1,8,0:0:0:0:
176,312,117980,1,0,0:0:0:0:
336,312,118218,2,0,P|372:320|408:312,1,72,8|0,0:0|0:0,0:0:0:0:
464,192,118694,1,8,0:0:0:0:
405,312,118932,1,0,0:0:0:0:
464,192,119170,6,0,L|464:44,1,144,8|10,0:0|0:0,0:0:0:0:
256,168,119884,1,0,0:0:0:0:
256,168,120123,2,0,B|300:184|324:160|320:152|352:132|392:148,1,144,8|10,0:0|0:0,0:0:0:0:
464,192,120837,1,0,0:0:0:0:
256,168,121075,6,0,L|256:96,1,72,8|2,0:0|0:0,0:0:0:0:
176,60,121551,2,0,L|176:132,1,72,8|0,0:0|0:0,0:0:0:0:
112,192,122027,2,0,P|76:200|40:192,1,72,8|2,0:0|0:0,0:0:0:0:
8,168,122384,1,0,0:0:0:0:
8,168,122504,2,0,L|8:240,1,72,8|2,0:0|0:0,0:0:0:0:
76,124,122980,6,0,L|76:52,1,72,8|2,0:0|0:0,0:0:0:0:
152,12,123456,2,0,P|188:4|224:12,1,72,8|0,0:0|0:0,0:0:0:0:
296,56,123932,2,0,P|332:64|368:56,1,72,8|0,0:0|0:0,0:0:0:0:
404,36,124289,1,2,0:0:0:0:
404,36,124408,2,0,L|404:108,1,72,8|2,0:0|0:0,0:0:0:0:
276,192,124884,6,0,P|240:200|204:192,1,72,8|2,0:0|0:0,0:0:0:0:
404,108,125361,2,0,P|440:100|476:108,1,72,8|0,0:0|0:0,0:0:0:0:
276,236,125837,2,0,P|240:244|204:236,1,72,8|2,0:0|0:0,0:0:0:0:
144,192,126194,1,0,0:0:0:0:
144,192,126313,1,8,0:0:0:0:
360,236,126551,6,0,P|396:228|432:236,1,72,2|0,0:0|0:0,0:0:0:0:
473,151,127027,2,0,L|473:79,1,72,2|0,0:0|0:0,0:0:0:0:
412,16,127504,1,2,0:0:0:0:
256,88,127742,6,0,L|188:80,1,67.5000025749208,8|0,0:1|0:0,0:0:0:0:
304,200,127980,2,0,L|372:192,1,67.5000025749208,8|0,0:1|0:0,0:0:0:0:
256,320,128218,1,8,0:1:0:0:
256,320,128337,1,8,0:1:0:0:
256,320,128456,1,4,0:3:0:0:
112,132,128694,6,0,P|96:84|116:32,1,107.999996704102,4|0,0:0|0:0,0:0:0:0:
244,40,129170,2,0,P|260:88|240:140,1,107.999996704102,4|0,0:0|0:0,0:0:0:0:
112,132,129646,2,0,L|4:132,1,107.999996704102,4|0,0:0|0:0,0:0:0:0:
244,40,130123,2,0,L|352:40,1,107.999996704102,8|2,0:0|0:0,0:0:0:0:
112,132,130599,5,2,0:0:0:0:
244,40,130837,1,0,0:0:0:0:
200,192,131075,2,0,L|200:304,1,107.999996704102,8|2,0:0|0:0,0:0:0:0:
256,356,131432,1,2,0:0:0:0:
256,356,131551,2,0,P|308:368|360:356,1,107.999996704102,2|0,0:0|0:0,0:0:0:0:
416,288,131908,1,2,0:0:0:0:
416,288,132027,2,0,L|408:232,1,53.9999983520508,8|0,0:0|0:0,0:0:0:0:
352,88,132265,2,0,L|344:144,1,53.9999983520508,2|0,0:0|0:0,0:0:0:0:
256,252,132504,6,0,P|204:268|152:252,1,107.999996704102,4|0,0:0|0:0,0:0:0:0:
156,88,132980,2,0,P|207:73|257:89,1,107.999996704102,4|0,0:0|0:0,0:0:0:0:
256,252,133456,2,0,L|256:360,1,107.999996704102,4|0,0:0|0:0,0:0:0:0:
154,253,133932,1,8,0:0:0:0:
356,276,134170,1,2,0:0:0:0:
154,253,134408,6,0,L|46:253,1,107.999996704102,2|0,0:0|0:0,0:0:0:0:
256,128,134884,2,0,L|364:128,1,107.999996704102,8|0,0:0|0:0,0:0:0:0:
420,73,135242,1,2,0:0:0:0:
420,73,135361,2,0,P|440:129|416:185,1,107.999996704102,2|0,0:0|0:0,0:0:0:0:
376,232,135718,1,2,0:0:0:0:
376,232,135837,2,0,L|380:288,1,53.9999983520508,8|0,0:0|0:0,0:0:0:0:
256,352,136075,2,0,L|260:296,1,53.9999983520508,2|0,0:0|0:0,0:0:0:0:
176,128,136313,6,0,P|124:108|76:128,1,107.999996704102,4|0,0:0|0:0,0:0:0:0:
76,256,136789,2,0,P|125:274|174:254,1,107.999996704102,4|0,0:0|0:0,0:0:0:0:
176,128,137265,2,0,L|176:16,1,107.999996704102,4|0,0:0|0:0,0:0:0:0:
76,256,137742,1,8,0:0:0:0:
256,192,137980,1,2,0:0:0:0:
256,192,138099,6,0,P|304:172|356:192,1,107.999996704102,2|0,0:0|0:0,0:0:0:0:
416,240,138456,1,2,0:0:0:0:
256,332,138694,2,0,P|208:352|156:332,1,107.999996704102,8|0,0:0|0:0,0:0:0:0:
104,280,139051,1,2,0:0:0:0:
104,280,139170,2,0,L|112:224,1,53.9999983520508,2|0,0:0|0:0,0:0:0:0:
160,88,139408,1,0,0:0:0:0:
160,88,139527,2,0,L|168:144,1,53.9999983520508,0|8,0:0|0:0,0:0:0:0:
244,252,139765,1,0,0:0:0:0:
244,252,139884,2,0,L|252:196,1,53.9999983520508,2|0,0:0|0:0,0:0:0:0:
336,60,140123,6,0,L|352:168,1,107.999996704102,4|0,0:0|0:0,0:0:0:0:
448,304,140599,2,0,L|464:196,1,107.999996704102,4|0,0:0|0:0,0:0:0:0:
328,4,141075,6,0,L|344:112,1,107.999996704102,4|0,0:0|0:0,0:0:0:0:
364,240,141551,1,8,0:0:0:0:
343,110,141789,1,2,0:0:0:0:
364,240,142027,6,0,P|316:260|264:244,1,107.999996704102,2|0,0:0|0:0,0:0:0:0:
88,196,142504,2,0,P|136:176|188:192,1,107.999996704102,8|0,0:0|0:0,0:0:0:0:
316,328,142980,6,0,L|312:256,1,67.5000025749208,8|0,0:1|0:0,0:0:0:0:
187,191,143218,2,0,L|191:119,1,67.5000025749208,8|0,0:1|0:0,0:0:0:0:
268,20,143456,1,8,0:1:0:0:
268,20,143575,1,8,0:1:0:0:
268,20,143694,1,4,0:3:0:0:
140,252,143932,6,0,P|92:268|44:256,1,99.0000030212403,4|0,0:0|0:0,0:0:0:0:
187,191,144408,2,0,L|287:191,1,99.0000030212403,2|0,0:0|0:0,0:0:0:0:
384,256,144884,1,8,0:0:0:0:
348,108,145123,1,0,0:0:0:0:
240,192,145361,2,0,P|228:240|244:288,1,99.0000030212403,2|0,0:0|0:0,0:0:0:0:
348,108,145837,6,0,P|360:60|344:12,1,99.0000030212403,8|0,0:0|0:0,0:0:0:0:
180,64,146313,2,0,L|280:64,1,99.0000030212403,2|0,0:0|0:0,0:0:0:0:
140,192,146789,2,0,L|40:192,1,99.0000030212403,8|0,0:0|0:0,0:0:0:0:
8,124,147146,1,0,0:0:0:0:
8,124,147265,1,2,0:0:0:0:
96,280,147504,1,0,0:0:0:0:
180,64,147742,5,8,0:0:0:0:
41,192,147980,1,0,0:0:0:0:
216,248,148218,1,2,0:0:0:0:
208,80,148456,5,0,0:0:0:0:
69,208,148694,1,8,0:0:0:0:
244,264,148932,1,0,0:0:0:0:
244,264,149051,1,0,0:0:0:0:
244,264,149170,1,2,0:0:0:0:
352,120,149408,6,0,P|368:72|348:28,1,99.0000030212403,0|8,0:0|0:0,0:0:0:0:
162,29,149884,2,0,P|143:74|160:120,1,99.0000030212403,0|2,0:0|0:0,0:0:0:0:
256,176,150361,1,0,0:0:0:0:
256,176,150480,1,2,0:0:0:0:
256,176,150599,2,0,L|356:176,1,99.0000030212403,8|2,0:0|0:0,0:0:0:0:
159,119,151075,1,8,0:0:0:0:
256,276,151313,1,2,0:0:0:0:
364,104,151551,6,0,L|364:4,1,99.0000030212403,8|0,0:3|0:0,0:0:0:0:
256,176,152027,1,2,0:0:0:0:
484,128,152265,1,0,0:0:0:0:
256,32,152504,2,0,P|212:20|160:36,1,99.0000030212403,8|2,0:0|0:0,0:0:0:0:
104,88,152861,1,0,0:0:0:0:
104,88,152980,2,0,L|104:188,1,99.0000030212403,8|0,0:0|0:0,0:0:0:0:
144,300,153456,5,2,0:0:0:0:
0,228,153694,1,0,0:0:0:0:
192,128,153932,2,0,L|292:128,1,99.0000030212403,8|0,0:0|0:0,0:0:0:0:
184,220,154408,1,2,0:0:0:0:
256,40,154646,1,0,0:0:0:0:
268,44,154765,1,2,0:0:0:0:
280,48,154884,2,0,L|380:48,1,99.0000030212403,8|0,0:0|0:0,0:0:0:0:
192,128,155361,5,2,0:0:0:0:
280,48,155599,1,0,0:0:0:0:
316,220,155837,2,0,L|316:324,1,99.0000030212403,8|0,0:0|0:3,0:0:0:0:
192,128,156313,1,2,0:0:0:0:
412,192,156551,1,0,0:0:0:0:
412,192,156670,1,2,0:0:0:0:
412,192,156789,1,8,0:0:0:0:
316,320,157027,1,2,0:0:0:0:
116,148,157265,6,0,P|112:40|192:128,1,297.000009063721,2|0,0:0|0:0,0:0:0:0:
176,208,158099,1,2,0:0:0:0:
168,224,158218,2,0,P|124:240|72:228,1,99.0000030212403,2|0,0:3|0:0,0:0:0:0:
292,136,158694,6,0,B|384:100|432:124|436:168|360:208|360:164,1,202.500007724762,4|0,0:0|0:0,0:0:0:0:
216,88,159170,6,0,L|216:16,1,72,8|0,0:3|0:0,0:0:0:0:
132,28,159646,2,0,L|132:100,1,72,8|0,0:0|0:0,0:0:0:0:
96,180,160123,2,0,P|132:188|168:180,1,72,8|0,0:0|0:0,0:0:0:0:
204,160,160480,1,0,0:0:0:0:
204,160,160599,2,0,P|240:152|276:160,1,72,8|0,0:0|0:0,0:0:0:0:
368,248,161075,6,0,L|440:248,1,72,10|0,0:0|0:0,0:0:0:0:
472,328,161551,2,0,L|400:328,1,72,8|0,0:0|0:0,0:0:0:0:
368,248,162027,2,0,B|356:216|364:176|372:184|388:160|372:108,1,144,8|8,0:0|0:0,0:0:0:0:
328,32,162742,1,0,0:0:0:0:
208,80,162980,6,0,L|136:80,1,72,8|0,0:0|0:0,0:0:0:0:
92,156,163456,2,0,L|164:156,1,72,8|2,0:0|0:0,0:0:0:0:
240,192,163932,2,0,P|248:224|240:264,1,72,8|0,0:0|0:0,0:0:0:0:
232,304,164289,1,0,0:0:0:0:
232,304,164408,2,0,L|304:304,1,72,8|2,0:0|0:0,0:0:0:0:
412,232,164884,6,0,P|388:176|420:104,1,144,8|10,0:0|0:0,0:0:0:0:
488,52,165599,1,0,0:0:0:0:
488,52,165837,2,0,B|456:64|416:56|424:48|400:32|348:48,1,144,8|10,0:0|0:0,0:0:0:0:
276,96,166551,1,0,0:0:0:0:
164,28,166789,6,0,L|92:28,1,72,8|0,0:0|0:0,0:0:0:0:
20,76,167265,2,0,P|8:112|16:144,1,72,8|0,0:0|0:0,0:0:0:0:
76,208,167742,2,0,P|88:244|80:276,1,72,8|0,0:0|0:0,0:0:0:0:
56,312,168099,1,0,0:0:0:0:
56,312,168218,2,0,L|128:312,1,72,8|2,0:0|0:0,0:0:0:0:
259,229,168694,5,10,0:0:0:0:
340,258,168932,1,0,0:0:0:0:
423,288,169170,1,0,0:0:0:0:
391,117,169408,5,10,0:0:0:0:
407,202,169646,1,0,0:0:0:0:
424,288,169884,1,0,0:0:0:0:
259,229,170123,5,10,0:0:0:0:
324,171,170361,1,0,0:0:0:0:
391,117,170599,6,0,L|392:40,1,72,8|2,0:0|0:0,0:0:0:0:
312,12,171075,2,0,L|311:83,1,72,8|2,0:0|0:0,0:0:0:0:
264,156,171551,2,0,P|228:160|192:156,1,72,8|0,0:0|0:0,0:0:0:0:
388,116,172027,2,0,P|423:112|459:116,1,72,8|0,0:0|0:0,0:0:0:0:
264,156,172504,5,2,0:0:0:0:
96,128,173456,6,0,L|88:56,1,67.5000025749208,8|0,0:1|0:0,0:0:0:0:
176,224,173694,2,0,L|184:152,1,67.5000025749208,8|0,0:1|0:0,0:0:0:0:
84,292,173932,1,8,0:1:0:0:
84,292,174051,1,8,0:1:0:0:
84,292,174170,1,4,0:3:0:0:
256,120,174408,6,0,P|304:100|356:120,1,107.999996704102,4|0,0:0|0:0,0:0:0:0:
356,260,174884,2,0,P|306:278|257:258,1,107.999996704102,4|0,0:0|0:0,0:0:0:0:
256,120,175361,2,0,L|256:8,1,107.999996704102,4|2,0:0|0:0,0:0:0:0:
354,118,175837,1,8,0:0:0:0:
160,68,176075,1,2,0:0:0:0:
354,118,176313,6,0,L|462:118,1,107.999996704102,2|0,0:0|0:0,0:0:0:0:
160,68,176789,2,0,L|52:68,1,107.999996704102,8|0,0:0|0:0,0:0:0:0:
144,232,177265,6,0,B|164:144|164:144|228:208,1,180,4|0,0:0|0:0,0:0:0:0:
300,180,177623,2,0,P|268:232|348:224,1,180,4|0,0:0|0:0,0:0:0:0:
404,280,177980,2,0,B|424:240|424:240|464:260,1,90,4|0,0:0|0:0,0:0:0:0:
368,148,178218,6,0,L|360:40,1,107.999996704102,4|0,0:0|0:0,0:0:0:0:
300,180,178694,2,0,L|308:288,1,107.999996704102,4|0,0:0|0:0,0:0:0:0:
400,124,179170,2,0,L|392:16,1,107.999996704102,4|0,0:0|0:0,0:0:0:0:
276,172,179646,1,8,0:0:0:0:
444,76,179884,5,2,0:0:0:0:
444,76,180004,1,2,0:0:0:0:
444,76,180123,2,0,L|512:72,1,67.5000025749208,2|0,0:0|0:0,0:0:0:0:
276,172,180361,5,2,0:0:0:0:
276,172,180481,1,2,0:0:0:0:
276,172,180600,2,0,L|344:176,1,67.5000025749208,8|0,0:0|0:0,0:0:0:0:
164,88,180837,2,0,L|96:92,1,67.5000025749208,2|0,0:0|0:0,0:0:0:0:
288,200,181075,6,0,L|360:204,1,72,2|0,0:0|0:0,0:0:0:0:
484,304,181313,2,0,L|412:308,1,72,2|0,0:0|0:0,0:0:0:0:
204,168,181551,6,0,L|276:172,1,72,8|0,0:0|0:0,0:0:0:0:
412,307,181789,2,0,L|340:311,1,72,2|0,0:0|0:0,0:0:0:0:
204,168,182027,6,0,P|188:120|208:68,1,107.999996704102,4|0,0:0|0:0,0:0:0:0:
408,68,182504,2,0,P|424:116|404:168,1,107.999996704102,4|0,0:0|0:0,0:0:0:0:
204,168,182980,2,0,L|96:168,1,107.999996704102,4|2,0:0|0:0,0:0:0:0:
272,120,183456,1,8,0:0:0:0:
128,252,183694,1,2,0:0:0:0:
44,112,183932,6,0,L|44:0,1,107.999996704102,0|2,0:0|0:0,0:0:0:0:
128,252,184408,2,0,L|128:360,1,107.999996704102,8|0,0:0|0:0,0:0:0:0:
176,144,184884,6,0,B|196:56|196:56|260:120,1,180,4|0,0:0|0:0,0:0:0:0:
332,92,185242,2,0,P|300:144|380:136,1,180,4|0,0:0|0:0,0:0:0:0:
436,192,185599,2,0,B|456:152|456:152|496:172,1,90,4|0,0:0|0:0,0:0:0:0:
464,292,185837,6,0,L|352:304,1,107.999996704102,4|0,0:0|0:0,0:0:0:0:
180,232,186313,2,0,L|292:244,1,107.999996704102,4|0,0:0|0:0,0:0:0:0:
512,288,186789,2,0,L|400:300,1,107.999996704102,4|0,0:0|0:0,0:0:0:0:
276,320,187265,1,8,0:3:0:0:
356,216,187504,1,0,0:0:0:0:
276,320,187742,6,0,P|224:336|172:320,1,107.999996704102,2|0,0:0|0:0,0:0:0:0:
52,192,188218,2,0,P|104:176|156:192,1,107.999996704102,8|0,0:0|0:0,0:0:0:0:
224,232,188575,1,2,0:0:0:0:
224,232,188694,2,0,L|220:112,1,107.999996704102,8|0,0:0|0:0,0:0:0:0:
300,48,189051,1,2,0:0:0:0:
312,56,189170,2,0,L|316:112,1,53.9999983520508,8|0,0:0|0:0,0:0:0:0:
412,184,189408,2,0,L|408:130,1,53.9999983520508,2|0,0:0|0:0,0:0:0:0:
416,292,189646,6,0,P|372:324|360:236,1,180,8|0,0:3|0:0,0:0:0:0:
