osu file format v14

[General]
AudioFilename: audio 1.248x (pitch raised).mp3
AudioLeadIn: 0
PreviewTime: 50356
Countdown: 0
SampleSet: None
StackLeniency: 0.7
Mode: 3
LetterboxInBreaks: 0
SpecialStyle: 0
WidescreenStoryboard: 0

[Editor]
DistanceSpacing: 0.8
BeatDivisor: 8
GridSize: 8
TimelineZoom: 2.2

[Metadata]
Title:ON MY OWN 2006 (Sped Up Ver.)
TitleUnicode:ON MY OWN 2006 (Sped Up Ver.)
Artist:ANNERLEY GORDON
ArtistUnicode:ANNERLEY GORDON
Creator:Jole
Version:i showed you my car please respond 1.25x (194bpm)
Source:
Tags:4k 4 key dump stream speed stamina minijacks jumpstream initial d
BeatmapID:3107452
BeatmapSetID:844060

[Difficulty]
HPDrainRate:8
CircleSize:4
OverallDifficulty:8
ApproachRate:6.3
SliderMultiplier:1.4
SliderTickRate:1

[Events]
//Background and Video events
0,0,"remake.jpg",0,0
//Break Periods
//Storyboard Layer 0 (Background)
//Storyboard Layer 1 (Fail)
//Storyboard Layer 2 (Pass)
//Storyboard Layer 3 (Foreground)
//Storyboard Layer 4 (Overlay)
//Storyboard Sound Samples

[TimingPoints]
756,309.278350515464,4,1,0,25,1,0

[HitObjects]
64,192,917,5,0,0:0:0:0:
64,192,1065,1,0,0:0:0:0:
320,192,1065,1,0,0:0:0:0:
448,192,1065,1,0,0:0:0:0:
192,192,1142,1,0,0:0:0:0:
192,192,1297,1,0,0:0:0:0:
64,192,1374,1,0,0:0:0:0:
320,192,1374,1,0,0:0:0:0:
448,192,1529,1,0,0:0:0:0:
192,192,1606,1,0,0:0:0:0:
320,192,1606,1,0,0:0:0:0:
64,192,1683,1,0,0:0:0:0:
448,192,1683,1,0,0:0:0:0:
192,192,1761,1,0,0:0:0:0:
320,192,1838,1,0,0:0:0:0:
448,192,1838,1,0,0:0:0:0:
448,192,1993,1,0,0:0:0:0:
192,192,2070,1,0,0:0:0:0:
320,192,2147,1,0,0:0:0:0:
320,192,2225,1,0,0:0:0:0:
64,192,2302,1,0,0:0:0:0:
448,192,2302,1,0,0:0:0:0:
192,192,2379,1,0,0:0:0:0:
320,192,2379,1,0,0:0:0:0:
64,192,2457,1,0,0:0:0:0:
448,192,2534,1,0,0:0:0:0:
64,192,2611,1,0,0:0:0:0:
192,192,2611,1,0,0:0:0:0:
320,192,2688,1,0,0:0:0:0:
448,192,2766,1,0,0:0:0:0:
64,192,2843,1,0,0:0:0:0:
320,192,2843,1,0,0:0:0:0:
192,192,2920,1,0,0:0:0:0:
448,192,2998,1,0,0:0:0:0:
192,192,3075,1,0,0:0:0:0:
320,192,3075,1,0,0:0:0:0:
192,192,3152,1,0,0:0:0:0:
448,192,3230,1,0,0:0:0:0:
320,192,3384,1,0,0:0:0:0:
192,192,3539,1,0,0:0:0:0:
320,192,3616,1,0,0:0:0:0:
448,192,3616,1,0,0:0:0:0:
64,192,3694,1,0,0:0:0:0:
192,192,3771,1,0,0:0:0:0:
320,192,3848,1,0,0:0:0:0:
448,192,3848,1,0,0:0:0:0:
192,192,3926,1,0,0:0:0:0:
64,192,4003,1,0,0:0:0:0:
320,192,4080,1,0,0:0:0:0:
448,192,4080,1,0,0:0:0:0:
64,192,4158,1,0,0:0:0:0:
192,192,4312,1,0,0:0:0:0:
448,192,4312,1,0,0:0:0:0:
448,192,4390,1,0,0:0:0:0:
64,192,4467,1,0,0:0:0:0:
320,192,4621,1,0,0:0:0:0:
192,192,4776,1,0,0:0:0:0:
64,192,4853,1,0,0:0:0:0:
448,192,4853,1,0,0:0:0:0:
320,192,4931,1,0,0:0:0:0:
320,192,5008,1,0,0:0:0:0:
64,192,5085,1,0,0:0:0:0:
192,192,5085,1,0,0:0:0:0:
448,192,5240,1,0,0:0:0:0:
64,192,5317,1,0,0:0:0:0:
192,192,5317,1,0,0:0:0:0:
320,192,5395,1,0,0:0:0:0:
64,192,5549,1,0,0:0:0:0:
320,192,5549,1,0,0:0:0:0:
448,192,5627,1,0,0:0:0:0:
192,192,5704,1,0,0:0:0:0:
192,192,5859,1,0,0:0:0:0:
448,192,5859,1,0,0:0:0:0:
320,192,5910,1,0,0:0:0:0:
64,192,5962,1,0,0:0:0:0:
192,192,6013,1,0,0:0:0:0:
320,192,6013,1,0,0:0:0:0:
192,192,6168,1,0,0:0:0:0:
320,192,6245,1,0,0:0:0:0:
64,192,6323,1,0,0:0:0:0:
192,192,6323,1,0,0:0:0:0:
320,192,6477,1,0,0:0:0:0:
448,192,6477,1,0,0:0:0:0:
64,192,6554,1,0,0:0:0:0:
192,192,6632,1,0,0:0:0:0:
448,192,6632,1,0,0:0:0:0:
448,192,6786,1,0,0:0:0:0:
320,192,6864,1,0,0:0:0:0:
64,192,6941,1,0,0:0:0:0:
192,192,6941,1,0,0:0:0:0:
320,192,7096,1,0,0:0:0:0:
64,192,7250,1,0,0:0:0:0:
320,192,7250,1,0,0:0:0:0:
192,192,7328,1,0,0:0:0:0:
448,192,7405,1,0,0:0:0:0:
448,192,7482,1,0,0:0:0:0:
64,192,7560,1,0,0:0:0:0:
192,192,7560,1,0,0:0:0:0:
320,192,7714,1,0,0:0:0:0:
448,192,7714,1,0,0:0:0:0:
64,192,7792,1,0,0:0:0:0:
448,192,7869,1,0,0:0:0:0:
192,192,8024,1,0,0:0:0:0:
64,192,8101,1,0,0:0:0:0:
192,192,8178,1,0,0:0:0:0:
448,192,8178,1,0,0:0:0:0:
320,192,8333,1,0,0:0:0:0:
192,192,8487,1,0,0:0:0:0:
320,192,8565,1,0,0:0:0:0:
448,192,8565,1,0,0:0:0:0:
64,192,8642,1,0,0:0:0:0:
64,192,8719,1,0,0:0:0:0:
192,192,8797,1,0,0:0:0:0:
320,192,8797,1,0,0:0:0:0:
448,192,8951,1,0,0:0:0:0:
64,192,9029,1,0,0:0:0:0:
192,192,9029,1,0,0:0:0:0:
448,192,9183,1,0,0:0:0:0:
64,192,9261,1,0,0:0:0:0:
320,192,9261,1,0,0:0:0:0:
192,192,9415,1,0,0:0:0:0:
320,192,9570,1,0,0:0:0:0:
320,192,9647,1,0,0:0:0:0:
64,192,9725,1,0,0:0:0:0:
192,192,9725,1,0,0:0:0:0:
320,192,9802,1,0,0:0:0:0:
448,192,9802,1,0,0:0:0:0:
64,192,9879,1,0,0:0:0:0:
192,192,10034,1,0,0:0:0:0:
320,192,10034,1,0,0:0:0:0:
448,192,10111,1,0,0:0:0:0:
64,192,10188,1,0,0:0:0:0:
192,192,10188,1,0,0:0:0:0:
320,192,10266,1,0,0:0:0:0:
448,192,10266,1,0,0:0:0:0:
192,192,10343,1,0,0:0:0:0:
320,192,10420,1,0,0:0:0:0:
448,192,10420,1,0,0:0:0:0:
64,192,10498,1,0,0:0:0:0:
192,192,10498,1,0,0:0:0:0:
320,192,10575,1,0,0:0:0:0:
448,192,10575,1,0,0:0:0:0:
64,192,10652,1,0,0:0:0:0:
192,192,10652,1,0,0:0:0:0:
320,192,10730,1,0,0:0:0:0:
448,192,10730,1,0,0:0:0:0:
64,192,10807,1,0,0:0:0:0:
192,192,10807,1,0,0:0:0:0:
320,192,10884,1,0,0:0:0:0:
64,192,10962,1,0,0:0:0:0:
192,192,10962,1,0,0:0:0:0:
448,192,10962,1,0,0:0:0:0:
320,192,11039,1,0,0:0:0:0:
192,192,11116,1,0,0:0:0:0:
192,192,11271,1,0,0:0:0:0:
448,192,11271,1,0,0:0:0:0:
320,192,11426,1,0,0:0:0:0:
448,192,11503,1,0,0:0:0:0:
64,192,11580,1,0,0:0:0:0:
192,192,11580,1,0,0:0:0:0:
448,192,11658,1,0,0:0:0:0:
320,192,11735,1,0,0:0:0:0:
64,192,11890,1,0,0:0:0:0:
448,192,11890,1,0,0:0:0:0:
320,192,11967,1,0,0:0:0:0:
64,192,12044,1,0,0:0:0:0:
192,192,12121,1,0,0:0:0:0:
320,192,12199,1,0,0:0:0:0:
448,192,12199,1,0,0:0:0:0:
64,192,12276,1,0,0:0:0:0:
64,192,12353,1,0,0:0:0:0:
448,192,12431,1,0,0:0:0:0:
192,192,12508,1,0,0:0:0:0:
320,192,12508,1,0,0:0:0:0:
448,192,12663,1,0,0:0:0:0:
192,192,12740,1,0,0:0:0:0:
64,192,12817,1,0,0:0:0:0:
320,192,12817,1,0,0:0:0:0:
448,192,12895,1,0,0:0:0:0:
192,192,12972,1,0,0:0:0:0:
192,192,13049,1,0,0:0:0:0:
320,192,13127,1,0,0:0:0:0:
448,192,13127,1,0,0:0:0:0:
192,192,13281,1,0,0:0:0:0:
448,192,13359,1,0,0:0:0:0:
64,192,13436,1,0,0:0:0:0:
192,192,13436,1,0,0:0:0:0:
320,192,13513,1,0,0:0:0:0:
64,192,13591,1,0,0:0:0:0:
64,192,13668,1,0,0:0:0:0:
320,192,13745,1,0,0:0:0:0:
448,192,13745,1,0,0:0:0:0:
192,192,13823,1,0,0:0:0:0:
448,192,13900,1,0,0:0:0:0:
448,192,13977,1,0,0:0:0:0:
64,192,14054,1,0,0:0:0:0:
320,192,14054,1,0,0:0:0:0:
192,192,14209,1,0,0:0:0:0:
448,192,14209,1,0,0:0:0:0:
320,192,14286,1,0,0:0:0:0:
64,192,14364,1,0,0:0:0:0:
192,192,14364,1,0,0:0:0:0:
320,192,14518,1,0,0:0:0:0:
320,192,14596,1,0,0:0:0:0:
64,192,14673,1,0,0:0:0:0:
192,192,14673,1,0,0:0:0:0:
448,192,14750,1,0,0:0:0:0:
192,192,14828,1,0,0:0:0:0:
192,192,14905,1,0,0:0:0:0:
320,192,14982,1,0,0:0:0:0:
448,192,14982,1,0,0:0:0:0:
64,192,15137,1,0,0:0:0:0:
64,192,15214,1,0,0:0:0:0:
192,192,15292,1,0,0:0:0:0:
448,192,15292,1,0,0:0:0:0:
192,192,15446,1,0,0:0:0:0:
320,192,15524,1,0,0:0:0:0:
64,192,15601,1,0,0:0:0:0:
192,192,15601,1,0,0:0:0:0:
448,192,15640,1,0,0:0:0:0:
320,192,15678,1,0,0:0:0:0:
64,192,15717,1,0,0:0:0:0:
192,192,15756,1,0,0:0:0:0:
320,192,15833,1,0,0:0:0:0:
64,192,15910,1,0,0:0:0:0:
448,192,15910,1,0,0:0:0:0:
192,192,15987,1,0,0:0:0:0:
448,192,16065,1,0,0:0:0:0:
320,192,16142,1,0,0:0:0:0:
64,192,16219,1,0,0:0:0:0:
192,192,16219,1,0,0:0:0:0:
320,192,16374,1,0,0:0:0:0:
320,192,16451,1,0,0:0:0:0:
192,192,16529,1,0,0:0:0:0:
448,192,16529,1,0,0:0:0:0:
64,192,16606,1,0,0:0:0:0:
448,192,16683,1,0,0:0:0:0:
192,192,16761,1,0,0:0:0:0:
320,192,16838,1,0,0:0:0:0:
448,192,16838,1,0,0:0:0:0:
192,192,16993,1,0,0:0:0:0:
448,192,17070,1,0,0:0:0:0:
64,192,17147,1,0,0:0:0:0:
320,192,17147,1,0,0:0:0:0:
192,192,17225,1,0,0:0:0:0:
320,192,17302,1,0,0:0:0:0:
448,192,17379,1,0,0:0:0:0:
64,192,17457,1,0,0:0:0:0:
192,192,17457,1,0,0:0:0:0:
320,192,17534,1,0,0:0:0:0:
448,192,17611,1,0,0:0:0:0:
192,192,17688,1,0,0:0:0:0:
320,192,17766,1,0,0:0:0:0:
448,192,17766,1,0,0:0:0:0:
448,192,17920,1,0,0:0:0:0:
448,192,17998,1,0,0:0:0:0:
64,192,18075,1,0,0:0:0:0:
192,192,18075,1,0,0:0:0:0:
320,192,18152,1,0,0:0:0:0:
192,192,18230,1,0,0:0:0:0:
64,192,18384,1,0,0:0:0:0:
448,192,18384,1,0,0:0:0:0:
192,192,18462,1,0,0:0:0:0:
320,192,18539,1,0,0:0:0:0:
320,192,18694,1,0,0:0:0:0:
448,192,18694,1,0,0:0:0:0:
192,192,18771,1,0,0:0:0:0:
64,192,18848,1,0,0:0:0:0:
448,192,18848,1,0,0:0:0:0:
192,192,19003,1,0,0:0:0:0:
448,192,19003,1,0,0:0:0:0:
320,192,19080,1,0,0:0:0:0:
64,192,19158,1,0,0:0:0:0:
320,192,19312,1,0,0:0:0:0:
448,192,19312,1,0,0:0:0:0:
64,192,19390,1,0,0:0:0:0:
192,192,19467,1,0,0:0:0:0:
448,192,19467,1,0,0:0:0:0:
320,192,19621,1,0,0:0:0:0:
192,192,19699,1,0,0:0:0:0:
320,192,19776,1,0,0:0:0:0:
192,192,19853,1,0,0:0:0:0:
320,192,19931,1,0,0:0:0:0:
192,192,20008,1,0,0:0:0:0:
320,192,20085,1,0,0:0:0:0:
192,192,20163,1,0,0:0:0:0:
448,192,20240,1,0,0:0:0:0:
64,192,20317,1,0,0:0:0:0:
192,192,20317,1,0,0:0:0:0:
64,192,20395,1,0,0:0:0:0:
320,192,20395,1,0,0:0:0:0:
192,192,20549,1,0,0:0:0:0:
448,192,20549,1,0,0:0:0:0:
64,192,20704,1,0,0:0:0:0:
320,192,20704,1,0,0:0:0:0:
448,192,20704,1,0,0:0:0:0:
64,192,20859,1,0,0:0:0:0:
448,192,20859,1,0,0:0:0:0:
192,192,20936,1,0,0:0:0:0:
320,192,20936,1,0,0:0:0:0:
64,192,21013,1,0,0:0:0:0:
448,192,21013,1,0,0:0:0:0:
192,192,21091,1,0,0:0:0:0:
320,192,21091,1,0,0:0:0:0:
64,192,21168,1,0,0:0:0:0:
448,192,21168,1,0,0:0:0:0:
192,192,21245,1,0,0:0:0:0:
320,192,21245,1,0,0:0:0:0:
448,192,21323,1,0,0:0:0:0:
64,192,21400,1,0,0:0:0:0:
192,192,21400,1,0,0:0:0:0:
448,192,21477,1,0,0:0:0:0:
320,192,21554,1,0,0:0:0:0:
192,192,21632,1,0,0:0:0:0:
320,192,21632,1,0,0:0:0:0:
64,192,21709,1,0,0:0:0:0:
192,192,21786,1,0,0:0:0:0:
448,192,21786,1,0,0:0:0:0:
320,192,21864,1,0,0:0:0:0:
64,192,21941,1,0,0:0:0:0:
192,192,21941,1,0,0:0:0:0:
320,192,22018,1,0,0:0:0:0:
448,192,22018,1,0,0:0:0:0:
64,192,22096,1,0,0:0:0:0:
192,192,22096,1,0,0:0:0:0:
448,192,22173,1,0,0:0:0:0:
64,192,22250,1,0,0:0:0:0:
320,192,22250,1,0,0:0:0:0:
192,192,22328,1,0,0:0:0:0:
320,192,22405,1,0,0:0:0:0:
448,192,22405,1,0,0:0:0:0:
64,192,22482,1,0,0:0:0:0:
320,192,22560,1,0,0:0:0:0:
192,192,22637,1,0,0:0:0:0:
448,192,22637,1,0,0:0:0:0:
64,192,22714,1,0,0:0:0:0:
448,192,22792,1,0,0:0:0:0:
320,192,22869,1,0,0:0:0:0:
448,192,22869,1,0,0:0:0:0:
64,192,22946,1,0,0:0:0:0:
192,192,22946,1,0,0:0:0:0:
192,192,23024,1,0,0:0:0:0:
320,192,23024,1,0,0:0:0:0:
320,192,23101,1,0,0:0:0:0:
64,192,23178,1,0,0:0:0:0:
192,192,23178,1,0,0:0:0:0:
64,192,23256,1,0,0:0:0:0:
320,192,23333,1,0,0:0:0:0:
448,192,23333,1,0,0:0:0:0:
64,192,23410,1,0,0:0:0:0:
192,192,23410,1,0,0:0:0:0:
320,192,23487,1,0,0:0:0:0:
448,192,23487,1,0,0:0:0:0:
64,192,23565,1,0,0:0:0:0:
192,192,23565,1,0,0:0:0:0:
320,192,23642,1,0,0:0:0:0:
448,192,23642,1,0,0:0:0:0:
64,192,23719,1,0,0:0:0:0:
192,192,23719,1,0,0:0:0:0:
448,192,23797,1,0,0:0:0:0:
192,192,23874,1,0,0:0:0:0:
320,192,23874,1,0,0:0:0:0:
64,192,23951,1,0,0:0:0:0:
448,192,24029,1,0,0:0:0:0:
192,192,24106,1,0,0:0:0:0:
448,192,24106,1,0,0:0:0:0:
64,192,24183,1,0,0:0:0:0:
320,192,24261,1,0,0:0:0:0:
448,192,24261,1,0,0:0:0:0:
192,192,24338,1,0,0:0:0:0:
64,192,24415,1,0,0:0:0:0:
320,192,24415,1,0,0:0:0:0:
192,192,24493,1,0,0:0:0:0:
448,192,24493,1,0,0:0:0:0:
64,192,24570,1,0,0:0:0:0:
320,192,24570,1,0,0:0:0:0:
448,192,24647,1,0,0:0:0:0:
64,192,24725,1,0,0:0:0:0:
192,192,24725,1,0,0:0:0:0:
320,192,24802,1,0,0:0:0:0:
448,192,24879,1,0,0:0:0:0:
192,192,24879,1,0,0:0:0:0:
64,192,24957,1,0,0:0:0:0:
320,192,25034,1,0,0:0:0:0:
448,192,25034,1,0,0:0:0:0:
64,192,25111,1,0,0:0:0:0:
192,192,25188,1,0,0:0:0:0:
448,192,25188,1,0,0:0:0:0:
448,192,25266,1,0,0:0:0:0:
64,192,25343,1,0,0:0:0:0:
192,192,25343,1,0,0:0:0:0:
64,192,25420,1,0,0:0:0:0:
192,192,25498,1,0,0:0:0:0:
320,192,25498,1,0,0:0:0:0:
320,192,25575,1,0,0:0:0:0:
448,192,25652,1,0,0:0:0:0:
192,192,25652,1,0,0:0:0:0:
192,192,25730,1,0,0:0:0:0:
448,192,25807,1,0,0:0:0:0:
320,192,25807,1,0,0:0:0:0:
192,192,25884,1,0,0:0:0:0:
64,192,25884,1,0,0:0:0:0:
448,192,25962,1,0,0:0:0:0:
320,192,25962,1,0,0:0:0:0:
192,192,26039,1,0,0:0:0:0:
64,192,26039,1,0,0:0:0:0:
448,192,26116,1,0,0:0:0:0:
320,192,26116,1,0,0:0:0:0:
192,192,26194,1,0,0:0:0:0:
64,192,26194,1,0,0:0:0:0:
320,192,26271,1,0,0:0:0:0:
192,192,26348,1,0,0:0:0:0:
448,192,26348,1,0,0:0:0:0:
320,192,26426,1,0,0:0:0:0:
64,192,26503,1,0,0:0:0:0:
64,192,26580,1,0,0:0:0:0:
320,192,26580,1,0,0:0:0:0:
448,192,26658,1,0,0:0:0:0:
192,192,26735,1,0,0:0:0:0:
320,192,26735,1,0,0:0:0:0:
64,192,26812,1,0,0:0:0:0:
192,192,26890,1,0,0:0:0:0:
320,192,26890,1,0,0:0:0:0:
64,192,26967,1,0,0:0:0:0:
448,192,26967,1,0,0:0:0:0:
192,192,27044,1,0,0:0:0:0:
320,192,27044,1,0,0:0:0:0:
448,192,27121,1,0,0:0:0:0:
64,192,27199,1,0,0:0:0:0:
192,192,27199,1,0,0:0:0:0:
320,192,27276,1,0,0:0:0:0:
64,192,27353,1,0,0:0:0:0:
448,192,27353,1,0,0:0:0:0:
192,192,27431,1,0,0:0:0:0:
448,192,27508,1,0,0:0:0:0:
64,192,27585,1,0,0:0:0:0:
320,192,27585,1,0,0:0:0:0:
192,192,27663,1,0,0:0:0:0:
320,192,27740,1,0,0:0:0:0:
320,192,27817,1,0,0:0:0:0:
448,192,27817,1,0,0:0:0:0:
64,192,27895,1,0,0:0:0:0:
192,192,27895,1,0,0:0:0:0:
64,192,27972,1,0,0:0:0:0:
448,192,27972,1,0,0:0:0:0:
320,192,28049,1,0,0:0:0:0:
192,192,28127,1,0,0:0:0:0:
448,192,28127,1,0,0:0:0:0:
192,192,28204,1,0,0:0:0:0:
64,192,28281,1,0,0:0:0:0:
448,192,28281,1,0,0:0:0:0:
192,192,28359,1,0,0:0:0:0:
320,192,28359,1,0,0:0:0:0:
64,192,28436,1,0,0:0:0:0:
448,192,28436,1,0,0:0:0:0:
192,192,28513,1,0,0:0:0:0:
320,192,28513,1,0,0:0:0:0:
64,192,28591,1,0,0:0:0:0:
448,192,28591,1,0,0:0:0:0:
192,192,28668,1,0,0:0:0:0:
320,192,28668,1,0,0:0:0:0:
64,192,28745,1,0,0:0:0:0:
320,192,28823,1,0,0:0:0:0:
448,192,28823,1,0,0:0:0:0:
192,192,28900,1,0,0:0:0:0:
448,192,28977,1,0,0:0:0:0:
64,192,29054,1,0,0:0:0:0:
448,192,29054,1,0,0:0:0:0:
192,192,29132,1,0,0:0:0:0:
320,192,29209,1,0,0:0:0:0:
448,192,29209,1,0,0:0:0:0:
64,192,29286,1,0,0:0:0:0:
192,192,29364,1,0,0:0:0:0:
448,192,29364,1,0,0:0:0:0:
64,192,29441,1,0,0:0:0:0:
320,192,29441,1,0,0:0:0:0:
192,192,29518,1,0,0:0:0:0:
448,192,29518,1,0,0:0:0:0:
320,192,29596,1,0,0:0:0:0:
64,192,29673,1,0,0:0:0:0:
448,192,29750,1,0,0:0:0:0:
64,192,29828,1,0,0:0:0:0:
192,192,29828,1,0,0:0:0:0:
320,192,29905,1,0,0:0:0:0:
64,192,29982,1,0,0:0:0:0:
192,192,29982,1,0,0:0:0:0:
448,192,30060,1,0,0:0:0:0:
64,192,30137,1,0,0:0:0:0:
192,192,30137,1,0,0:0:0:0:
64,192,30214,1,0,0:0:0:0:
320,192,30292,1,0,0:0:0:0:
320,192,30369,1,0,0:0:0:0:
192,192,30446,1,0,0:0:0:0:
192,192,30524,1,0,0:0:0:0:
448,192,30601,1,0,0:0:0:0:
448,192,30678,1,0,0:0:0:0:
64,192,30756,1,0,0:0:0:0:
192,192,30756,1,0,0:0:0:0:
320,192,30756,1,0,0:0:0:0:
448,192,30833,1,0,0:0:0:0:
64,192,30910,1,0,0:0:0:0:
192,192,30910,1,0,0:0:0:0:
448,192,30987,1,0,0:0:0:0:
192,192,31065,1,0,0:0:0:0:
320,192,31065,1,0,0:0:0:0:
64,192,31142,1,0,0:0:0:0:
192,192,31219,1,0,0:0:0:0:
448,192,31219,1,0,0:0:0:0:
64,192,31297,1,0,0:0:0:0:
320,192,31374,1,0,0:0:0:0:
448,192,31374,1,0,0:0:0:0:
192,192,31451,1,0,0:0:0:0:
64,192,31529,1,0,0:0:0:0:
320,192,31529,1,0,0:0:0:0:
448,192,31606,1,0,0:0:0:0:
64,192,31683,1,0,0:0:0:0:
192,192,31683,1,0,0:0:0:0:
448,192,31761,1,0,0:0:0:0:
64,192,31838,1,0,0:0:0:0:
320,192,31838,1,0,0:0:0:0:
192,192,31890,1,0,0:0:0:0:
448,192,31941,1,0,0:0:0:0:
320,192,31993,1,0,0:0:0:0:
192,192,32044,1,0,0:0:0:0:
64,192,32096,1,0,0:0:0:0:
320,192,32147,1,0,0:0:0:0:
448,192,32147,1,0,0:0:0:0:
192,192,32225,1,0,0:0:0:0:
64,192,32302,1,0,0:0:0:0:
320,192,32302,1,0,0:0:0:0:
192,192,32379,1,0,0:0:0:0:
64,192,32457,1,0,0:0:0:0:
448,192,32457,1,0,0:0:0:0:
320,192,32534,1,0,0:0:0:0:
192,192,32611,1,0,0:0:0:0:
448,192,32611,1,0,0:0:0:0:
64,192,32688,1,0,0:0:0:0:
192,192,32766,1,0,0:0:0:0:
320,192,32766,1,0,0:0:0:0:
448,192,32843,1,0,0:0:0:0:
64,192,32920,1,0,0:0:0:0:
320,192,32998,1,0,0:0:0:0:
192,192,33075,1,0,0:0:0:0:
448,192,33152,1,0,0:0:0:0:
64,192,33230,1,0,0:0:0:0:
320,192,33230,1,0,0:0:0:0:
192,192,33307,1,0,0:0:0:0:
320,192,33384,1,0,0:0:0:0:
448,192,33384,1,0,0:0:0:0:
64,192,33462,1,0,0:0:0:0:
192,192,33539,1,0,0:0:0:0:
448,192,33539,1,0,0:0:0:0:
320,192,33616,1,0,0:0:0:0:
64,192,33694,1,0,0:0:0:0:
448,192,33694,1,0,0:0:0:0:
192,192,33745,1,0,0:0:0:0:
320,192,33797,1,0,0:0:0:0:
64,192,33848,1,0,0:0:0:0:
448,192,33900,1,0,0:0:0:0:
320,192,33951,1,0,0:0:0:0:
192,192,34003,1,0,0:0:0:0:
64,192,34054,1,0,0:0:0:0:
320,192,34106,1,0,0:0:0:0:
192,192,34158,1,0,0:0:0:0:
448,192,34235,1,0,0:0:0:0:
64,192,34312,1,0,0:0:0:0:
192,192,34312,1,0,0:0:0:0:
320,192,34390,1,0,0:0:0:0:
64,192,34467,1,0,0:0:0:0:
448,192,34467,1,0,0:0:0:0:
192,192,34544,1,0,0:0:0:0:
64,192,34621,1,0,0:0:0:0:
448,192,34621,1,0,0:0:0:0:
320,192,34699,1,0,0:0:0:0:
64,192,34776,1,0,0:0:0:0:
192,192,34776,1,0,0:0:0:0:
320,192,34853,1,0,0:0:0:0:
192,192,34931,1,0,0:0:0:0:
448,192,34931,1,0,0:0:0:0:
64,192,35008,1,0,0:0:0:0:
320,192,35085,1,0,0:0:0:0:
448,192,35085,1,0,0:0:0:0:
64,192,35163,1,0,0:0:0:0:
192,192,35163,1,0,0:0:0:0:
320,192,35240,1,0,0:0:0:0:
448,192,35240,1,0,0:0:0:0:
64,192,35317,1,0,0:0:0:0:
192,192,35395,1,0,0:0:0:0:
448,192,35395,1,0,0:0:0:0:
320,192,35472,1,0,0:0:0:0:
64,192,35549,1,0,0:0:0:0:
192,192,35549,1,0,0:0:0:0:
320,192,35627,1,0,0:0:0:0:
448,192,35627,1,0,0:0:0:0:
64,192,35704,1,0,0:0:0:0:
192,192,35704,1,0,0:0:0:0:
448,192,35781,1,0,0:0:0:0:
64,192,35859,1,0,0:0:0:0:
320,192,35859,1,0,0:0:0:0:
192,192,35936,1,0,0:0:0:0:
320,192,36013,1,0,0:0:0:0:
448,192,36013,1,0,0:0:0:0:
64,192,36091,1,0,0:0:0:0:
192,192,36168,1,0,0:0:0:0:
320,192,36168,1,0,0:0:0:0:
448,192,36245,1,0,0:0:0:0:
64,192,36323,1,0,0:0:0:0:
320,192,36323,1,0,0:0:0:0:
192,192,36400,1,0,0:0:0:0:
320,192,36477,1,0,0:0:0:0:
448,192,36477,1,0,0:0:0:0:
64,192,36554,1,0,0:0:0:0:
192,192,36632,1,0,0:0:0:0:
320,192,36632,1,0,0:0:0:0:
448,192,36709,1,0,0:0:0:0:
64,192,36786,1,0,0:0:0:0:
192,192,36786,1,0,0:0:0:0:
320,192,36838,1,0,0:0:0:0:
448,192,36890,1,0,0:0:0:0:
64,192,36941,1,0,0:0:0:0:
192,192,36993,1,0,0:0:0:0:
320,192,37044,1,0,0:0:0:0:
64,192,37096,1,0,0:0:0:0:
192,192,37096,1,0,0:0:0:0:
448,192,37173,1,0,0:0:0:0:
64,192,37250,1,0,0:0:0:0:
320,192,37250,1,0,0:0:0:0:
192,192,37328,1,0,0:0:0:0:
320,192,37405,1,0,0:0:0:0:
448,192,37405,1,0,0:0:0:0:
64,192,37482,1,0,0:0:0:0:
192,192,37560,1,0,0:0:0:0:
448,192,37560,1,0,0:0:0:0:
320,192,37637,1,0,0:0:0:0:
64,192,37714,1,0,0:0:0:0:
192,192,37714,1,0,0:0:0:0:
448,192,37792,1,0,0:0:0:0:
64,192,37869,1,0,0:0:0:0:
320,192,37869,1,0,0:0:0:0:
192,192,37946,1,0,0:0:0:0:
448,192,38024,1,0,0:0:0:0:
64,192,38101,1,0,0:0:0:0:
192,192,38178,1,0,0:0:0:0:
448,192,38178,1,0,0:0:0:0:
320,192,38256,1,0,0:0:0:0:
64,192,38333,1,0,0:0:0:0:
448,192,38333,1,0,0:0:0:0:
320,192,38410,1,0,0:0:0:0:
64,192,38487,1,0,0:0:0:0:
192,192,38487,1,0,0:0:0:0:
448,192,38565,1,0,0:0:0:0:
64,192,38642,1,0,0:0:0:0:
320,192,38642,1,0,0:0:0:0:
192,192,38694,1,0,0:0:0:0:
448,192,38745,1,0,0:0:0:0:
320,192,38797,1,0,0:0:0:0:
192,192,38848,1,0,0:0:0:0:
64,192,38900,1,0,0:0:0:0:
320,192,38951,1,0,0:0:0:0:
192,192,39003,1,0,0:0:0:0:
448,192,39054,1,0,0:0:0:0:
64,192,39106,1,0,0:0:0:0:
192,192,39106,1,0,0:0:0:0:
320,192,39183,1,0,0:0:0:0:
192,192,39261,1,0,0:0:0:0:
448,192,39261,1,0,0:0:0:0:
64,192,39338,1,0,0:0:0:0:
320,192,39415,1,0,0:0:0:0:
448,192,39415,1,0,0:0:0:0:
192,192,39493,1,0,0:0:0:0:
64,192,39570,1,0,0:0:0:0:
320,192,39570,1,0,0:0:0:0:
448,192,39647,1,0,0:0:0:0:
64,192,39725,1,0,0:0:0:0:
192,192,39725,1,0,0:0:0:0:
320,192,39802,1,0,0:0:0:0:
64,192,39879,1,0,0:0:0:0:
448,192,39879,1,0,0:0:0:0:
192,192,39957,1,0,0:0:0:0:
448,192,40034,1,0,0:0:0:0:
320,192,40085,1,0,0:0:0:0:
192,192,40137,1,0,0:0:0:0:
64,192,40188,1,0,0:0:0:0:
448,192,40188,1,0,0:0:0:0:
320,192,40266,1,0,0:0:0:0:
64,192,40343,1,0,0:0:0:0:
192,192,40343,1,0,0:0:0:0:
448,192,40420,1,0,0:0:0:0:
192,192,40498,1,0,0:0:0:0:
448,192,40575,1,0,0:0:0:0:
64,192,40652,1,0,0:0:0:0:
320,192,40652,1,0,0:0:0:0:
192,192,40730,1,0,0:0:0:0:
320,192,40807,1,0,0:0:0:0:
448,192,40807,1,0,0:0:0:0:
64,192,40884,1,0,0:0:0:0:
192,192,40962,1,0,0:0:0:0:
448,192,40962,1,0,0:0:0:0:
320,192,41039,1,0,0:0:0:0:
64,192,41116,1,0,0:0:0:0:
448,192,41116,1,0,0:0:0:0:
192,192,41168,1,0,0:0:0:0:
320,192,41219,1,0,0:0:0:0:
64,192,41271,1,0,0:0:0:0:
448,192,41323,1,0,0:0:0:0:
320,192,41374,1,0,0:0:0:0:
192,192,41426,1,0,0:0:0:0:
448,192,41503,1,0,0:0:0:0:
64,192,41580,1,0,0:0:0:0:
192,192,41580,1,0,0:0:0:0:
320,192,41658,1,0,0:0:0:0:
64,192,41735,1,0,0:0:0:0:
448,192,41735,1,0,0:0:0:0:
192,192,41812,1,0,0:0:0:0:
448,192,41890,1,0,0:0:0:0:
64,192,41967,1,0,0:0:0:0:
192,192,42044,1,0,0:0:0:0:
320,192,42044,1,0,0:0:0:0:
448,192,42121,1,0,0:0:0:0:
64,192,42199,1,0,0:0:0:0:
320,192,42199,1,0,0:0:0:0:
192,192,42276,1,0,0:0:0:0:
320,192,42353,1,0,0:0:0:0:
448,192,42353,1,0,0:0:0:0:
64,192,42431,1,0,0:0:0:0:
320,192,42508,1,0,0:0:0:0:
448,192,42585,1,0,0:0:0:0:
64,192,42663,1,0,0:0:0:0:
192,192,42663,1,0,0:0:0:0:
320,192,42740,1,0,0:0:0:0:
448,192,42817,1,0,0:0:0:0:
192,192,42895,1,0,0:0:0:0:
64,192,42972,1,0,0:0:0:0:
320,192,42972,1,0,0:0:0:0:
448,192,43024,1,0,0:0:0:0:
192,192,43075,1,0,0:0:0:0:
320,192,43127,1,0,0:0:0:0:
64,192,43178,1,0,0:0:0:0:
448,192,43230,1,0,0:0:0:0:
192,192,43281,1,0,0:0:0:0:
320,192,43281,1,0,0:0:0:0:
64,192,43333,1,0,0:0:0:0:
448,192,43384,1,0,0:0:0:0:
192,192,43436,1,0,0:0:0:0:
320,192,43487,1,0,0:0:0:0:
192,192,43539,1,0,0:0:0:0:
320,192,43591,1,0,0:0:0:0:
448,192,43591,1,0,0:0:0:0:
64,192,43642,1,0,0:0:0:0:
448,192,43694,1,0,0:0:0:0:
192,192,43745,1,0,0:0:0:0:
320,192,43797,1,0,0:0:0:0:
64,192,43848,1,0,0:0:0:0:
320,192,43900,1,0,0:0:0:0:
448,192,43900,1,0,0:0:0:0:
192,192,43951,1,0,0:0:0:0:
448,192,44003,1,0,0:0:0:0:
64,192,44054,1,0,0:0:0:0:
320,192,44106,1,0,0:0:0:0:
192,192,44158,1,0,0:0:0:0:
448,192,44209,1,0,0:0:0:0:
320,192,44248,1,0,0:0:0:0:
192,192,44286,1,0,0:0:0:0:
64,192,44325,1,0,0:0:0:0:
448,192,44364,1,0,0:0:0:0:
320,192,44402,1,0,0:0:0:0:
192,192,44441,1,0,0:0:0:0:
64,192,44480,1,0,0:0:0:0:
448,192,44518,1,0,0:0:0:0:
320,192,44570,1,0,0:0:0:0:
448,192,44621,1,0,0:0:0:0:
64,192,44673,1,0,0:0:0:0:
192,192,44725,1,0,0:0:0:0:
64,192,44776,1,0,0:0:0:0:
448,192,44828,1,0,0:0:0:0:
320,192,44879,1,0,0:0:0:0:
448,192,44931,1,0,0:0:0:0:
64,192,44982,1,0,0:0:0:0:
192,192,45060,1,0,0:0:0:0:
320,192,45137,1,0,0:0:0:0:
448,192,45137,1,0,0:0:0:0:
64,192,45188,1,0,0:0:0:0:
192,192,45240,1,0,0:0:0:0:
320,192,45292,1,0,0:0:0:0:
448,192,45343,1,0,0:0:0:0:
64,192,45395,1,0,0:0:0:0:
192,192,45446,1,0,0:0:0:0:
320,192,45446,1,0,0:0:0:0:
64,192,45524,1,0,0:0:0:0:
448,192,45524,1,0,0:0:0:0:
192,192,45601,1,0,0:0:0:0:
320,192,45601,1,0,0:0:0:0:
448,192,45678,1,0,0:0:0:0:
64,192,45756,1,0,0:0:0:0:
320,192,45756,1,0,0:0:0:0:
192,192,45833,1,0,0:0:0:0:
320,192,45910,1,0,0:0:0:0:
448,192,45910,1,0,0:0:0:0:
64,192,45987,1,0,0:0:0:0:
192,192,46065,1,0,0:0:0:0:
448,192,46065,1,0,0:0:0:0:
320,192,46142,1,0,0:0:0:0:
64,192,46219,1,0,0:0:0:0:
448,192,46297,1,0,0:0:0:0:
192,192,46374,1,0,0:0:0:0:
320,192,46374,1,0,0:0:0:0:
64,192,46451,1,0,0:0:0:0:
192,192,46529,1,0,0:0:0:0:
448,192,46529,1,0,0:0:0:0:
320,192,46606,1,0,0:0:0:0:
64,192,46683,1,0,0:0:0:0:
192,192,46683,1,0,0:0:0:0:
448,192,46761,1,0,0:0:0:0:
192,192,46838,1,0,0:0:0:0:
64,192,46915,1,0,0:0:0:0:
320,192,46993,1,0,0:0:0:0:
448,192,46993,1,0,0:0:0:0:
192,192,47070,1,0,0:0:0:0:
64,192,47147,1,0,0:0:0:0:
320,192,47147,1,0,0:0:0:0:
192,192,47225,1,0,0:0:0:0:
64,192,47302,1,0,0:0:0:0:
448,192,47302,1,0,0:0:0:0:
320,192,47379,1,0,0:0:0:0:
64,192,47457,1,0,0:0:0:0:
448,192,47534,1,0,0:0:0:0:
64,192,47611,1,0,0:0:0:0:
192,192,47611,1,0,0:0:0:0:
320,192,47688,1,0,0:0:0:0:
448,192,47766,1,0,0:0:0:0:
192,192,47843,1,0,0:0:0:0:
64,192,47920,1,0,0:0:0:0:
320,192,47920,1,0,0:0:0:0:
448,192,47972,1,0,0:0:0:0:
192,192,48024,1,0,0:0:0:0:
320,192,48075,1,0,0:0:0:0:
64,192,48127,1,0,0:0:0:0:
448,192,48178,1,0,0:0:0:0:
64,192,48230,1,0,0:0:0:0:
192,192,48230,1,0,0:0:0:0:
320,192,48281,1,0,0:0:0:0:
64,192,48333,1,0,0:0:0:0:
448,192,48384,1,0,0:0:0:0:
192,192,48436,1,0,0:0:0:0:
320,192,48487,1,0,0:0:0:0:
64,192,48539,1,0,0:0:0:0:
192,192,48539,1,0,0:0:0:0:
448,192,48591,1,0,0:0:0:0:
192,192,48642,1,0,0:0:0:0:
320,192,48694,1,0,0:0:0:0:
64,192,48745,1,0,0:0:0:0:
192,192,48797,1,0,0:0:0:0:
320,192,48848,1,0,0:0:0:0:
448,192,48848,1,0,0:0:0:0:
64,192,48887,1,0,0:0:0:0:
192,192,48926,1,0,0:0:0:0:
448,192,48964,1,0,0:0:0:0:
64,192,49003,1,0,0:0:0:0:
192,192,49003,1,0,0:0:0:0:
64,192,49158,1,0,0:0:0:0:
448,192,49158,1,0,0:0:0:0:
64,192,49312,1,0,0:0:0:0:
320,192,49312,1,0,0:0:0:0:
448,192,49312,1,0,0:0:0:0:
192,192,49467,1,0,0:0:0:0:
448,192,49467,1,0,0:0:0:0:
192,192,49621,1,0,0:0:0:0:
320,192,49621,1,0,0:0:0:0:
64,192,49776,1,0,0:0:0:0:
448,192,49776,1,0,0:0:0:0:
320,192,50008,1,0,0:0:0:0:
448,192,50008,1,0,0:0:0:0:
64,192,50085,1,0,0:0:0:0:
448,192,50085,1,0,0:0:0:0:
64,192,50240,1,0,0:0:0:0:
320,192,50240,1,0,0:0:0:0:
320,192,50395,1,0,0:0:0:0:
448,192,50395,1,0,0:0:0:0:
448,192,50472,1,0,0:0:0:0:
64,192,50549,1,0,0:0:0:0:
192,192,50588,1,0,0:0:0:0:
320,192,50627,1,0,0:0:0:0:
448,192,50665,1,0,0:0:0:0:
64,192,50704,1,0,0:0:0:0:
192,192,50743,1,0,0:0:0:0:
448,192,50781,1,0,0:0:0:0:
320,192,50820,1,0,0:0:0:0:
64,192,50859,1,0,0:0:0:0:
448,192,50897,1,0,0:0:0:0:
320,192,50936,1,0,0:0:0:0:
192,192,50975,1,0,0:0:0:0:
64,192,51013,1,0,0:0:0:0:
448,192,51052,1,0,0:0:0:0:
192,192,51091,1,0,0:0:0:0:
320,192,51129,1,0,0:0:0:0:
448,192,51168,1,0,0:0:0:0:
64,192,51207,1,0,0:0:0:0:
192,192,51245,1,0,0:0:0:0:
320,192,51284,1,0,0:0:0:0:
448,192,51323,1,0,0:0:0:0:
64,192,51361,1,0,0:0:0:0:
192,192,51400,1,0,0:0:0:0:
448,192,51438,1,0,0:0:0:0:
320,192,51477,1,0,0:0:0:0:
64,192,51516,1,0,0:0:0:0:
192,192,51554,1,0,0:0:0:0:
448,192,51593,1,0,0:0:0:0:
64,192,51632,1,0,0:0:0:0:
192,192,51670,1,0,0:0:0:0:
320,192,51709,1,0,0:0:0:0:
448,192,51748,1,0,0:0:0:0:
64,192,51786,1,0,0:0:0:0:
192,192,51825,1,0,0:0:0:0:
320,192,51864,1,0,0:0:0:0:
448,192,51902,1,0,0:0:0:0:
192,192,51941,1,0,0:0:0:0:
320,192,51980,1,0,0:0:0:0:
192,192,52018,1,0,0:0:0:0:
64,192,52057,1,0,0:0:0:0:
448,192,52096,1,0,0:0:0:0:
320,192,52134,1,0,0:0:0:0:
192,192,52173,1,0,0:0:0:0:
64,192,52212,1,0,0:0:0:0:
448,192,52250,1,0,0:0:0:0:
320,192,52289,1,0,0:0:0:0:
192,192,52328,1,0,0:0:0:0:
448,192,52366,1,0,0:0:0:0:
64,192,52405,1,0,0:0:0:0:
192,192,52444,1,0,0:0:0:0:
320,192,52482,1,0,0:0:0:0:
448,192,52521,1,0,0:0:0:0:
64,192,52560,1,0,0:0:0:0:
192,192,52598,1,0,0:0:0:0:
320,192,52637,1,0,0:0:0:0:
64,192,52676,1,0,0:0:0:0:
192,192,52714,1,0,0:0:0:0:
448,192,52753,1,0,0:0:0:0:
320,192,52792,1,0,0:0:0:0:
192,192,52830,1,0,0:0:0:0:
448,192,52869,1,0,0:0:0:0:
64,192,52908,1,0,0:0:0:0:
320,192,52946,1,0,0:0:0:0:
448,192,52985,1,0,0:0:0:0:
64,192,53024,1,0,0:0:0:0:
192,192,53062,1,0,0:0:0:0:
320,192,53101,1,0,0:0:0:0:
448,192,53140,1,0,0:0:0:0:
64,192,53178,1,0,0:0:0:0:
192,192,53217,1,0,0:0:0:0:
320,192,53256,1,0,0:0:0:0:
448,192,53294,1,0,0:0:0:0:
64,192,53333,1,0,0:0:0:0:
320,192,53371,1,0,0:0:0:0:
192,192,53410,1,0,0:0:0:0:
64,192,53449,1,0,0:0:0:0:
448,192,53487,1,0,0:0:0:0:
320,192,53526,1,0,0:0:0:0:
64,192,53565,1,0,0:0:0:0:
448,192,53603,1,0,0:0:0:0:
320,192,53642,1,0,0:0:0:0:
192,192,53681,1,0,0:0:0:0:
64,192,53719,1,0,0:0:0:0:
448,192,53758,1,0,0:0:0:0:
192,192,53797,1,0,0:0:0:0:
320,192,53835,1,0,0:0:0:0:
192,192,53874,1,0,0:0:0:0:
64,192,53913,1,0,0:0:0:0:
448,192,53951,1,0,0:0:0:0:
192,192,53990,1,0,0:0:0:0:
320,192,54029,1,0,0:0:0:0:
64,192,54067,1,0,0:0:0:0:
448,192,54106,1,0,0:0:0:0:
320,192,54145,1,0,0:0:0:0:
192,192,54183,1,0,0:0:0:0:
448,192,54222,1,0,0:0:0:0:
64,192,54261,1,0,0:0:0:0:
192,192,54299,1,0,0:0:0:0:
320,192,54338,1,0,0:0:0:0:
64,192,54377,1,0,0:0:0:0:
192,192,54415,1,0,0:0:0:0:
448,192,54454,1,0,0:0:0:0:
192,192,54493,1,0,0:0:0:0:
320,192,54531,1,0,0:0:0:0:
448,192,54570,1,0,0:0:0:0:
64,192,54609,1,0,0:0:0:0:
320,192,54647,1,0,0:0:0:0:
448,192,54686,1,0,0:0:0:0:
192,192,54725,1,0,0:0:0:0:
320,192,54763,1,0,0:0:0:0:
448,192,54802,1,0,0:0:0:0:
64,192,54841,1,0,0:0:0:0:
192,192,54879,1,0,0:0:0:0:
448,192,54918,1,0,0:0:0:0:
64,192,54957,1,0,0:0:0:0:
192,192,54995,1,0,0:0:0:0:
320,192,55034,1,0,0:0:0:0:
64,192,55073,1,0,0:0:0:0:
320,192,55111,1,0,0:0:0:0:
448,192,55150,1,0,0:0:0:0:
64,192,55188,1,0,0:0:0:0:
192,192,55227,1,0,0:0:0:0:
448,192,55266,1,0,0:0:0:0:
64,192,55304,1,0,0:0:0:0:
192,192,55343,1,0,0:0:0:0:
320,192,55382,1,0,0:0:0:0:
64,192,55420,1,0,0:0:0:0:
192,192,55459,1,0,0:0:0:0:
320,192,55498,1,0,0:0:0:0:
448,192,55498,1,0,0:0:0:0:
64,192,55536,1,0,0:0:0:0:
192,192,55575,1,0,0:0:0:0:
320,192,55614,1,0,0:0:0:0:
448,192,55652,1,0,0:0:0:0:
192,192,55691,1,0,0:0:0:0:
320,192,55730,1,0,0:0:0:0:
64,192,55768,1,0,0:0:0:0:
192,192,55807,1,0,0:0:0:0:
448,192,55846,1,0,0:0:0:0:
320,192,55884,1,0,0:0:0:0:
192,192,55923,1,0,0:0:0:0:
448,192,55962,1,0,0:0:0:0:
64,192,56000,1,0,0:0:0:0:
192,192,56039,1,0,0:0:0:0:
320,192,56078,1,0,0:0:0:0:
448,192,56116,1,0,0:0:0:0:
64,192,56155,1,0,0:0:0:0:
192,192,56194,1,0,0:0:0:0:
448,192,56232,1,0,0:0:0:0:
320,192,56271,1,0,0:0:0:0:
64,192,56310,1,0,0:0:0:0:
192,192,56348,1,0,0:0:0:0:
448,192,56387,1,0,0:0:0:0:
320,192,56426,1,0,0:0:0:0:
64,192,56464,1,0,0:0:0:0:
448,192,56503,1,0,0:0:0:0:
320,192,56542,1,0,0:0:0:0:
192,192,56580,1,0,0:0:0:0:
448,192,56619,1,0,0:0:0:0:
320,192,56658,1,0,0:0:0:0:
192,192,56696,1,0,0:0:0:0:
64,192,56735,1,0,0:0:0:0:
448,192,56774,1,0,0:0:0:0:
192,192,56812,1,0,0:0:0:0:
64,192,56851,1,0,0:0:0:0:
320,192,56890,1,0,0:0:0:0:
448,192,56928,1,0,0:0:0:0:
320,192,56967,1,0,0:0:0:0:
192,192,57006,1,0,0:0:0:0:
64,192,57044,1,0,0:0:0:0:
320,192,57083,1,0,0:0:0:0:
448,192,57121,1,0,0:0:0:0:
64,192,57160,1,0,0:0:0:0:
192,192,57199,1,0,0:0:0:0:
448,192,57237,1,0,0:0:0:0:
64,192,57276,1,0,0:0:0:0:
192,192,57315,1,0,0:0:0:0:
320,192,57353,1,0,0:0:0:0:
448,192,57392,1,0,0:0:0:0:
64,192,57431,1,0,0:0:0:0:
320,192,57469,1,0,0:0:0:0:
192,192,57508,1,0,0:0:0:0:
448,192,57547,1,0,0:0:0:0:
320,192,57585,1,0,0:0:0:0:
64,192,57624,1,0,0:0:0:0:
448,192,57663,1,0,0:0:0:0:
320,192,57701,1,0,0:0:0:0:
192,192,57740,1,0,0:0:0:0:
448,192,57779,1,0,0:0:0:0:
64,192,57817,1,0,0:0:0:0:
192,192,57856,1,0,0:0:0:0:
320,192,57895,1,0,0:0:0:0:
448,192,57933,1,0,0:0:0:0:
64,192,57972,1,0,0:0:0:0:
320,192,58011,1,0,0:0:0:0:
192,192,58049,1,0,0:0:0:0:
448,192,58088,1,0,0:0:0:0:
64,192,58127,1,0,0:0:0:0:
192,192,58165,1,0,0:0:0:0:
320,192,58204,1,0,0:0:0:0:
448,192,58243,1,0,0:0:0:0:
64,192,58281,1,0,0:0:0:0:
192,192,58320,1,0,0:0:0:0:
448,192,58359,1,0,0:0:0:0:
64,192,58397,1,0,0:0:0:0:
320,192,58436,1,0,0:0:0:0:
192,192,58475,1,0,0:0:0:0:
448,192,58513,1,0,0:0:0:0:
320,192,58552,1,0,0:0:0:0:
64,192,58591,1,0,0:0:0:0:
192,192,58629,1,0,0:0:0:0:
448,192,58668,1,0,0:0:0:0:
64,192,58707,1,0,0:0:0:0:
192,192,58745,1,0,0:0:0:0:
320,192,58784,1,0,0:0:0:0:
64,192,58823,1,0,0:0:0:0:
448,192,58861,1,0,0:0:0:0:
320,192,58900,1,0,0:0:0:0:
192,192,58938,1,0,0:0:0:0:
64,192,58977,1,0,0:0:0:0:
448,192,59016,1,0,0:0:0:0:
192,192,59054,1,0,0:0:0:0:
320,192,59093,1,0,0:0:0:0:
64,192,59132,1,0,0:0:0:0:
192,192,59170,1,0,0:0:0:0:
448,192,59209,1,0,0:0:0:0:
320,192,59248,1,0,0:0:0:0:
192,192,59286,1,0,0:0:0:0:
64,192,59325,1,0,0:0:0:0:
448,192,59364,1,0,0:0:0:0:
192,192,59402,1,0,0:0:0:0:
320,192,59441,1,0,0:0:0:0:
448,192,59480,1,0,0:0:0:0:
64,192,59518,1,0,0:0:0:0:
192,192,59557,1,0,0:0:0:0:
320,192,59596,1,0,0:0:0:0:
448,192,59634,1,0,0:0:0:0:
192,192,59673,1,0,0:0:0:0:
64,192,59712,1,0,0:0:0:0:
320,192,59750,1,0,0:0:0:0:
192,192,59789,1,0,0:0:0:0:
448,192,59828,1,0,0:0:0:0:
320,192,59866,1,0,0:0:0:0:
192,192,59905,1,0,0:0:0:0:
64,192,59944,1,0,0:0:0:0:
448,192,59982,1,0,0:0:0:0:
320,192,60034,1,0,0:0:0:0:
192,192,60085,1,0,0:0:0:0:
448,192,60137,1,0,0:0:0:0:
320,192,60188,1,0,0:0:0:0:
64,192,60240,1,0,0:0:0:0:
320,192,60292,1,0,0:0:0:0:
192,192,60343,1,0,0:0:0:0:
64,192,60395,1,0,0:0:0:0:
320,192,60446,1,0,0:0:0:0:
448,192,60446,1,0,0:0:0:0:
64,192,60524,1,0,0:0:0:0:
192,192,60524,1,0,0:0:0:0:
320,192,60601,1,0,0:0:0:0:
448,192,60601,1,0,0:0:0:0:
64,192,60678,1,0,0:0:0:0:
192,192,60678,1,0,0:0:0:0:
320,192,60756,1,0,0:0:0:0:
448,192,60756,1,0,0:0:0:0:
64,192,60833,1,0,0:0:0:0:
192,192,60833,1,0,0:0:0:0:
448,192,60910,1,0,0:0:0:0:
192,192,60987,1,0,0:0:0:0:
320,192,60987,1,0,0:0:0:0:
64,192,61065,1,0,0:0:0:0:
448,192,61142,1,0,0:0:0:0:
192,192,61219,1,0,0:0:0:0:
448,192,61219,1,0,0:0:0:0:
64,192,61297,1,0,0:0:0:0:
320,192,61374,1,0,0:0:0:0:
448,192,61374,1,0,0:0:0:0:
192,192,61451,1,0,0:0:0:0:
64,192,61529,1,0,0:0:0:0:
320,192,61529,1,0,0:0:0:0:
192,192,61606,1,0,0:0:0:0:
448,192,61606,1,0,0:0:0:0:
64,192,61683,1,0,0:0:0:0:
320,192,61683,1,0,0:0:0:0:
448,192,61761,1,0,0:0:0:0:
64,192,61838,1,0,0:0:0:0:
192,192,61838,1,0,0:0:0:0:
320,192,61915,1,0,0:0:0:0:
192,192,61993,1,0,0:0:0:0:
448,192,61993,1,0,0:0:0:0:
64,192,62070,1,0,0:0:0:0:
320,192,62147,1,0,0:0:0:0:
448,192,62147,1,0,0:0:0:0:
64,192,62225,1,0,0:0:0:0:
192,192,62225,1,0,0:0:0:0:
448,192,62302,1,0,0:0:0:0:
320,192,62379,1,0,0:0:0:0:
448,192,62379,1,0,0:0:0:0:
64,192,62457,1,0,0:0:0:0:
192,192,62457,1,0,0:0:0:0:
64,192,62534,1,0,0:0:0:0:
192,192,62611,1,0,0:0:0:0:
320,192,62611,1,0,0:0:0:0:
320,192,62688,1,0,0:0:0:0:
448,192,62766,1,0,0:0:0:0:
192,192,62766,1,0,0:0:0:0:
192,192,62843,1,0,0:0:0:0:
448,192,62920,1,0,0:0:0:0:
320,192,62920,1,0,0:0:0:0:
192,192,62998,1,0,0:0:0:0:
64,192,62998,1,0,0:0:0:0:
448,192,63075,1,0,0:0:0:0:
320,192,63075,1,0,0:0:0:0:
192,192,63152,1,0,0:0:0:0:
64,192,63152,1,0,0:0:0:0:
448,192,63230,1,0,0:0:0:0:
320,192,63230,1,0,0:0:0:0:
192,192,63307,1,0,0:0:0:0:
64,192,63307,1,0,0:0:0:0:
320,192,63384,1,0,0:0:0:0:
192,192,63462,1,0,0:0:0:0:
448,192,63462,1,0,0:0:0:0:
320,192,63539,1,0,0:0:0:0:
64,192,63616,1,0,0:0:0:0:
64,192,63694,1,0,0:0:0:0:
320,192,63694,1,0,0:0:0:0:
448,192,63771,1,0,0:0:0:0:
192,192,63848,1,0,0:0:0:0:
320,192,63848,1,0,0:0:0:0:
64,192,63926,1,0,0:0:0:0:
192,192,64003,1,0,0:0:0:0:
320,192,64003,1,0,0:0:0:0:
64,192,64080,1,0,0:0:0:0:
448,192,64080,1,0,0:0:0:0:
192,192,64158,1,0,0:0:0:0:
320,192,64158,1,0,0:0:0:0:
448,192,64235,1,0,0:0:0:0:
64,192,64312,1,0,0:0:0:0:
192,192,64312,1,0,0:0:0:0:
320,192,64390,1,0,0:0:0:0:
64,192,64467,1,0,0:0:0:0:
448,192,64467,1,0,0:0:0:0:
192,192,64544,1,0,0:0:0:0:
448,192,64621,1,0,0:0:0:0:
64,192,64699,1,0,0:0:0:0:
192,192,64776,1,0,0:0:0:0:
448,192,64776,1,0,0:0:0:0:
192,192,64853,1,0,0:0:0:0:
64,192,64931,1,0,0:0:0:0:
448,192,64931,1,0,0:0:0:0:
448,192,65008,1,0,0:0:0:0:
64,192,65085,1,0,0:0:0:0:
192,192,65085,1,0,0:0:0:0:
64,192,65163,1,0,0:0:0:0:
192,192,65240,1,0,0:0:0:0:
320,192,65240,1,0,0:0:0:0:
320,192,65317,1,0,0:0:0:0:
64,192,65395,1,0,0:0:0:0:
448,192,65395,1,0,0:0:0:0:
192,192,65472,1,0,0:0:0:0:
320,192,65472,1,0,0:0:0:0:
64,192,65549,1,0,0:0:0:0:
448,192,65549,1,0,0:0:0:0:
192,192,65627,1,0,0:0:0:0:
320,192,65627,1,0,0:0:0:0:
64,192,65704,1,0,0:0:0:0:
448,192,65704,1,0,0:0:0:0:
192,192,65781,1,0,0:0:0:0:
320,192,65781,1,0,0:0:0:0:
64,192,65859,1,0,0:0:0:0:
320,192,65936,1,0,0:0:0:0:
448,192,65936,1,0,0:0:0:0:
192,192,66013,1,0,0:0:0:0:
448,192,66091,1,0,0:0:0:0:
64,192,66168,1,0,0:0:0:0:
448,192,66168,1,0,0:0:0:0:
192,192,66245,1,0,0:0:0:0:
320,192,66323,1,0,0:0:0:0:
448,192,66323,1,0,0:0:0:0:
64,192,66400,1,0,0:0:0:0:
192,192,66477,1,0,0:0:0:0:
448,192,66477,1,0,0:0:0:0:
64,192,66554,1,0,0:0:0:0:
320,192,66554,1,0,0:0:0:0:
192,192,66632,1,0,0:0:0:0:
448,192,66632,1,0,0:0:0:0:
320,192,66709,1,0,0:0:0:0:
64,192,66786,1,0,0:0:0:0:
448,192,66864,1,0,0:0:0:0:
64,192,66941,1,0,0:0:0:0:
192,192,66941,1,0,0:0:0:0:
320,192,67018,1,0,0:0:0:0:
192,192,67096,1,0,0:0:0:0:
320,192,67173,1,0,0:0:0:0:
448,192,67173,1,0,0:0:0:0:
64,192,67250,1,0,0:0:0:0:
448,192,67328,1,0,0:0:0:0:
320,192,67405,1,0,0:0:0:0:
448,192,67405,1,0,0:0:0:0:
64,192,67482,1,0,0:0:0:0:
192,192,67482,1,0,0:0:0:0:
192,192,67560,1,0,0:0:0:0:
320,192,67560,1,0,0:0:0:0:
320,192,67637,1,0,0:0:0:0:
64,192,67714,1,0,0:0:0:0:
192,192,67714,1,0,0:0:0:0:
64,192,67792,1,0,0:0:0:0:
320,192,67869,1,0,0:0:0:0:
448,192,67869,1,0,0:0:0:0:
64,192,67946,1,0,0:0:0:0:
192,192,67946,1,0,0:0:0:0:
320,192,68024,1,0,0:0:0:0:
448,192,68024,1,0,0:0:0:0:
64,192,68101,1,0,0:0:0:0:
192,192,68101,1,0,0:0:0:0:
320,192,68178,1,0,0:0:0:0:
448,192,68178,1,0,0:0:0:0:
64,192,68256,1,0,0:0:0:0:
192,192,68256,1,0,0:0:0:0:
448,192,68333,1,0,0:0:0:0:
192,192,68410,1,0,0:0:0:0:
320,192,68410,1,0,0:0:0:0:
64,192,68487,1,0,0:0:0:0:
448,192,68565,1,0,0:0:0:0:
192,192,68642,1,0,0:0:0:0:
448,192,68642,1,0,0:0:0:0:
64,192,68719,1,0,0:0:0:0:
320,192,68797,1,0,0:0:0:0:
448,192,68797,1,0,0:0:0:0:
192,192,68874,1,0,0:0:0:0:
64,192,68951,1,0,0:0:0:0:
320,192,68951,1,0,0:0:0:0:
192,192,69029,1,0,0:0:0:0:
448,192,69029,1,0,0:0:0:0:
64,192,69106,1,0,0:0:0:0:
320,192,69106,1,0,0:0:0:0:
448,192,69183,1,0,0:0:0:0:
64,192,69261,1,0,0:0:0:0:
192,192,69261,1,0,0:0:0:0:
320,192,69338,1,0,0:0:0:0:
192,192,69415,1,0,0:0:0:0:
448,192,69415,1,0,0:0:0:0:
64,192,69493,1,0,0:0:0:0:
320,192,69570,1,0,0:0:0:0:
448,192,69570,1,0,0:0:0:0:
64,192,69647,1,0,0:0:0:0:
448,192,69725,1,0,0:0:0:0:
448,192,69802,1,0,0:0:0:0:
64,192,69879,1,0,0:0:0:0:
64,192,69957,1,0,0:0:0:0:
320,192,70034,1,0,0:0:0:0:
320,192,70111,1,0,0:0:0:0:
192,192,70188,1,0,0:0:0:0:
192,192,70266,1,0,0:0:0:0:
64,192,70343,1,0,0:0:0:0:
448,192,70343,1,0,0:0:0:0:
320,192,70343,1,0,0:0:0:0:
192,192,70420,1,0,0:0:0:0:
64,192,70498,1,0,0:0:0:0:
320,192,70498,1,0,0:0:0:0:
192,192,70575,1,0,0:0:0:0:
320,192,70652,1,0,0:0:0:0:
448,192,70652,1,0,0:0:0:0:
64,192,70730,1,0,0:0:0:0:
192,192,70807,1,0,0:0:0:0:
448,192,70807,1,0,0:0:0:0:
320,192,70884,1,0,0:0:0:0:
64,192,70962,1,0,0:0:0:0:
448,192,70962,1,0,0:0:0:0:
192,192,71039,1,0,0:0:0:0:
320,192,71116,1,0,0:0:0:0:
448,192,71116,1,0,0:0:0:0:
64,192,71194,1,0,0:0:0:0:
192,192,71271,1,0,0:0:0:0:
320,192,71271,1,0,0:0:0:0:
448,192,71348,1,0,0:0:0:0:
64,192,71426,1,0,0:0:0:0:
320,192,71426,1,0,0:0:0:0:
192,192,71477,1,0,0:0:0:0:
448,192,71529,1,0,0:0:0:0:
320,192,71580,1,0,0:0:0:0:
192,192,71632,1,0,0:0:0:0:
448,192,71683,1,0,0:0:0:0:
64,192,71735,1,0,0:0:0:0:
192,192,71735,1,0,0:0:0:0:
320,192,71812,1,0,0:0:0:0:
192,192,71890,1,0,0:0:0:0:
448,192,71890,1,0,0:0:0:0:
64,192,71967,1,0,0:0:0:0:
320,192,72044,1,0,0:0:0:0:
448,192,72044,1,0,0:0:0:0:
192,192,72121,1,0,0:0:0:0:
64,192,72199,1,0,0:0:0:0:
320,192,72199,1,0,0:0:0:0:
448,192,72276,1,0,0:0:0:0:
64,192,72353,1,0,0:0:0:0:
192,192,72353,1,0,0:0:0:0:
320,192,72431,1,0,0:0:0:0:
448,192,72508,1,0,0:0:0:0:
192,192,72585,1,0,0:0:0:0:
64,192,72663,1,0,0:0:0:0:
320,192,72740,1,0,0:0:0:0:
192,192,72817,1,0,0:0:0:0:
448,192,72817,1,0,0:0:0:0:
320,192,72895,1,0,0:0:0:0:
64,192,72972,1,0,0:0:0:0:
448,192,72972,1,0,0:0:0:0:
192,192,73049,1,0,0:0:0:0:
320,192,73127,1,0,0:0:0:0:
448,192,73127,1,0,0:0:0:0:
64,192,73204,1,0,0:0:0:0:
192,192,73281,1,0,0:0:0:0:
448,192,73281,1,0,0:0:0:0:
320,192,73333,1,0,0:0:0:0:
64,192,73384,1,0,0:0:0:0:
448,192,73436,1,0,0:0:0:0:
320,192,73487,1,0,0:0:0:0:
192,192,73539,1,0,0:0:0:0:
448,192,73591,1,0,0:0:0:0:
64,192,73668,1,0,0:0:0:0:
320,192,73745,1,0,0:0:0:0:
448,192,73745,1,0,0:0:0:0:
192,192,73823,1,0,0:0:0:0:
64,192,73900,1,0,0:0:0:0:
448,192,73900,1,0,0:0:0:0:
320,192,73977,1,0,0:0:0:0:
64,192,74054,1,0,0:0:0:0:
192,192,74054,1,0,0:0:0:0:
448,192,74054,1,0,0:0:0:0:
320,192,74132,1,0,0:0:0:0:
192,192,74209,1,0,0:0:0:0:
320,192,74364,1,0,0:0:0:0:
448,192,74364,1,0,0:0:0:0:
192,192,74441,1,0,0:0:0:0:
64,192,74518,1,0,0:0:0:0:
320,192,74518,1,0,0:0:0:0:
192,192,74750,1,0,0:0:0:0:
64,192,74828,1,0,0:0:0:0:
448,192,74828,1,0,0:0:0:0:
320,192,74982,1,0,0:0:0:0:
448,192,74982,1,0,0:0:0:0:
192,192,75034,1,0,0:0:0:0:
64,192,75085,1,0,0:0:0:0:
320,192,75137,1,0,0:0:0:0:
448,192,75137,1,0,0:0:0:0:
192,192,75214,1,0,0:0:0:0:
64,192,75292,1,0,0:0:0:0:
320,192,75292,1,0,0:0:0:0:
448,192,75292,1,0,0:0:0:0:
192,192,75369,1,0,0:0:0:0:
64,192,75446,1,0,0:0:0:0:
448,192,75446,1,0,0:0:0:0:
320,192,75524,1,0,0:0:0:0:
64,192,75601,1,0,0:0:0:0:
192,192,75601,1,0,0:0:0:0:
448,192,75678,1,0,0:0:0:0:
192,192,75756,1,0,0:0:0:0:
320,192,75756,1,0,0:0:0:0:
64,192,75833,1,0,0:0:0:0:
192,192,75910,1,0,0:0:0:0:
448,192,75910,1,0,0:0:0:0:
320,192,75987,1,0,0:0:0:0:
64,192,76065,1,0,0:0:0:0:
192,192,76065,1,0,0:0:0:0:
448,192,76142,1,0,0:0:0:0:
192,192,76219,1,0,0:0:0:0:
320,192,76219,1,0,0:0:0:0:
64,192,76297,1,0,0:0:0:0:
320,192,76374,1,0,0:0:0:0:
448,192,76374,1,0,0:0:0:0:
192,192,76426,1,0,0:0:0:0:
64,192,76477,1,0,0:0:0:0:
448,192,76529,1,0,0:0:0:0:
320,192,76580,1,0,0:0:0:0:
64,192,76632,1,0,0:0:0:0:
320,192,76683,1,0,0:0:0:0:
448,192,76683,1,0,0:0:0:0:
192,192,76761,1,0,0:0:0:0:
64,192,76838,1,0,0:0:0:0:
320,192,76838,1,0,0:0:0:0:
192,192,76915,1,0,0:0:0:0:
320,192,76993,1,0,0:0:0:0:
448,192,76993,1,0,0:0:0:0:
64,192,77070,1,0,0:0:0:0:
192,192,77147,1,0,0:0:0:0:
448,192,77147,1,0,0:0:0:0:
320,192,77225,1,0,0:0:0:0:
64,192,77302,1,0,0:0:0:0:
192,192,77302,1,0,0:0:0:0:
448,192,77379,1,0,0:0:0:0:
192,192,77457,1,0,0:0:0:0:
320,192,77457,1,0,0:0:0:0:
64,192,77534,1,0,0:0:0:0:
448,192,77611,1,0,0:0:0:0:
192,192,77688,1,0,0:0:0:0:
320,192,77766,1,0,0:0:0:0:
448,192,77766,1,0,0:0:0:0:
64,192,77843,1,0,0:0:0:0:
192,192,77920,1,0,0:0:0:0:
448,192,77920,1,0,0:0:0:0:
320,192,77998,1,0,0:0:0:0:
64,192,78075,1,0,0:0:0:0:
192,192,78075,1,0,0:0:0:0:
448,192,78152,1,0,0:0:0:0:
320,192,78230,1,0,0:0:0:0:
64,192,78230,1,0,0:0:0:0:
192,192,78281,1,0,0:0:0:0:
448,192,78333,1,0,0:0:0:0:
64,192,78384,1,0,0:0:0:0:
192,192,78436,1,0,0:0:0:0:
448,192,78487,1,0,0:0:0:0:
64,192,78539,1,0,0:0:0:0:
320,192,78539,1,0,0:0:0:0:
192,192,78616,1,0,0:0:0:0:
320,192,78694,1,0,0:0:0:0:
448,192,78694,1,0,0:0:0:0:
64,192,78771,1,0,0:0:0:0:
448,192,78848,1,0,0:0:0:0:
192,192,78848,1,0,0:0:0:0:
320,192,78926,1,0,0:0:0:0:
64,192,79003,1,0,0:0:0:0:
448,192,79003,1,0,0:0:0:0:
320,192,79080,1,0,0:0:0:0:
64,192,79158,1,0,0:0:0:0:
192,192,79158,1,0,0:0:0:0:
448,192,79235,1,0,0:0:0:0:
192,192,79312,1,0,0:0:0:0:
320,192,79312,1,0,0:0:0:0:
64,192,79390,1,0,0:0:0:0:
192,192,79467,1,0,0:0:0:0:
448,192,79467,1,0,0:0:0:0:
320,192,79544,1,0,0:0:0:0:
64,192,79621,1,0,0:0:0:0:
192,192,79621,1,0,0:0:0:0:
320,192,79673,1,0,0:0:0:0:
448,192,79725,1,0,0:0:0:0:
64,192,79776,1,0,0:0:0:0:
192,192,79776,1,0,0:0:0:0:
320,192,79853,1,0,0:0:0:0:
192,192,79931,1,0,0:0:0:0:
448,192,79931,1,0,0:0:0:0:
64,192,80008,1,0,0:0:0:0:
320,192,80085,1,0,0:0:0:0:
64,192,80163,1,0,0:0:0:0:
320,192,80240,1,0,0:0:0:0:
448,192,80240,1,0,0:0:0:0:
192,192,80317,1,0,0:0:0:0:
64,192,80395,1,0,0:0:0:0:
448,192,80395,1,0,0:0:0:0:
320,192,80472,1,0,0:0:0:0:
64,192,80549,1,0,0:0:0:0:
192,192,80549,1,0,0:0:0:0:
320,192,80627,1,0,0:0:0:0:
192,192,80704,1,0,0:0:0:0:
448,192,80704,1,0,0:0:0:0:
64,192,80756,1,0,0:0:0:0:
448,192,80807,1,0,0:0:0:0:
320,192,80859,1,0,0:0:0:0:
192,192,80910,1,0,0:0:0:0:
64,192,80962,1,0,0:0:0:0:
320,192,81013,1,0,0:0:0:0:
448,192,81013,1,0,0:0:0:0:
192,192,81091,1,0,0:0:0:0:
448,192,81168,1,0,0:0:0:0:
64,192,81245,1,0,0:0:0:0:
320,192,81323,1,0,0:0:0:0:
448,192,81323,1,0,0:0:0:0:
192,192,81400,1,0,0:0:0:0:
64,192,81477,1,0,0:0:0:0:
448,192,81554,1,0,0:0:0:0:
64,192,81632,1,0,0:0:0:0:
192,192,81632,1,0,0:0:0:0:
320,192,81709,1,0,0:0:0:0:
192,192,81786,1,0,0:0:0:0:
448,192,81786,1,0,0:0:0:0:
64,192,81864,1,0,0:0:0:0:
320,192,81941,1,0,0:0:0:0:
448,192,81941,1,0,0:0:0:0:
192,192,82018,1,0,0:0:0:0:
64,192,82096,1,0,0:0:0:0:
448,192,82173,1,0,0:0:0:0:
192,192,82250,1,0,0:0:0:0:
320,192,82328,1,0,0:0:0:0:
64,192,82405,1,0,0:0:0:0:
448,192,82482,1,0,0:0:0:0:
64,192,82560,1,0,0:0:0:0:
192,192,82560,1,0,0:0:0:0:
448,192,82611,1,0,0:0:0:0:
192,192,82663,1,0,0:0:0:0:
320,192,82714,1,0,0:0:0:0:
64,192,82766,1,0,0:0:0:0:
448,192,82817,1,0,0:0:0:0:
64,192,82869,1,0,0:0:0:0:
192,192,82869,1,0,0:0:0:0:
320,192,82920,1,0,0:0:0:0:
64,192,82972,1,0,0:0:0:0:
448,192,83024,1,0,0:0:0:0:
192,192,83075,1,0,0:0:0:0:
64,192,83127,1,0,0:0:0:0:
320,192,83178,1,0,0:0:0:0:
448,192,83178,1,0,0:0:0:0:
192,192,83230,1,0,0:0:0:0:
448,192,83281,1,0,0:0:0:0:
64,192,83333,1,0,0:0:0:0:
320,192,83384,1,0,0:0:0:0:
192,192,83436,1,0,0:0:0:0:
320,192,83487,1,0,0:0:0:0:
448,192,83487,1,0,0:0:0:0:
64,192,83539,1,0,0:0:0:0:
320,192,83591,1,0,0:0:0:0:
192,192,83642,1,0,0:0:0:0:
448,192,83694,1,0,0:0:0:0:
320,192,83745,1,0,0:0:0:0:
64,192,83797,1,0,0:0:0:0:
192,192,83797,1,0,0:0:0:0:
448,192,83848,1,0,0:0:0:0:
192,192,83900,1,0,0:0:0:0:
320,192,83951,1,0,0:0:0:0:
64,192,84003,1,0,0:0:0:0:
448,192,84054,1,0,0:0:0:0:
320,192,84106,1,0,0:0:0:0:
192,192,84158,1,0,0:0:0:0:
64,192,84209,1,0,0:0:0:0:
448,192,84261,1,0,0:0:0:0:
320,192,84312,1,0,0:0:0:0:
64,192,84364,1,0,0:0:0:0:
320,192,84415,1,0,0:0:0:0:
448,192,84415,1,0,0:0:0:0:
192,192,84467,1,0,0:0:0:0:
64,192,84518,1,0,0:0:0:0:
320,192,84570,1,0,0:0:0:0:
448,192,84570,1,0,0:0:0:0:
64,192,84647,1,0,0:0:0:0:
192,192,84647,1,0,0:0:0:0:
320,192,84725,1,0,0:0:0:0:
448,192,84725,1,0,0:0:0:0:
64,192,84802,1,0,0:0:0:0:
320,192,84879,1,0,0:0:0:0:
448,192,84957,1,0,0:0:0:0:
192,192,85034,1,0,0:0:0:0:
64,192,85111,1,0,0:0:0:0:
320,192,85188,1,0,0:0:0:0:
448,192,85188,1,0,0:0:0:0:
192,192,85266,1,0,0:0:0:0:
64,192,85343,1,0,0:0:0:0:
320,192,85343,1,0,0:0:0:0:
448,192,85420,1,0,0:0:0:0:
64,192,85498,1,0,0:0:0:0:
192,192,85498,1,0,0:0:0:0:
320,192,85575,1,0,0:0:0:0:
64,192,85652,1,0,0:0:0:0:
448,192,85652,1,0,0:0:0:0:
192,192,85730,1,0,0:0:0:0:
448,192,85807,1,0,0:0:0:0:
64,192,85884,1,0,0:0:0:0:
320,192,85962,1,0,0:0:0:0:
448,192,85962,1,0,0:0:0:0:
192,192,86039,1,0,0:0:0:0:
64,192,86116,1,0,0:0:0:0:
320,192,86116,1,0,0:0:0:0:
448,192,86194,1,0,0:0:0:0:
192,192,86271,1,0,0:0:0:0:
320,192,86271,1,0,0:0:0:0:
64,192,86348,1,0,0:0:0:0:
448,192,86426,1,0,0:0:0:0:
192,192,86503,1,0,0:0:0:0:
64,192,86580,1,0,0:0:0:0:
320,192,86580,1,0,0:0:0:0:
448,192,86658,1,0,0:0:0:0:
64,192,86735,1,0,0:0:0:0:
192,192,86735,1,0,0:0:0:0:
320,192,86812,1,0,0:0:0:0:
64,192,86890,1,0,0:0:0:0:
448,192,86890,1,0,0:0:0:0:
192,192,86967,1,0,0:0:0:0:
320,192,87044,1,0,0:0:0:0:
448,192,87121,1,0,0:0:0:0:
64,192,87199,1,0,0:0:0:0:
192,192,87199,1,0,0:0:0:0:
320,192,87276,1,0,0:0:0:0:
448,192,87353,1,0,0:0:0:0:
192,192,87431,1,0,0:0:0:0:
320,192,87508,1,0,0:0:0:0:
448,192,87508,1,0,0:0:0:0:
64,192,87560,1,0,0:0:0:0:
320,192,87611,1,0,0:0:0:0:
192,192,87663,1,0,0:0:0:0:
448,192,87714,1,0,0:0:0:0:
64,192,87766,1,0,0:0:0:0:
320,192,87817,1,0,0:0:0:0:
448,192,87817,1,0,0:0:0:0:
192,192,87869,1,0,0:0:0:0:
64,192,87920,1,0,0:0:0:0:
448,192,87972,1,0,0:0:0:0:
192,192,88024,1,0,0:0:0:0:
320,192,88075,1,0,0:0:0:0:
64,192,88127,1,0,0:0:0:0:
192,192,88127,1,0,0:0:0:0:
448,192,88178,1,0,0:0:0:0:
64,192,88230,1,0,0:0:0:0:
320,192,88281,1,0,0:0:0:0:
192,192,88333,1,0,0:0:0:0:
448,192,88384,1,0,0:0:0:0:
64,192,88436,1,0,0:0:0:0:
192,192,88436,1,0,0:0:0:0:
320,192,88487,1,0,0:0:0:0:
448,192,88539,1,0,0:0:0:0:
64,192,88591,1,0,0:0:0:0:
192,192,88591,1,0,0:0:0:0:
64,192,88745,1,0,0:0:0:0:
192,192,88745,1,0,0:0:0:0:
320,192,88745,1,0,0:0:0:0:
64,192,88900,1,0,0:0:0:0:
448,192,88900,1,0,0:0:0:0:
64,192,89054,1,0,0:0:0:0:
192,192,89054,1,0,0:0:0:0:
320,192,89209,1,0,0:0:0:0:
448,192,89209,1,0,0:0:0:0:
192,192,89364,1,0,0:0:0:0:
448,192,89364,1,0,0:0:0:0:
320,192,89596,1,0,0:0:0:0:
448,192,89596,1,0,0:0:0:0:
64,192,89673,1,0,0:0:0:0:
448,192,89673,1,0,0:0:0:0:
192,192,89828,1,0,0:0:0:0:
320,192,89828,1,0,0:0:0:0:
64,192,89982,1,0,0:0:0:0:
192,192,89982,1,0,0:0:0:0:
192,192,90060,1,0,0:0:0:0:
448,192,90137,1,0,0:0:0:0:
320,192,90176,1,0,0:0:0:0:
192,192,90214,1,0,0:0:0:0:
64,192,90253,1,0,0:0:0:0:
448,192,90292,1,0,0:0:0:0:
320,192,90330,1,0,0:0:0:0:
64,192,90369,1,0,0:0:0:0:
192,192,90408,1,0,0:0:0:0:
448,192,90446,1,0,0:0:0:0:
64,192,90485,1,0,0:0:0:0:
192,192,90524,1,0,0:0:0:0:
320,192,90562,1,0,0:0:0:0:
448,192,90601,1,0,0:0:0:0:
64,192,90640,1,0,0:0:0:0:
320,192,90678,1,0,0:0:0:0:
192,192,90717,1,0,0:0:0:0:
64,192,90756,1,0,0:0:0:0:
448,192,90794,1,0,0:0:0:0:
320,192,90833,1,0,0:0:0:0:
192,192,90871,1,0,0:0:0:0:
64,192,90910,1,0,0:0:0:0:
448,192,90949,1,0,0:0:0:0:
320,192,90987,1,0,0:0:0:0:
64,192,91026,1,0,0:0:0:0:
192,192,91065,1,0,0:0:0:0:
448,192,91103,1,0,0:0:0:0:
320,192,91142,1,0,0:0:0:0:
64,192,91181,1,0,0:0:0:0:
448,192,91219,1,0,0:0:0:0:
320,192,91258,1,0,0:0:0:0:
192,192,91297,1,0,0:0:0:0:
64,192,91335,1,0,0:0:0:0:
448,192,91374,1,0,0:0:0:0:
320,192,91413,1,0,0:0:0:0:
192,192,91451,1,0,0:0:0:0:
64,192,91490,1,0,0:0:0:0:
320,192,91529,1,0,0:0:0:0:
192,192,91567,1,0,0:0:0:0:
320,192,91606,1,0,0:0:0:0:
448,192,91645,1,0,0:0:0:0:
64,192,91683,1,0,0:0:0:0:
192,192,91722,1,0,0:0:0:0:
320,192,91761,1,0,0:0:0:0:
448,192,91799,1,0,0:0:0:0:
64,192,91838,1,0,0:0:0:0:
192,192,91877,1,0,0:0:0:0:
320,192,91915,1,0,0:0:0:0:
64,192,91954,1,0,0:0:0:0:
448,192,91993,1,0,0:0:0:0:
320,192,92031,1,0,0:0:0:0:
192,192,92070,1,0,0:0:0:0:
64,192,92109,1,0,0:0:0:0:
448,192,92147,1,0,0:0:0:0:
320,192,92186,1,0,0:0:0:0:
192,192,92225,1,0,0:0:0:0:
448,192,92263,1,0,0:0:0:0:
320,192,92302,1,0,0:0:0:0:
64,192,92341,1,0,0:0:0:0:
192,192,92379,1,0,0:0:0:0:
320,192,92418,1,0,0:0:0:0:
64,192,92457,1,0,0:0:0:0:
448,192,92495,1,0,0:0:0:0:
192,192,92534,1,0,0:0:0:0:
64,192,92573,1,0,0:0:0:0:
448,192,92611,1,0,0:0:0:0:
320,192,92650,1,0,0:0:0:0:
192,192,92688,1,0,0:0:0:0:
64,192,92727,1,0,0:0:0:0:
448,192,92766,1,0,0:0:0:0:
320,192,92804,1,0,0:0:0:0:
192,192,92843,1,0,0:0:0:0:
64,192,92882,1,0,0:0:0:0:
448,192,92920,1,0,0:0:0:0:
192,192,92959,1,0,0:0:0:0:
320,192,92998,1,0,0:0:0:0:
448,192,93036,1,0,0:0:0:0:
64,192,93075,1,0,0:0:0:0:
192,192,93114,1,0,0:0:0:0:
448,192,93152,1,0,0:0:0:0:
64,192,93191,1,0,0:0:0:0:
192,192,93230,1,0,0:0:0:0:
320,192,93268,1,0,0:0:0:0:
448,192,93307,1,0,0:0:0:0:
64,192,93346,1,0,0:0:0:0:
320,192,93384,1,0,0:0:0:0:
192,192,93423,1,0,0:0:0:0:
320,192,93462,1,0,0:0:0:0:
448,192,93500,1,0,0:0:0:0:
64,192,93539,1,0,0:0:0:0:
320,192,93578,1,0,0:0:0:0:
192,192,93616,1,0,0:0:0:0:
448,192,93655,1,0,0:0:0:0:
64,192,93694,1,0,0:0:0:0:
192,192,93732,1,0,0:0:0:0:
320,192,93771,1,0,0:0:0:0:
64,192,93810,1,0,0:0:0:0:
448,192,93848,1,0,0:0:0:0:
320,192,93887,1,0,0:0:0:0:
192,192,93926,1,0,0:0:0:0:
448,192,93964,1,0,0:0:0:0:
320,192,94003,1,0,0:0:0:0:
64,192,94042,1,0,0:0:0:0:
320,192,94080,1,0,0:0:0:0:
192,192,94119,1,0,0:0:0:0:
64,192,94158,1,0,0:0:0:0:
448,192,94196,1,0,0:0:0:0:
192,192,94235,1,0,0:0:0:0:
64,192,94274,1,0,0:0:0:0:
320,192,94312,1,0,0:0:0:0:
192,192,94351,1,0,0:0:0:0:
64,192,94390,1,0,0:0:0:0:
448,192,94428,1,0,0:0:0:0:
320,192,94467,1,0,0:0:0:0:
64,192,94506,1,0,0:0:0:0:
448,192,94544,1,0,0:0:0:0:
320,192,94583,1,0,0:0:0:0:
192,192,94621,1,0,0:0:0:0:
448,192,94660,1,0,0:0:0:0:
192,192,94699,1,0,0:0:0:0:
64,192,94737,1,0,0:0:0:0:
448,192,94776,1,0,0:0:0:0:
320,192,94815,1,0,0:0:0:0:
64,192,94853,1,0,0:0:0:0:
448,192,94892,1,0,0:0:0:0:
320,192,94931,1,0,0:0:0:0:
192,192,94969,1,0,0:0:0:0:
448,192,95008,1,0,0:0:0:0:
320,192,95047,1,0,0:0:0:0:
64,192,95085,1,0,0:0:0:0:
192,192,95085,1,0,0:0:0:0:
448,192,95124,1,0,0:0:0:0:
320,192,95163,1,0,0:0:0:0:
192,192,95201,1,0,0:0:0:0:
64,192,95240,1,0,0:0:0:0:
320,192,95279,1,0,0:0:0:0:
192,192,95317,1,0,0:0:0:0:
448,192,95356,1,0,0:0:0:0:
320,192,95395,1,0,0:0:0:0:
64,192,95433,1,0,0:0:0:0:
192,192,95472,1,0,0:0:0:0:
320,192,95511,1,0,0:0:0:0:
64,192,95549,1,0,0:0:0:0:
448,192,95588,1,0,0:0:0:0:
320,192,95627,1,0,0:0:0:0:
192,192,95665,1,0,0:0:0:0:
64,192,95704,1,0,0:0:0:0:
448,192,95743,1,0,0:0:0:0:
320,192,95781,1,0,0:0:0:0:
64,192,95820,1,0,0:0:0:0:
192,192,95859,1,0,0:0:0:0:
448,192,95897,1,0,0:0:0:0:
320,192,95936,1,0,0:0:0:0:
64,192,95975,1,0,0:0:0:0:
192,192,96013,1,0,0:0:0:0:
448,192,96052,1,0,0:0:0:0:
64,192,96091,1,0,0:0:0:0:
192,192,96129,1,0,0:0:0:0:
320,192,96168,1,0,0:0:0:0:
64,192,96207,1,0,0:0:0:0:
192,192,96245,1,0,0:0:0:0:
320,192,96284,1,0,0:0:0:0:
448,192,96323,1,0,0:0:0:0:
64,192,96361,1,0,0:0:0:0:
320,192,96400,1,0,0:0:0:0:
448,192,96438,1,0,0:0:0:0:
192,192,96477,1,0,0:0:0:0:
64,192,96516,1,0,0:0:0:0:
192,192,96554,1,0,0:0:0:0:
320,192,96593,1,0,0:0:0:0:
448,192,96632,1,0,0:0:0:0:
192,192,96670,1,0,0:0:0:0:
64,192,96709,1,0,0:0:0:0:
448,192,96748,1,0,0:0:0:0:
320,192,96786,1,0,0:0:0:0:
64,192,96825,1,0,0:0:0:0:
448,192,96864,1,0,0:0:0:0:
320,192,96902,1,0,0:0:0:0:
192,192,96941,1,0,0:0:0:0:
64,192,96980,1,0,0:0:0:0:
448,192,97018,1,0,0:0:0:0:
192,192,97057,1,0,0:0:0:0:
320,192,97096,1,0,0:0:0:0:
64,192,97134,1,0,0:0:0:0:
192,192,97173,1,0,0:0:0:0:
448,192,97212,1,0,0:0:0:0:
64,192,97250,1,0,0:0:0:0:
192,192,97289,1,0,0:0:0:0:
320,192,97328,1,0,0:0:0:0:
64,192,97366,1,0,0:0:0:0:
448,192,97405,1,0,0:0:0:0:
320,192,97444,1,0,0:0:0:0:
192,192,97482,1,0,0:0:0:0:
64,192,97521,1,0,0:0:0:0:
448,192,97560,1,0,0:0:0:0:
192,192,97598,1,0,0:0:0:0:
320,192,97637,1,0,0:0:0:0:
64,192,97676,1,0,0:0:0:0:
448,192,97714,1,0,0:0:0:0:
320,192,97753,1,0,0:0:0:0:
192,192,97792,1,0,0:0:0:0:
64,192,97830,1,0,0:0:0:0:
448,192,97869,1,0,0:0:0:0:
320,192,97908,1,0,0:0:0:0:
64,192,97946,1,0,0:0:0:0:
448,192,97985,1,0,0:0:0:0:
192,192,98024,1,0,0:0:0:0:
320,192,98062,1,0,0:0:0:0:
64,192,98101,1,0,0:0:0:0:
192,192,98140,1,0,0:0:0:0:
448,192,98178,1,0,0:0:0:0:
320,192,98217,1,0,0:0:0:0:
64,192,98256,1,0,0:0:0:0:
448,192,98294,1,0,0:0:0:0:
320,192,98333,1,0,0:0:0:0:
192,192,98371,1,0,0:0:0:0:
448,192,98410,1,0,0:0:0:0:
64,192,98449,1,0,0:0:0:0:
192,192,98487,1,0,0:0:0:0:
320,192,98526,1,0,0:0:0:0:
448,192,98565,1,0,0:0:0:0:
64,192,98603,1,0,0:0:0:0:
320,192,98642,1,0,0:0:0:0:
192,192,98681,1,0,0:0:0:0:
448,192,98719,1,0,0:0:0:0:
320,192,98758,1,0,0:0:0:0:
64,192,98797,1,0,0:0:0:0:
192,192,98835,1,0,0:0:0:0:
320,192,98874,1,0,0:0:0:0:
448,192,98913,1,0,0:0:0:0:
64,192,98951,1,0,0:0:0:0:
320,192,98990,1,0,0:0:0:0:
192,192,99029,1,0,0:0:0:0:
64,192,99067,1,0,0:0:0:0:
448,192,99106,1,0,0:0:0:0:
320,192,99145,1,0,0:0:0:0:
192,192,99183,1,0,0:0:0:0:
64,192,99222,1,0,0:0:0:0:
320,192,99261,1,0,0:0:0:0:
448,192,99299,1,0,0:0:0:0:
192,192,99338,1,0,0:0:0:0:
320,192,99377,1,0,0:0:0:0:
64,192,99415,1,0,0:0:0:0:
192,192,99454,1,0,0:0:0:0:
320,192,99493,1,0,0:0:0:0:
448,192,99531,1,0,0:0:0:0:
64,192,99570,1,0,0:0:0:0:
192,192,99621,1,0,0:0:0:0:
320,192,99673,1,0,0:0:0:0:
64,192,99725,1,0,0:0:0:0:
192,192,99776,1,0,0:0:0:0:
448,192,99828,1,0,0:0:0:0:
192,192,99879,1,0,0:0:0:0:
320,192,99931,1,0,0:0:0:0:
448,192,99982,1,0,0:0:0:0:
64,192,100034,1,0,0:0:0:0:
192,192,100073,1,0,0:0:0:0:
320,192,100111,1,0,0:0:0:0:
448,192,100150,1,0,0:0:0:0:
64,192,100188,1,0,0:0:0:0:
192,192,100227,1,0,0:0:0:0:
448,192,100266,1,0,0:0:0:0:
320,192,100304,1,0,0:0:0:0:
64,192,100343,1,0,0:0:0:0:
448,192,100382,1,0,0:0:0:0:
320,192,100420,1,0,0:0:0:0:
192,192,100459,1,0,0:0:0:0:
64,192,100498,1,0,0:0:0:0:
448,192,100536,1,0,0:0:0:0:
192,192,100575,1,0,0:0:0:0:
320,192,100614,1,0,0:0:0:0:
448,192,100652,1,0,0:0:0:0:
64,192,100691,1,0,0:0:0:0:
192,192,100730,1,0,0:0:0:0:
320,192,100768,1,0,0:0:0:0:
448,192,100807,1,0,0:0:0:0:
64,192,100846,1,0,0:0:0:0:
192,192,100884,1,0,0:0:0:0:
448,192,100923,1,0,0:0:0:0:
320,192,100962,1,0,0:0:0:0:
64,192,101000,1,0,0:0:0:0:
192,192,101039,1,0,0:0:0:0:
448,192,101078,1,0,0:0:0:0:
64,192,101116,1,0,0:0:0:0:
192,192,101155,1,0,0:0:0:0:
320,192,101194,1,0,0:0:0:0:
448,192,101232,1,0,0:0:0:0:
64,192,101271,1,0,0:0:0:0:
192,192,101310,1,0,0:0:0:0:
320,192,101348,1,0,0:0:0:0:
448,192,101387,1,0,0:0:0:0:
192,192,101426,1,0,0:0:0:0:
320,192,101464,1,0,0:0:0:0:
192,192,101503,1,0,0:0:0:0:
64,192,101542,1,0,0:0:0:0:
448,192,101580,1,0,0:0:0:0:
320,192,101619,1,0,0:0:0:0:
192,192,101658,1,0,0:0:0:0:
64,192,101696,1,0,0:0:0:0:
448,192,101735,1,0,0:0:0:0:
320,192,101774,1,0,0:0:0:0:
192,192,101812,1,0,0:0:0:0:
448,192,101851,1,0,0:0:0:0:
64,192,101890,1,0,0:0:0:0:
192,192,101928,1,0,0:0:0:0:
320,192,101967,1,0,0:0:0:0:
448,192,102006,1,0,0:0:0:0:
64,192,102044,1,0,0:0:0:0:
192,192,102083,1,0,0:0:0:0:
320,192,102121,1,0,0:0:0:0:
64,192,102160,1,0,0:0:0:0:
192,192,102199,1,0,0:0:0:0:
448,192,102237,1,0,0:0:0:0:
320,192,102276,1,0,0:0:0:0:
192,192,102315,1,0,0:0:0:0:
448,192,102353,1,0,0:0:0:0:
64,192,102392,1,0,0:0:0:0:
320,192,102431,1,0,0:0:0:0:
448,192,102469,1,0,0:0:0:0:
64,192,102508,1,0,0:0:0:0:
192,192,102547,1,0,0:0:0:0:
320,192,102585,1,0,0:0:0:0:
448,192,102624,1,0,0:0:0:0:
64,192,102663,1,0,0:0:0:0:
192,192,102701,1,0,0:0:0:0:
320,192,102740,1,0,0:0:0:0:
448,192,102779,1,0,0:0:0:0:
64,192,102817,1,0,0:0:0:0:
320,192,102856,1,0,0:0:0:0:
192,192,102895,1,0,0:0:0:0:
64,192,102933,1,0,0:0:0:0:
448,192,102972,1,0,0:0:0:0:
320,192,103011,1,0,0:0:0:0:
64,192,103049,1,0,0:0:0:0:
448,192,103088,1,0,0:0:0:0:
320,192,103127,1,0,0:0:0:0:
192,192,103165,1,0,0:0:0:0:
64,192,103204,1,0,0:0:0:0:
448,192,103243,1,0,0:0:0:0:
192,192,103281,1,0,0:0:0:0:
320,192,103320,1,0,0:0:0:0:
192,192,103359,1,0,0:0:0:0:
64,192,103397,1,0,0:0:0:0:
448,192,103436,1,0,0:0:0:0:
192,192,103475,1,0,0:0:0:0:
320,192,103513,1,0,0:0:0:0:
64,192,103552,1,0,0:0:0:0:
448,192,103591,1,0,0:0:0:0:
320,192,103629,1,0,0:0:0:0:
192,192,103668,1,0,0:0:0:0:
448,192,103707,1,0,0:0:0:0:
64,192,103745,1,0,0:0:0:0:
192,192,103784,1,0,0:0:0:0:
320,192,103823,1,0,0:0:0:0:
64,192,103861,1,0,0:0:0:0:
192,192,103900,1,0,0:0:0:0:
448,192,103938,1,0,0:0:0:0:
192,192,103977,1,0,0:0:0:0:
320,192,104016,1,0,0:0:0:0:
448,192,104054,1,0,0:0:0:0:
64,192,104093,1,0,0:0:0:0:
320,192,104132,1,0,0:0:0:0:
448,192,104170,1,0,0:0:0:0:
192,192,104209,1,0,0:0:0:0:
320,192,104248,1,0,0:0:0:0:
448,192,104286,1,0,0:0:0:0:
64,192,104325,1,0,0:0:0:0:
192,192,104364,1,0,0:0:0:0:
448,192,104402,1,0,0:0:0:0:
64,192,104441,1,0,0:0:0:0:
192,192,104480,1,0,0:0:0:0:
320,192,104518,1,0,0:0:0:0:
64,192,104557,1,0,0:0:0:0:
320,192,104596,1,0,0:0:0:0:
448,192,104634,1,0,0:0:0:0:
64,192,104673,1,0,0:0:0:0:
192,192,104712,1,0,0:0:0:0:
448,192,104750,1,0,0:0:0:0:
64,192,104789,1,0,0:0:0:0:
192,192,104828,1,0,0:0:0:0:
320,192,104866,1,0,0:0:0:0:
64,192,104905,1,0,0:0:0:0:
192,192,104944,1,0,0:0:0:0:
320,192,104982,1,0,0:0:0:0:
448,192,104982,1,0,0:0:0:0:
64,192,105021,1,0,0:0:0:0:
192,192,105060,1,0,0:0:0:0:
320,192,105098,1,0,0:0:0:0:
448,192,105137,1,0,0:0:0:0:
192,192,105176,1,0,0:0:0:0:
320,192,105214,1,0,0:0:0:0:
64,192,105253,1,0,0:0:0:0:
192,192,105292,1,0,0:0:0:0:
448,192,105330,1,0,0:0:0:0:
320,192,105369,1,0,0:0:0:0:
192,192,105408,1,0,0:0:0:0:
448,192,105446,1,0,0:0:0:0:
64,192,105485,1,0,0:0:0:0:
192,192,105524,1,0,0:0:0:0:
320,192,105562,1,0,0:0:0:0:
448,192,105601,1,0,0:0:0:0:
64,192,105640,1,0,0:0:0:0:
192,192,105678,1,0,0:0:0:0:
448,192,105717,1,0,0:0:0:0:
320,192,105756,1,0,0:0:0:0:
64,192,105794,1,0,0:0:0:0:
192,192,105833,1,0,0:0:0:0:
448,192,105871,1,0,0:0:0:0:
320,192,105910,1,0,0:0:0:0:
64,192,105949,1,0,0:0:0:0:
448,192,105987,1,0,0:0:0:0:
320,192,106026,1,0,0:0:0:0:
192,192,106065,1,0,0:0:0:0:
448,192,106103,1,0,0:0:0:0:
320,192,106142,1,0,0:0:0:0:
192,192,106181,1,0,0:0:0:0:
64,192,106219,1,0,0:0:0:0:
448,192,106258,1,0,0:0:0:0:
192,192,106297,1,0,0:0:0:0:
64,192,106335,1,0,0:0:0:0:
320,192,106374,1,0,0:0:0:0:
448,192,106413,1,0,0:0:0:0:
320,192,106451,1,0,0:0:0:0:
192,192,106490,1,0,0:0:0:0:
64,192,106529,1,0,0:0:0:0:
320,192,106567,1,0,0:0:0:0:
448,192,106606,1,0,0:0:0:0:
64,192,106645,1,0,0:0:0:0:
192,192,106683,1,0,0:0:0:0:
448,192,106722,1,0,0:0:0:0:
64,192,106761,1,0,0:0:0:0:
192,192,106799,1,0,0:0:0:0:
320,192,106838,1,0,0:0:0:0:
448,192,106877,1,0,0:0:0:0:
64,192,106915,1,0,0:0:0:0:
320,192,106954,1,0,0:0:0:0:
192,192,106993,1,0,0:0:0:0:
448,192,107031,1,0,0:0:0:0:
320,192,107070,1,0,0:0:0:0:
64,192,107109,1,0,0:0:0:0:
448,192,107147,1,0,0:0:0:0:
320,192,107186,1,0,0:0:0:0:
192,192,107225,1,0,0:0:0:0:
448,192,107263,1,0,0:0:0:0:
64,192,107302,1,0,0:0:0:0:
192,192,107341,1,0,0:0:0:0:
320,192,107379,1,0,0:0:0:0:
448,192,107418,1,0,0:0:0:0:
64,192,107457,1,0,0:0:0:0:
320,192,107495,1,0,0:0:0:0:
192,192,107534,1,0,0:0:0:0:
448,192,107573,1,0,0:0:0:0:
64,192,107611,1,0,0:0:0:0:
192,192,107650,1,0,0:0:0:0:
320,192,107688,1,0,0:0:0:0:
448,192,107727,1,0,0:0:0:0:
64,192,107766,1,0,0:0:0:0:
192,192,107804,1,0,0:0:0:0:
448,192,107843,1,0,0:0:0:0:
64,192,107882,1,0,0:0:0:0:
320,192,107920,1,0,0:0:0:0:
192,192,107959,1,0,0:0:0:0:
448,192,107998,1,0,0:0:0:0:
320,192,108036,1,0,0:0:0:0:
64,192,108075,1,0,0:0:0:0:
192,192,108114,1,0,0:0:0:0:
448,192,108152,1,0,0:0:0:0:
64,192,108191,1,0,0:0:0:0:
192,192,108230,1,0,0:0:0:0:
320,192,108268,1,0,0:0:0:0:
64,192,108307,1,0,0:0:0:0:
448,192,108346,1,0,0:0:0:0:
320,192,108384,1,0,0:0:0:0:
192,192,108423,1,0,0:0:0:0:
64,192,108462,1,0,0:0:0:0:
448,192,108500,1,0,0:0:0:0:
192,192,108539,1,0,0:0:0:0:
320,192,108578,1,0,0:0:0:0:
64,192,108616,1,0,0:0:0:0:
192,192,108655,1,0,0:0:0:0:
448,192,108694,1,0,0:0:0:0:
320,192,108732,1,0,0:0:0:0:
192,192,108771,1,0,0:0:0:0:
64,192,108810,1,0,0:0:0:0:
448,192,108848,1,0,0:0:0:0:
192,192,108887,1,0,0:0:0:0:
320,192,108926,1,0,0:0:0:0:
448,192,108964,1,0,0:0:0:0:
64,192,109003,1,0,0:0:0:0:
192,192,109042,1,0,0:0:0:0:
320,192,109080,1,0,0:0:0:0:
448,192,109119,1,0,0:0:0:0:
192,192,109158,1,0,0:0:0:0:
64,192,109196,1,0,0:0:0:0:
320,192,109235,1,0,0:0:0:0:
192,192,109274,1,0,0:0:0:0:
448,192,109312,1,0,0:0:0:0:
320,192,109351,1,0,0:0:0:0:
192,192,109390,1,0,0:0:0:0:
64,192,109428,1,0,0:0:0:0:
448,192,109467,1,0,0:0:0:0:
320,192,109518,1,0,0:0:0:0:
192,192,109570,1,0,0:0:0:0:
448,192,109621,1,0,0:0:0:0:
320,192,109673,1,0,0:0:0:0:
64,192,109725,1,0,0:0:0:0:
320,192,109776,1,0,0:0:0:0:
192,192,109828,1,0,0:0:0:0:
64,192,109879,1,0,0:0:0:0:
320,192,109931,1,0,0:0:0:0:
448,192,109931,1,0,0:0:0:0:
64,192,110008,1,0,0:0:0:0:
192,192,110008,1,0,0:0:0:0:
320,192,110085,1,0,0:0:0:0:
448,192,110085,1,0,0:0:0:0:
64,192,110163,1,0,0:0:0:0:
192,192,110163,1,0,0:0:0:0:
320,192,110240,1,0,0:0:0:0:
448,192,110240,1,0,0:0:0:0:
64,192,110317,1,0,0:0:0:0:
192,192,110317,1,0,0:0:0:0:
448,192,110395,1,0,0:0:0:0:
192,192,110472,1,0,0:0:0:0:
320,192,110472,1,0,0:0:0:0:
64,192,110549,1,0,0:0:0:0:
448,192,110627,1,0,0:0:0:0:
192,192,110704,1,0,0:0:0:0:
448,192,110704,1,0,0:0:0:0:
64,192,110781,1,0,0:0:0:0:
320,192,110859,1,0,0:0:0:0:
448,192,110859,1,0,0:0:0:0:
192,192,110936,1,0,0:0:0:0:
64,192,111013,1,0,0:0:0:0:
320,192,111013,1,0,0:0:0:0:
192,192,111091,1,0,0:0:0:0:
448,192,111091,1,0,0:0:0:0:
64,192,111168,1,0,0:0:0:0:
320,192,111168,1,0,0:0:0:0:
448,192,111245,1,0,0:0:0:0:
64,192,111323,1,0,0:0:0:0:
192,192,111323,1,0,0:0:0:0:
320,192,111400,1,0,0:0:0:0:
192,192,111477,1,0,0:0:0:0:
448,192,111477,1,0,0:0:0:0:
64,192,111554,1,0,0:0:0:0:
320,192,111632,1,0,0:0:0:0:
448,192,111632,1,0,0:0:0:0:
64,192,111709,1,0,0:0:0:0:
192,192,111709,1,0,0:0:0:0:
448,192,111786,1,0,0:0:0:0:
320,192,111864,1,0,0:0:0:0:
448,192,111864,1,0,0:0:0:0:
64,192,111941,1,0,0:0:0:0:
192,192,111941,1,0,0:0:0:0:
64,192,112018,1,0,0:0:0:0:
192,192,112096,1,0,0:0:0:0:
320,192,112096,1,0,0:0:0:0:
320,192,112173,1,0,0:0:0:0:
192,192,112250,1,0,0:0:0:0:
448,192,112250,1,0,0:0:0:0:
192,192,112328,1,0,0:0:0:0:
448,192,112405,1,0,0:0:0:0:
320,192,112405,1,0,0:0:0:0:
192,192,112482,1,0,0:0:0:0:
64,192,112482,1,0,0:0:0:0:
448,192,112560,1,0,0:0:0:0:
320,192,112560,1,0,0:0:0:0:
192,192,112637,1,0,0:0:0:0:
64,192,112637,1,0,0:0:0:0:
448,192,112714,1,0,0:0:0:0:
320,192,112714,1,0,0:0:0:0:
192,192,112792,1,0,0:0:0:0:
64,192,112792,1,0,0:0:0:0:
320,192,112869,1,0,0:0:0:0:
192,192,112946,1,0,0:0:0:0:
448,192,112946,1,0,0:0:0:0:
320,192,113024,1,0,0:0:0:0:
64,192,113101,1,0,0:0:0:0:
64,192,113178,1,0,0:0:0:0:
320,192,113178,1,0,0:0:0:0:
448,192,113256,1,0,0:0:0:0:
192,192,113333,1,0,0:0:0:0:
320,192,113333,1,0,0:0:0:0:
64,192,113410,1,0,0:0:0:0:
192,192,113487,1,0,0:0:0:0:
320,192,113487,1,0,0:0:0:0:
64,192,113565,1,0,0:0:0:0:
448,192,113565,1,0,0:0:0:0:
192,192,113642,1,0,0:0:0:0:
320,192,113642,1,0,0:0:0:0:
448,192,113719,1,0,0:0:0:0:
64,192,113797,1,0,0:0:0:0:
192,192,113797,1,0,0:0:0:0:
320,192,113874,1,0,0:0:0:0:
64,192,113951,1,0,0:0:0:0:
448,192,113951,1,0,0:0:0:0:
192,192,114029,1,0,0:0:0:0:
448,192,114106,1,0,0:0:0:0:
64,192,114183,1,0,0:0:0:0:
192,192,114261,1,0,0:0:0:0:
448,192,114261,1,0,0:0:0:0:
192,192,114338,1,0,0:0:0:0:
64,192,114415,1,0,0:0:0:0:
448,192,114415,1,0,0:0:0:0:
448,192,114493,1,0,0:0:0:0:
64,192,114570,1,0,0:0:0:0:
192,192,114570,1,0,0:0:0:0:
64,192,114647,1,0,0:0:0:0:
192,192,114725,1,0,0:0:0:0:
320,192,114725,1,0,0:0:0:0:
320,192,114802,1,0,0:0:0:0:
64,192,114879,1,0,0:0:0:0:
448,192,114879,1,0,0:0:0:0:
192,192,114957,1,0,0:0:0:0:
320,192,114957,1,0,0:0:0:0:
64,192,115034,1,0,0:0:0:0:
448,192,115034,1,0,0:0:0:0:
192,192,115111,1,0,0:0:0:0:
320,192,115111,1,0,0:0:0:0:
64,192,115188,1,0,0:0:0:0:
448,192,115188,1,0,0:0:0:0:
192,192,115266,1,0,0:0:0:0:
320,192,115266,1,0,0:0:0:0:
64,192,115343,1,0,0:0:0:0:
320,192,115420,1,0,0:0:0:0:
448,192,115420,1,0,0:0:0:0:
192,192,115498,1,0,0:0:0:0:
448,192,115575,1,0,0:0:0:0:
64,192,115652,1,0,0:0:0:0:
448,192,115652,1,0,0:0:0:0:
192,192,115730,1,0,0:0:0:0:
320,192,115807,1,0,0:0:0:0:
448,192,115807,1,0,0:0:0:0:
64,192,115884,1,0,0:0:0:0:
192,192,115962,1,0,0:0:0:0:
448,192,115962,1,0,0:0:0:0:
64,192,116039,1,0,0:0:0:0:
320,192,116039,1,0,0:0:0:0:
192,192,116116,1,0,0:0:0:0:
448,192,116116,1,0,0:0:0:0:
320,192,116194,1,0,0:0:0:0:
64,192,116271,1,0,0:0:0:0:
448,192,116348,1,0,0:0:0:0:
64,192,116426,1,0,0:0:0:0:
192,192,116426,1,0,0:0:0:0:
320,192,116503,1,0,0:0:0:0:
192,192,116580,1,0,0:0:0:0:
320,192,116658,1,0,0:0:0:0:
448,192,116658,1,0,0:0:0:0:
64,192,116735,1,0,0:0:0:0:
448,192,116812,1,0,0:0:0:0:
320,192,116890,1,0,0:0:0:0:
448,192,116890,1,0,0:0:0:0:
64,192,116967,1,0,0:0:0:0:
192,192,116967,1,0,0:0:0:0:
192,192,117044,1,0,0:0:0:0:
320,192,117044,1,0,0:0:0:0:
320,192,117121,1,0,0:0:0:0:
64,192,117199,1,0,0:0:0:0:
192,192,117199,1,0,0:0:0:0:
64,192,117276,1,0,0:0:0:0:
320,192,117353,1,0,0:0:0:0:
448,192,117353,1,0,0:0:0:0:
64,192,117431,1,0,0:0:0:0:
192,192,117431,1,0,0:0:0:0:
320,192,117508,1,0,0:0:0:0:
448,192,117508,1,0,0:0:0:0:
64,192,117585,1,0,0:0:0:0:
192,192,117585,1,0,0:0:0:0:
320,192,117663,1,0,0:0:0:0:
448,192,117663,1,0,0:0:0:0:
64,192,117740,1,0,0:0:0:0:
192,192,117740,1,0,0:0:0:0:
448,192,117817,1,0,0:0:0:0:
192,192,117895,1,0,0:0:0:0:
320,192,117895,1,0,0:0:0:0:
64,192,117972,1,0,0:0:0:0:
448,192,118049,1,0,0:0:0:0:
192,192,118127,1,0,0:0:0:0:
448,192,118127,1,0,0:0:0:0:
64,192,118204,1,0,0:0:0:0:
320,192,118281,1,0,0:0:0:0:
448,192,118281,1,0,0:0:0:0:
192,192,118359,1,0,0:0:0:0:
64,192,118436,1,0,0:0:0:0:
320,192,118436,1,0,0:0:0:0:
192,192,118513,1,0,0:0:0:0:
448,192,118513,1,0,0:0:0:0:
64,192,118591,1,0,0:0:0:0:
320,192,118591,1,0,0:0:0:0:
448,192,118668,1,0,0:0:0:0:
64,192,118745,1,0,0:0:0:0:
192,192,118745,1,0,0:0:0:0:
320,192,118823,1,0,0:0:0:0:
192,192,118900,1,0,0:0:0:0:
448,192,118900,1,0,0:0:0:0:
64,192,118977,1,0,0:0:0:0:
320,192,119054,1,0,0:0:0:0:
448,192,119054,1,0,0:0:0:0:
64,192,119132,1,0,0:0:0:0:
448,192,119209,1,0,0:0:0:0:
448,192,119286,1,0,0:0:0:0:
64,192,119364,1,0,0:0:0:0:
64,192,119441,1,0,0:0:0:0:
320,192,119518,1,0,0:0:0:0:
320,192,119596,1,0,0:0:0:0:
192,192,119673,1,0,0:0:0:0:
448,192,119673,1,0,0:0:0:0:
192,192,119750,1,0,0:0:0:0:
64,192,119828,1,0,0:0:0:0:
448,192,119828,1,0,0:0:0:0:
320,192,119828,1,0,0:0:0:0:
192,192,119982,1,0,0:0:0:0:
320,192,119982,1,0,0:0:0:0:
192,192,120137,1,0,0:0:0:0:
448,192,120137,1,0,0:0:0:0:
64,192,120292,1,0,0:0:0:0:
320,192,120292,1,0,0:0:0:0:
64,192,120446,1,0,0:0:0:0:
448,192,120446,1,0,0:0:0:0:
64,192,120601,1,0,0:0:0:0:
192,192,120601,1,0,0:0:0:0:
448,192,120756,1,0,0:0:0:0:
320,192,120756,1,0,0:0:0:0:
64,192,120910,1,0,0:0:0:0:
192,192,120962,1,0,0:0:0:0:
320,192,121013,1,0,0:0:0:0:
448,192,121065,1,0,0:0:0:0:
64,192,121116,1,0,0:0:0:0:
192,192,121168,1,0,0:0:0:0:
320,192,121219,1,0,0:0:0:0:
448,192,121219,1,0,0:0:0:0:
192,192,121374,1,0,0:0:0:0:
448,192,121374,1,0,0:0:0:0:
192,192,121529,1,0,0:0:0:0:
448,192,121529,1,0,0:0:0:0:
64,192,121683,1,0,0:0:0:0:
192,192,121683,1,0,0:0:0:0:
64,192,121838,1,0,0:0:0:0:
320,192,121838,1,0,0:0:0:0:
448,192,121993,1,0,0:0:0:0:
320,192,122070,1,0,0:0:0:0:
448,192,122147,1,0,0:0:0:0:
320,192,122225,1,0,0:0:0:0:
64,192,122302,1,0,0:0:0:0:
192,192,122302,1,0,0:0:0:0:
192,192,122457,1,0,0:0:0:0:
448,192,122457,1,0,0:0:0:0:
192,192,122611,1,0,0:0:0:0:
320,192,122611,1,0,0:0:0:0:
320,192,122766,1,0,0:0:0:0:
448,192,122766,1,0,0:0:0:0:
192,192,122843,1,0,0:0:0:0:
320,192,122920,1,0,0:0:0:0:
448,192,122998,1,0,0:0:0:0:
320,192,123075,1,0,0:0:0:0:
448,192,123152,1,0,0:0:0:0:
320,192,123230,1,0,0:0:0:0:
64,192,123384,1,0,0:0:0:0:
192,192,123384,1,0,0:0:0:0:
64,192,123539,1,0,0:0:0:0:
448,192,123539,1,0,0:0:0:0:
64,192,123694,1,0,0:0:0:0:
448,192,123694,1,0,0:0:0:0:
192,192,123848,1,0,0:0:0:0:
320,192,123848,1,0,0:0:0:0:
192,192,124003,1,0,0:0:0:0:
448,192,124003,1,0,0:0:0:0:
64,192,124312,1,0,0:0:0:0:
192,192,124312,1,0,0:0:0:0:
64,192,124467,1,0,0:0:0:0:
448,192,124467,1,0,0:0:0:0:
320,192,124518,1,0,0:0:0:0:
192,192,124570,1,0,0:0:0:0:
320,192,124621,1,0,0:0:0:0:
448,192,124621,1,0,0:0:0:0:
192,192,124776,1,0,0:0:0:0:
320,192,124776,1,0,0:0:0:0:
448,192,124776,1,0,0:0:0:0:
64,192,124931,1,0,0:0:0:0:
192,192,124931,1,0,0:0:0:0:
64,192,125085,1,0,0:0:0:0:
320,192,125085,1,0,0:0:0:0:
192,192,125240,1,0,0:0:0:0:
320,192,125240,1,0,0:0:0:0:
64,192,125395,1,0,0:0:0:0:
448,192,125395,1,0,0:0:0:0:
64,192,125549,1,0,0:0:0:0:
192,192,125549,1,0,0:0:0:0:
320,192,125704,1,0,0:0:0:0:
448,192,125704,1,0,0:0:0:0:
192,192,125859,1,0,0:0:0:0:
448,192,125859,1,0,0:0:0:0:
320,192,125910,1,0,0:0:0:0:
64,192,125962,1,0,0:0:0:0:
448,192,126013,1,0,0:0:0:0:
192,192,126065,1,0,0:0:0:0:
64,192,126116,1,0,0:0:0:0:
320,192,126168,1,0,0:0:0:0:
448,192,126168,1,0,0:0:0:0:
192,192,126323,1,0,0:0:0:0:
448,192,126323,1,0,0:0:0:0:
64,192,126477,1,0,0:0:0:0:
192,192,126477,1,0,0:0:0:0:
320,192,126632,1,0,0:0:0:0:
448,192,126632,1,0,0:0:0:0:
64,192,126786,1,0,0:0:0:0:
320,192,126786,1,0,0:0:0:0:
64,192,126941,1,0,0:0:0:0:
192,192,126941,1,0,0:0:0:0:
320,192,127096,1,0,0:0:0:0:
448,192,127173,1,0,0:0:0:0:
64,192,127250,1,0,0:0:0:0:
320,192,127250,1,0,0:0:0:0:
192,192,127405,1,0,0:0:0:0:
448,192,127405,1,0,0:0:0:0:
192,192,127560,1,0,0:0:0:0:
320,192,127560,1,0,0:0:0:0:
64,192,127714,1,0,0:0:0:0:
448,192,127714,1,0,0:0:0:0:
192,192,127792,1,0,0:0:0:0:
64,192,127869,1,0,0:0:0:0:
448,192,128024,1,0,0:0:0:0:
320,192,128101,1,0,0:0:0:0:
448,192,128178,1,0,0:0:0:0:
192,192,128333,1,0,0:0:0:0:
320,192,128410,1,0,0:0:0:0:
64,192,128487,1,0,0:0:0:0:
192,192,128487,1,0,0:0:0:0:
192,192,128642,1,0,0:0:0:0:
448,192,128642,1,0,0:0:0:0:
64,192,128797,1,0,0:0:0:0:
320,192,128797,1,0,0:0:0:0:
320,192,128951,1,0,0:0:0:0:
448,192,128951,1,0,0:0:0:0:
192,192,129003,1,0,0:0:0:0:
64,192,129054,1,0,0:0:0:0:
448,192,129106,1,0,0:0:0:0:
320,192,129209,1,0,0:0:0:0:
192,192,129312,1,0,0:0:0:0:
64,192,129415,1,0,0:0:0:0:
448,192,129518,1,0,0:0:0:0:
320,192,129621,1,0,0:0:0:0:
64,192,129725,1,0,0:0:0:0:
192,192,129725,1,0,0:0:0:0:
320,192,129802,1,0,0:0:0:0:
192,192,129879,1,0,0:0:0:0:
448,192,129879,1,0,0:0:0:0:
64,192,129957,1,0,0:0:0:0:
320,192,130034,1,0,0:0:0:0:
448,192,130034,1,0,0:0:0:0:
192,192,130111,1,0,0:0:0:0:
320,192,130188,1,0,0:0:0:0:
448,192,130188,1,0,0:0:0:0:
192,192,130240,1,0,0:0:0:0:
64,192,130292,1,0,0:0:0:0:
448,192,130343,1,0,0:0:0:0:
320,192,130395,1,0,0:0:0:0:
192,192,130446,1,0,0:0:0:0:
320,192,130498,1,0,0:0:0:0:
448,192,130498,1,0,0:0:0:0:
64,192,130575,1,0,0:0:0:0:
192,192,130652,1,0,0:0:0:0:
448,192,130652,1,0,0:0:0:0:
64,192,130730,1,0,0:0:0:0:
192,192,130807,1,0,0:0:0:0:
320,192,130807,1,0,0:0:0:0:
448,192,130884,1,0,0:0:0:0:
64,192,130962,1,0,0:0:0:0:
320,192,131039,1,0,0:0:0:0:
192,192,131116,1,0,0:0:0:0:
448,192,131116,1,0,0:0:0:0:
64,192,131194,1,0,0:0:0:0:
320,192,131271,1,0,0:0:0:0:
448,192,131271,1,0,0:0:0:0:
192,192,131348,1,0,0:0:0:0:
64,192,131426,1,0,0:0:0:0:
448,192,131426,1,0,0:0:0:0:
320,192,131503,1,0,0:0:0:0:
192,192,131580,1,0,0:0:0:0:
64,192,131658,1,0,0:0:0:0:
320,192,131735,1,0,0:0:0:0:
448,192,131735,1,0,0:0:0:0:
192,192,131812,1,0,0:0:0:0:
64,192,131890,1,0,0:0:0:0:
320,192,131967,1,0,0:0:0:0:
64,192,132044,1,0,0:0:0:0:
192,192,132044,1,0,0:0:0:0:
448,192,132044,1,0,0:0:0:0:
192,192,132353,1,0,0:0:0:0:
320,192,132353,1,0,0:0:0:0:
448,192,132353,1,0,0:0:0:0:
64,192,132663,1,0,0:0:0:0:
320,192,132663,1,0,0:0:0:0:
448,192,132663,1,0,0:0:0:0:
192,192,132817,1,0,0:0:0:0:
64,192,132972,1,0,0:0:0:0:
192,192,132972,1,0,0:0:0:0:
320,192,132972,1,0,0:0:0:0:
320,192,133127,1,0,0:0:0:0:
64,192,133204,1,0,0:0:0:0:
192,192,133281,1,0,0:0:0:0:
320,192,133281,1,0,0:0:0:0:
448,192,133281,1,0,0:0:0:0:
64,192,133359,1,0,0:0:0:0:
320,192,133436,1,0,0:0:0:0:
448,192,133436,1,0,0:0:0:0:
192,192,133513,1,0,0:0:0:0:
64,192,133591,1,0,0:0:0:0:
320,192,133591,1,0,0:0:0:0:
448,192,133668,1,0,0:0:0:0:
64,192,133745,1,0,0:0:0:0:
192,192,133745,1,0,0:0:0:0:
448,192,133823,1,0,0:0:0:0:
64,192,133900,1,0,0:0:0:0:
320,192,133900,1,0,0:0:0:0:
192,192,133977,1,0,0:0:0:0:
320,192,134054,1,0,0:0:0:0:
448,192,134054,1,0,0:0:0:0:
64,192,134132,1,0,0:0:0:0:
192,192,134209,1,0,0:0:0:0:
448,192,134209,1,0,0:0:0:0:
320,192,134286,1,0,0:0:0:0:
64,192,134364,1,0,0:0:0:0:
192,192,134364,1,0,0:0:0:0:
448,192,134441,1,0,0:0:0:0:
64,192,134518,1,0,0:0:0:0:
320,192,134518,1,0,0:0:0:0:
448,192,134596,1,0,0:0:0:0:
64,192,134673,1,0,0:0:0:0:
192,192,134673,1,0,0:0:0:0:
320,192,134750,1,0,0:0:0:0:
64,192,134828,1,0,0:0:0:0:
448,192,134828,1,0,0:0:0:0:
192,192,134905,1,0,0:0:0:0:
320,192,134982,1,0,0:0:0:0:
448,192,134982,1,0,0:0:0:0:
192,192,135060,1,0,0:0:0:0:
64,192,135137,1,0,0:0:0:0:
320,192,135137,1,0,0:0:0:0:
448,192,135188,1,0,0:0:0:0:
64,192,135240,1,0,0:0:0:0:
192,192,135292,1,0,0:0:0:0:
320,192,135343,1,0,0:0:0:0:
448,192,135395,1,0,0:0:0:0:
64,192,135446,1,0,0:0:0:0:
192,192,135446,1,0,0:0:0:0:
320,192,135524,1,0,0:0:0:0:
64,192,135601,1,0,0:0:0:0:
448,192,135678,1,0,0:0:0:0:
64,192,135756,1,0,0:0:0:0:
192,192,135756,1,0,0:0:0:0:
320,192,135833,1,0,0:0:0:0:
448,192,135910,1,0,0:0:0:0:
64,192,135987,1,0,0:0:0:0:
320,192,136065,1,0,0:0:0:0:
448,192,136065,1,0,0:0:0:0:
192,192,136142,1,0,0:0:0:0:
64,192,136219,1,0,0:0:0:0:
320,192,136219,1,0,0:0:0:0:
448,192,136297,1,0,0:0:0:0:
64,192,136374,1,0,0:0:0:0:
192,192,136374,1,0,0:0:0:0:
320,192,136451,1,0,0:0:0:0:
448,192,136529,1,0,0:0:0:0:
64,192,136606,1,0,0:0:0:0:
320,192,136683,1,0,0:0:0:0:
192,192,136761,1,0,0:0:0:0:
448,192,136838,1,0,0:0:0:0:
320,192,136915,1,0,0:0:0:0:
64,192,136993,1,0,0:0:0:0:
192,192,136993,1,0,0:0:0:0:
448,192,137044,1,0,0:0:0:0:
192,192,137096,1,0,0:0:0:0:
320,192,137147,1,0,0:0:0:0:
64,192,137199,1,0,0:0:0:0:
448,192,137250,1,0,0:0:0:0:
64,192,137302,1,0,0:0:0:0:
192,192,137302,1,0,0:0:0:0:
320,192,137353,1,0,0:0:0:0:
448,192,137405,1,0,0:0:0:0:
64,192,137457,1,0,0:0:0:0:
320,192,137508,1,0,0:0:0:0:
192,192,137560,1,0,0:0:0:0:
320,192,137611,1,0,0:0:0:0:
448,192,137611,1,0,0:0:0:0:
64,192,137663,1,0,0:0:0:0:
448,192,137714,1,0,0:0:0:0:
192,192,137766,1,0,0:0:0:0:
320,192,137817,1,0,0:0:0:0:
64,192,137869,1,0,0:0:0:0:
320,192,137920,1,0,0:0:0:0:
448,192,137920,1,0,0:0:0:0:
192,192,137972,1,0,0:0:0:0:
64,192,138024,1,0,0:0:0:0:
320,192,138075,1,0,0:0:0:0:
448,192,138075,1,0,0:0:0:0:
192,192,138230,1,0,0:0:0:0:
320,192,138230,1,0,0:0:0:0:
448,192,138230,1,0,0:0:0:0:
64,192,138384,1,0,0:0:0:0:
448,192,138384,1,0,0:0:0:0:
320,192,138539,1,0,0:0:0:0:
448,192,138539,1,0,0:0:0:0:
64,192,138694,1,0,0:0:0:0:
192,192,138694,1,0,0:0:0:0:
64,192,138848,1,0,0:0:0:0:
320,192,138848,1,0,0:0:0:0:
64,192,139080,1,0,0:0:0:0:
192,192,139080,1,0,0:0:0:0:
64,192,139158,1,0,0:0:0:0:
448,192,139158,1,0,0:0:0:0:
192,192,139312,1,0,0:0:0:0:
320,192,139312,1,0,0:0:0:0:
320,192,139467,1,0,0:0:0:0:
448,192,139467,1,0,0:0:0:0:
320,192,139544,1,0,0:0:0:0:
64,192,139621,1,0,0:0:0:0:
192,192,139660,1,0,0:0:0:0:
320,192,139699,1,0,0:0:0:0:
448,192,139737,1,0,0:0:0:0:
64,192,139776,1,0,0:0:0:0:
192,192,139815,1,0,0:0:0:0:
448,192,139853,1,0,0:0:0:0:
320,192,139892,1,0,0:0:0:0:
64,192,139931,1,0,0:0:0:0:
448,192,139969,1,0,0:0:0:0:
320,192,140008,1,0,0:0:0:0:
192,192,140047,1,0,0:0:0:0:
64,192,140085,1,0,0:0:0:0:
448,192,140124,1,0,0:0:0:0:
192,192,140163,1,0,0:0:0:0:
320,192,140201,1,0,0:0:0:0:
448,192,140240,1,0,0:0:0:0:
64,192,140279,1,0,0:0:0:0:
192,192,140317,1,0,0:0:0:0:
320,192,140356,1,0,0:0:0:0:
448,192,140395,1,0,0:0:0:0:
64,192,140433,1,0,0:0:0:0:
192,192,140472,1,0,0:0:0:0:
448,192,140511,1,0,0:0:0:0:
320,192,140549,1,0,0:0:0:0:
64,192,140588,1,0,0:0:0:0:
192,192,140627,1,0,0:0:0:0:
448,192,140665,1,0,0:0:0:0:
64,192,140704,1,0,0:0:0:0:
192,192,140743,1,0,0:0:0:0:
320,192,140781,1,0,0:0:0:0:
448,192,140820,1,0,0:0:0:0:
64,192,140859,1,0,0:0:0:0:
192,192,140897,1,0,0:0:0:0:
320,192,140936,1,0,0:0:0:0:
448,192,140975,1,0,0:0:0:0:
192,192,141013,1,0,0:0:0:0:
320,192,141052,1,0,0:0:0:0:
192,192,141091,1,0,0:0:0:0:
64,192,141129,1,0,0:0:0:0:
448,192,141168,1,0,0:0:0:0:
320,192,141207,1,0,0:0:0:0:
192,192,141245,1,0,0:0:0:0:
64,192,141284,1,0,0:0:0:0:
448,192,141323,1,0,0:0:0:0:
320,192,141361,1,0,0:0:0:0:
192,192,141400,1,0,0:0:0:0:
448,192,141438,1,0,0:0:0:0:
64,192,141477,1,0,0:0:0:0:
192,192,141516,1,0,0:0:0:0:
320,192,141554,1,0,0:0:0:0:
448,192,141593,1,0,0:0:0:0:
64,192,141632,1,0,0:0:0:0:
192,192,141670,1,0,0:0:0:0:
320,192,141709,1,0,0:0:0:0:
64,192,141748,1,0,0:0:0:0:
192,192,141786,1,0,0:0:0:0:
448,192,141825,1,0,0:0:0:0:
320,192,141864,1,0,0:0:0:0:
192,192,141902,1,0,0:0:0:0:
448,192,141941,1,0,0:0:0:0:
64,192,141980,1,0,0:0:0:0:
320,192,142018,1,0,0:0:0:0:
448,192,142057,1,0,0:0:0:0:
64,192,142096,1,0,0:0:0:0:
192,192,142134,1,0,0:0:0:0:
320,192,142173,1,0,0:0:0:0:
448,192,142212,1,0,0:0:0:0:
64,192,142250,1,0,0:0:0:0:
192,192,142289,1,0,0:0:0:0:
320,192,142328,1,0,0:0:0:0:
448,192,142366,1,0,0:0:0:0:
64,192,142405,1,0,0:0:0:0:
320,192,142444,1,0,0:0:0:0:
192,192,142482,1,0,0:0:0:0:
64,192,142521,1,0,0:0:0:0:
448,192,142560,1,0,0:0:0:0:
320,192,142598,1,0,0:0:0:0:
64,192,142637,1,0,0:0:0:0:
448,192,142676,1,0,0:0:0:0:
320,192,142714,1,0,0:0:0:0:
192,192,142753,1,0,0:0:0:0:
64,192,142792,1,0,0:0:0:0:
448,192,142830,1,0,0:0:0:0:
192,192,142869,1,0,0:0:0:0:
320,192,142908,1,0,0:0:0:0:
192,192,142946,1,0,0:0:0:0:
64,192,142985,1,0,0:0:0:0:
448,192,143024,1,0,0:0:0:0:
192,192,143062,1,0,0:0:0:0:
320,192,143101,1,0,0:0:0:0:
64,192,143140,1,0,0:0:0:0:
448,192,143178,1,0,0:0:0:0:
320,192,143217,1,0,0:0:0:0:
192,192,143256,1,0,0:0:0:0:
448,192,143294,1,0,0:0:0:0:
64,192,143333,1,0,0:0:0:0:
192,192,143371,1,0,0:0:0:0:
320,192,143410,1,0,0:0:0:0:
64,192,143449,1,0,0:0:0:0:
192,192,143487,1,0,0:0:0:0:
448,192,143526,1,0,0:0:0:0:
192,192,143565,1,0,0:0:0:0:
320,192,143603,1,0,0:0:0:0:
448,192,143642,1,0,0:0:0:0:
64,192,143681,1,0,0:0:0:0:
320,192,143719,1,0,0:0:0:0:
448,192,143758,1,0,0:0:0:0:
192,192,143797,1,0,0:0:0:0:
320,192,143835,1,0,0:0:0:0:
448,192,143874,1,0,0:0:0:0:
64,192,143913,1,0,0:0:0:0:
192,192,143951,1,0,0:0:0:0:
448,192,143990,1,0,0:0:0:0:
64,192,144029,1,0,0:0:0:0:
192,192,144067,1,0,0:0:0:0:
320,192,144106,1,0,0:0:0:0:
64,192,144145,1,0,0:0:0:0:
320,192,144183,1,0,0:0:0:0:
448,192,144222,1,0,0:0:0:0:
64,192,144261,1,0,0:0:0:0:
192,192,144299,1,0,0:0:0:0:
448,192,144338,1,0,0:0:0:0:
64,192,144377,1,0,0:0:0:0:
192,192,144415,1,0,0:0:0:0:
320,192,144454,1,0,0:0:0:0:
64,192,144493,1,0,0:0:0:0:
192,192,144531,1,0,0:0:0:0:
320,192,144570,1,0,0:0:0:0:
448,192,144570,1,0,0:0:0:0:
64,192,144609,1,0,0:0:0:0:
192,192,144647,1,0,0:0:0:0:
320,192,144686,1,0,0:0:0:0:
448,192,144725,1,0,0:0:0:0:
192,192,144763,1,0,0:0:0:0:
320,192,144802,1,0,0:0:0:0:
64,192,144841,1,0,0:0:0:0:
192,192,144879,1,0,0:0:0:0:
448,192,144918,1,0,0:0:0:0:
320,192,144957,1,0,0:0:0:0:
192,192,144995,1,0,0:0:0:0:
448,192,145034,1,0,0:0:0:0:
64,192,145073,1,0,0:0:0:0:
192,192,145111,1,0,0:0:0:0:
320,192,145150,1,0,0:0:0:0:
448,192,145188,1,0,0:0:0:0:
64,192,145227,1,0,0:0:0:0:
192,192,145266,1,0,0:0:0:0:
448,192,145304,1,0,0:0:0:0:
320,192,145343,1,0,0:0:0:0:
64,192,145382,1,0,0:0:0:0:
192,192,145420,1,0,0:0:0:0:
448,192,145459,1,0,0:0:0:0:
320,192,145498,1,0,0:0:0:0:
64,192,145536,1,0,0:0:0:0:
448,192,145575,1,0,0:0:0:0:
320,192,145614,1,0,0:0:0:0:
192,192,145652,1,0,0:0:0:0:
448,192,145691,1,0,0:0:0:0:
320,192,145730,1,0,0:0:0:0:
192,192,145768,1,0,0:0:0:0:
64,192,145807,1,0,0:0:0:0:
448,192,145846,1,0,0:0:0:0:
192,192,145884,1,0,0:0:0:0:
64,192,145923,1,0,0:0:0:0:
320,192,145962,1,0,0:0:0:0:
448,192,146000,1,0,0:0:0:0:
320,192,146039,1,0,0:0:0:0:
192,192,146078,1,0,0:0:0:0:
64,192,146116,1,0,0:0:0:0:
320,192,146155,1,0,0:0:0:0:
448,192,146194,1,0,0:0:0:0:
64,192,146232,1,0,0:0:0:0:
192,192,146271,1,0,0:0:0:0:
448,192,146310,1,0,0:0:0:0:
64,192,146348,1,0,0:0:0:0:
192,192,146387,1,0,0:0:0:0:
320,192,146426,1,0,0:0:0:0:
448,192,146464,1,0,0:0:0:0:
64,192,146503,1,0,0:0:0:0:
320,192,146542,1,0,0:0:0:0:
192,192,146580,1,0,0:0:0:0:
448,192,146619,1,0,0:0:0:0:
320,192,146658,1,0,0:0:0:0:
64,192,146696,1,0,0:0:0:0:
448,192,146735,1,0,0:0:0:0:
320,192,146774,1,0,0:0:0:0:
192,192,146812,1,0,0:0:0:0:
448,192,146851,1,0,0:0:0:0:
64,192,146890,1,0,0:0:0:0:
192,192,146928,1,0,0:0:0:0:
320,192,146967,1,0,0:0:0:0:
448,192,147006,1,0,0:0:0:0:
64,192,147044,1,0,0:0:0:0:
320,192,147083,1,0,0:0:0:0:
192,192,147121,1,0,0:0:0:0:
448,192,147160,1,0,0:0:0:0:
64,192,147199,1,0,0:0:0:0:
192,192,147237,1,0,0:0:0:0:
320,192,147276,1,0,0:0:0:0:
448,192,147315,1,0,0:0:0:0:
64,192,147353,1,0,0:0:0:0:
192,192,147392,1,0,0:0:0:0:
448,192,147431,1,0,0:0:0:0:
64,192,147469,1,0,0:0:0:0:
320,192,147508,1,0,0:0:0:0:
192,192,147547,1,0,0:0:0:0:
448,192,147585,1,0,0:0:0:0:
320,192,147624,1,0,0:0:0:0:
64,192,147663,1,0,0:0:0:0:
192,192,147701,1,0,0:0:0:0:
448,192,147740,1,0,0:0:0:0:
64,192,147779,1,0,0:0:0:0:
192,192,147817,1,0,0:0:0:0:
320,192,147856,1,0,0:0:0:0:
64,192,147895,1,0,0:0:0:0:
448,192,147933,1,0,0:0:0:0:
320,192,147972,1,0,0:0:0:0:
192,192,148011,1,0,0:0:0:0:
64,192,148049,1,0,0:0:0:0:
448,192,148088,1,0,0:0:0:0:
192,192,148127,1,0,0:0:0:0:
320,192,148165,1,0,0:0:0:0:
64,192,148204,1,0,0:0:0:0:
192,192,148243,1,0,0:0:0:0:
448,192,148281,1,0,0:0:0:0:
320,192,148320,1,0,0:0:0:0:
192,192,148359,1,0,0:0:0:0:
64,192,148397,1,0,0:0:0:0:
448,192,148436,1,0,0:0:0:0:
192,192,148475,1,0,0:0:0:0:
320,192,148513,1,0,0:0:0:0:
448,192,148552,1,0,0:0:0:0:
64,192,148591,1,0,0:0:0:0:
192,192,148629,1,0,0:0:0:0:
320,192,148668,1,0,0:0:0:0:
448,192,148707,1,0,0:0:0:0:
192,192,148745,1,0,0:0:0:0:
64,192,148784,1,0,0:0:0:0:
320,192,148823,1,0,0:0:0:0:
192,192,148861,1,0,0:0:0:0:
448,192,148900,1,0,0:0:0:0:
320,192,148938,1,0,0:0:0:0:
192,192,148977,1,0,0:0:0:0:
64,192,149016,1,0,0:0:0:0:
448,192,149054,1,0,0:0:0:0:
320,192,149106,1,0,0:0:0:0:
192,192,149158,1,0,0:0:0:0:
448,192,149209,1,0,0:0:0:0:
320,192,149261,1,0,0:0:0:0:
64,192,149312,1,0,0:0:0:0:
320,192,149364,1,0,0:0:0:0:
192,192,149415,1,0,0:0:0:0:
64,192,149467,1,0,0:0:0:0:
448,192,149518,1,0,0:0:0:0:
320,192,149557,1,0,0:0:0:0:
192,192,149596,1,0,0:0:0:0:
64,192,149634,1,0,0:0:0:0:
448,192,149673,1,0,0:0:0:0:
320,192,149712,1,0,0:0:0:0:
64,192,149750,1,0,0:0:0:0:
192,192,149789,1,0,0:0:0:0:
448,192,149828,1,0,0:0:0:0:
64,192,149866,1,0,0:0:0:0:
192,192,149905,1,0,0:0:0:0:
320,192,149944,1,0,0:0:0:0:
448,192,149982,1,0,0:0:0:0:
64,192,150021,1,0,0:0:0:0:
320,192,150060,1,0,0:0:0:0:
192,192,150098,1,0,0:0:0:0:
64,192,150137,1,0,0:0:0:0:
448,192,150176,1,0,0:0:0:0:
320,192,150214,1,0,0:0:0:0:
192,192,150253,1,0,0:0:0:0:
64,192,150292,1,0,0:0:0:0:
448,192,150330,1,0,0:0:0:0:
320,192,150369,1,0,0:0:0:0:
64,192,150408,1,0,0:0:0:0:
192,192,150446,1,0,0:0:0:0:
448,192,150485,1,0,0:0:0:0:
320,192,150524,1,0,0:0:0:0:
64,192,150562,1,0,0:0:0:0:
448,192,150601,1,0,0:0:0:0:
320,192,150640,1,0,0:0:0:0:
192,192,150678,1,0,0:0:0:0:
64,192,150717,1,0,0:0:0:0:
448,192,150756,1,0,0:0:0:0:
320,192,150794,1,0,0:0:0:0:
192,192,150833,1,0,0:0:0:0:
64,192,150871,1,0,0:0:0:0:
320,192,150910,1,0,0:0:0:0:
192,192,150949,1,0,0:0:0:0:
320,192,150987,1,0,0:0:0:0:
448,192,151026,1,0,0:0:0:0:
64,192,151065,1,0,0:0:0:0:
192,192,151103,1,0,0:0:0:0:
320,192,151142,1,0,0:0:0:0:
448,192,151181,1,0,0:0:0:0:
64,192,151219,1,0,0:0:0:0:
192,192,151258,1,0,0:0:0:0:
320,192,151297,1,0,0:0:0:0:
64,192,151335,1,0,0:0:0:0:
448,192,151374,1,0,0:0:0:0:
320,192,151413,1,0,0:0:0:0:
192,192,151451,1,0,0:0:0:0:
64,192,151490,1,0,0:0:0:0:
448,192,151529,1,0,0:0:0:0:
320,192,151567,1,0,0:0:0:0:
192,192,151606,1,0,0:0:0:0:
448,192,151645,1,0,0:0:0:0:
320,192,151683,1,0,0:0:0:0:
64,192,151722,1,0,0:0:0:0:
192,192,151761,1,0,0:0:0:0:
320,192,151799,1,0,0:0:0:0:
64,192,151838,1,0,0:0:0:0:
448,192,151877,1,0,0:0:0:0:
192,192,151915,1,0,0:0:0:0:
64,192,151954,1,0,0:0:0:0:
448,192,151993,1,0,0:0:0:0:
320,192,152031,1,0,0:0:0:0:
192,192,152070,1,0,0:0:0:0:
64,192,152109,1,0,0:0:0:0:
448,192,152147,1,0,0:0:0:0:
320,192,152186,1,0,0:0:0:0:
192,192,152225,1,0,0:0:0:0:
64,192,152263,1,0,0:0:0:0:
448,192,152302,1,0,0:0:0:0:
192,192,152341,1,0,0:0:0:0:
320,192,152379,1,0,0:0:0:0:
448,192,152418,1,0,0:0:0:0:
64,192,152457,1,0,0:0:0:0:
192,192,152495,1,0,0:0:0:0:
448,192,152534,1,0,0:0:0:0:
64,192,152573,1,0,0:0:0:0:
192,192,152611,1,0,0:0:0:0:
320,192,152650,1,0,0:0:0:0:
448,192,152688,1,0,0:0:0:0:
64,192,152727,1,0,0:0:0:0:
320,192,152766,1,0,0:0:0:0:
192,192,152804,1,0,0:0:0:0:
320,192,152843,1,0,0:0:0:0:
448,192,152882,1,0,0:0:0:0:
64,192,152920,1,0,0:0:0:0:
320,192,152959,1,0,0:0:0:0:
192,192,152998,1,0,0:0:0:0:
448,192,153036,1,0,0:0:0:0:
64,192,153075,1,0,0:0:0:0:
192,192,153114,1,0,0:0:0:0:
320,192,153152,1,0,0:0:0:0:
64,192,153191,1,0,0:0:0:0:
448,192,153230,1,0,0:0:0:0:
320,192,153268,1,0,0:0:0:0:
192,192,153307,1,0,0:0:0:0:
448,192,153346,1,0,0:0:0:0:
320,192,153384,1,0,0:0:0:0:
64,192,153423,1,0,0:0:0:0:
320,192,153462,1,0,0:0:0:0:
192,192,153500,1,0,0:0:0:0:
64,192,153539,1,0,0:0:0:0:
448,192,153578,1,0,0:0:0:0:
192,192,153616,1,0,0:0:0:0:
64,192,153655,1,0,0:0:0:0:
320,192,153694,1,0,0:0:0:0:
192,192,153732,1,0,0:0:0:0:
64,192,153771,1,0,0:0:0:0:
448,192,153810,1,0,0:0:0:0:
320,192,153848,1,0,0:0:0:0:
64,192,153887,1,0,0:0:0:0:
448,192,153926,1,0,0:0:0:0:
320,192,153964,1,0,0:0:0:0:
192,192,154003,1,0,0:0:0:0:
448,192,154042,1,0,0:0:0:0:
192,192,154080,1,0,0:0:0:0:
64,192,154119,1,0,0:0:0:0:
448,192,154158,1,0,0:0:0:0:
320,192,154196,1,0,0:0:0:0:
64,192,154235,1,0,0:0:0:0:
448,192,154274,1,0,0:0:0:0:
320,192,154312,1,0,0:0:0:0:
192,192,154351,1,0,0:0:0:0:
448,192,154390,1,0,0:0:0:0:
320,192,154428,1,0,0:0:0:0:
64,192,154467,1,0,0:0:0:0:
192,192,154467,1,0,0:0:0:0:
448,192,154506,1,0,0:0:0:0:
320,192,154544,1,0,0:0:0:0:
192,192,154583,1,0,0:0:0:0:
64,192,154621,1,0,0:0:0:0:
320,192,154660,1,0,0:0:0:0:
192,192,154699,1,0,0:0:0:0:
448,192,154737,1,0,0:0:0:0:
320,192,154776,1,0,0:0:0:0:
64,192,154815,1,0,0:0:0:0:
192,192,154853,1,0,0:0:0:0:
320,192,154892,1,0,0:0:0:0:
64,192,154931,1,0,0:0:0:0:
448,192,154969,1,0,0:0:0:0:
320,192,155008,1,0,0:0:0:0:
192,192,155047,1,0,0:0:0:0:
64,192,155085,1,0,0:0:0:0:
448,192,155124,1,0,0:0:0:0:
320,192,155163,1,0,0:0:0:0:
64,192,155201,1,0,0:0:0:0:
192,192,155240,1,0,0:0:0:0:
448,192,155279,1,0,0:0:0:0:
320,192,155317,1,0,0:0:0:0:
64,192,155356,1,0,0:0:0:0:
192,192,155395,1,0,0:0:0:0:
448,192,155433,1,0,0:0:0:0:
64,192,155472,1,0,0:0:0:0:
192,192,155511,1,0,0:0:0:0:
320,192,155549,1,0,0:0:0:0:
64,192,155588,1,0,0:0:0:0:
192,192,155627,1,0,0:0:0:0:
320,192,155665,1,0,0:0:0:0:
448,192,155704,1,0,0:0:0:0:
64,192,155743,1,0,0:0:0:0:
320,192,155781,1,0,0:0:0:0:
448,192,155820,1,0,0:0:0:0:
192,192,155859,1,0,0:0:0:0:
64,192,155897,1,0,0:0:0:0:
192,192,155936,1,0,0:0:0:0:
320,192,155975,1,0,0:0:0:0:
448,192,156013,1,0,0:0:0:0:
192,192,156052,1,0,0:0:0:0:
64,192,156091,1,0,0:0:0:0:
448,192,156129,1,0,0:0:0:0:
320,192,156168,1,0,0:0:0:0:
64,192,156207,1,0,0:0:0:0:
448,192,156245,1,0,0:0:0:0:
320,192,156284,1,0,0:0:0:0:
192,192,156323,1,0,0:0:0:0:
64,192,156361,1,0,0:0:0:0:
448,192,156400,1,0,0:0:0:0:
192,192,156438,1,0,0:0:0:0:
320,192,156477,1,0,0:0:0:0:
64,192,156516,1,0,0:0:0:0:
192,192,156554,1,0,0:0:0:0:
448,192,156593,1,0,0:0:0:0:
64,192,156632,1,0,0:0:0:0:
192,192,156670,1,0,0:0:0:0:
320,192,156709,1,0,0:0:0:0:
64,192,156748,1,0,0:0:0:0:
448,192,156786,1,0,0:0:0:0:
320,192,156825,1,0,0:0:0:0:
192,192,156864,1,0,0:0:0:0:
64,192,156902,1,0,0:0:0:0:
448,192,156941,1,0,0:0:0:0:
192,192,156980,1,0,0:0:0:0:
320,192,157018,1,0,0:0:0:0:
64,192,157057,1,0,0:0:0:0:
448,192,157096,1,0,0:0:0:0:
320,192,157134,1,0,0:0:0:0:
192,192,157173,1,0,0:0:0:0:
64,192,157212,1,0,0:0:0:0:
448,192,157250,1,0,0:0:0:0:
320,192,157289,1,0,0:0:0:0:
64,192,157328,1,0,0:0:0:0:
448,192,157366,1,0,0:0:0:0:
192,192,157405,1,0,0:0:0:0:
320,192,157444,1,0,0:0:0:0:
64,192,157482,1,0,0:0:0:0:
192,192,157521,1,0,0:0:0:0:
448,192,157560,1,0,0:0:0:0:
320,192,157598,1,0,0:0:0:0:
64,192,157637,1,0,0:0:0:0:
448,192,157676,1,0,0:0:0:0:
320,192,157714,1,0,0:0:0:0:
192,192,157753,1,0,0:0:0:0:
448,192,157792,1,0,0:0:0:0:
64,192,157830,1,0,0:0:0:0:
192,192,157869,1,0,0:0:0:0:
320,192,157908,1,0,0:0:0:0:
448,192,157946,1,0,0:0:0:0:
64,192,157985,1,0,0:0:0:0:
320,192,158024,1,0,0:0:0:0:
192,192,158062,1,0,0:0:0:0:
448,192,158101,1,0,0:0:0:0:
320,192,158140,1,0,0:0:0:0:
64,192,158178,1,0,0:0:0:0:
192,192,158217,1,0,0:0:0:0:
320,192,158256,1,0,0:0:0:0:
448,192,158294,1,0,0:0:0:0:
64,192,158333,1,0,0:0:0:0:
320,192,158371,1,0,0:0:0:0:
192,192,158410,1,0,0:0:0:0:
64,192,158449,1,0,0:0:0:0:
448,192,158487,1,0,0:0:0:0:
320,192,158526,1,0,0:0:0:0:
192,192,158565,1,0,0:0:0:0:
64,192,158603,1,0,0:0:0:0:
320,192,158642,1,0,0:0:0:0:
448,192,158681,1,0,0:0:0:0:
192,192,158719,1,0,0:0:0:0:
320,192,158758,1,0,0:0:0:0:
64,192,158797,1,0,0:0:0:0:
192,192,158835,1,0,0:0:0:0:
320,192,158874,1,0,0:0:0:0:
448,192,158913,1,0,0:0:0:0:
64,192,158951,1,0,0:0:0:0:
192,192,159003,1,0,0:0:0:0:
320,192,159054,1,0,0:0:0:0:
64,192,159106,1,0,0:0:0:0:
192,192,159106,1,0,0:0:0:0:
320,192,159183,1,0,0:0:0:0:
448,192,159183,1,0,0:0:0:0:
64,192,159261,1,0,0:0:0:0:
192,192,159261,1,0,0:0:0:0:
320,192,159338,1,0,0:0:0:0:
448,192,159338,1,0,0:0:0:0:
64,192,159415,1,0,0:0:0:0:
192,192,159415,1,0,0:0:0:0:
448,192,159454,1,0,0:0:0:0:
320,192,159493,1,0,0:0:0:0:
192,192,159531,1,0,0:0:0:0:
64,192,159570,1,0,0:0:0:0:
448,192,159609,1,0,0:0:0:0:
320,192,159647,1,0,0:0:0:0:
192,192,159686,1,0,0:0:0:0:
448,192,159725,1,0,0:0:0:0:
64,192,159763,1,0,0:0:0:0:
192,192,159802,1,0,0:0:0:0:
320,192,159841,1,0,0:0:0:0:
64,192,159879,1,0,0:0:0:0:
448,192,159918,1,0,0:0:0:0:
320,192,159957,1,0,0:0:0:0:
192,192,159995,1,0,0:0:0:0:
448,192,160034,1,0,0:0:0:0:
320,192,160073,1,0,0:0:0:0:
192,192,160111,1,0,0:0:0:0:
64,192,160150,1,0,0:0:0:0:
448,192,160188,1,0,0:0:0:0:
320,192,160227,1,0,0:0:0:0:
192,192,160266,1,0,0:0:0:0:
448,192,160304,1,0,0:0:0:0:
64,192,160343,1,0,0:0:0:0:
192,192,160382,1,0,0:0:0:0:
320,192,160420,1,0,0:0:0:0:
64,192,160459,1,0,0:0:0:0:
448,192,160498,1,0,0:0:0:0:
320,192,160536,1,0,0:0:0:0:
192,192,160575,1,0,0:0:0:0:
448,192,160614,1,0,0:0:0:0:
320,192,160652,1,0,0:0:0:0:
192,192,160691,1,0,0:0:0:0:
64,192,160730,1,0,0:0:0:0:
448,192,160768,1,0,0:0:0:0:
320,192,160807,1,0,0:0:0:0:
192,192,160846,1,0,0:0:0:0:
448,192,160884,1,0,0:0:0:0:
64,192,160923,1,0,0:0:0:0:
192,192,160962,1,0,0:0:0:0:
320,192,161000,1,0,0:0:0:0:
448,192,161039,1,0,0:0:0:0:
64,192,161078,1,0,0:0:0:0:
320,192,161116,1,0,0:0:0:0:
192,192,161155,1,0,0:0:0:0:
64,192,161194,1,0,0:0:0:0:
448,192,161232,1,0,0:0:0:0:
192,192,161271,1,0,0:0:0:0:
320,192,161310,1,0,0:0:0:0:
64,192,161348,1,0,0:0:0:0:
448,192,161387,1,0,0:0:0:0:
320,192,161426,1,0,0:0:0:0:
192,192,161464,1,0,0:0:0:0:
64,192,161503,1,0,0:0:0:0:
320,192,161542,1,0,0:0:0:0:
448,192,161580,1,0,0:0:0:0:
192,192,161619,1,0,0:0:0:0:
320,192,161658,1,0,0:0:0:0:
64,192,161696,1,0,0:0:0:0:
192,192,161735,1,0,0:0:0:0:
320,192,161774,1,0,0:0:0:0:
448,192,161812,1,0,0:0:0:0:
64,192,161851,1,0,0:0:0:0:
320,192,161890,1,0,0:0:0:0:
192,192,161928,1,0,0:0:0:0:
448,192,161967,1,0,0:0:0:0:
64,192,162006,1,0,0:0:0:0:
192,192,162044,1,0,0:0:0:0:
320,192,162083,1,0,0:0:0:0:
448,192,162121,1,0,0:0:0:0:
192,192,162160,1,0,0:0:0:0:
64,192,162199,1,0,0:0:0:0:
320,192,162237,1,0,0:0:0:0:
192,192,162276,1,0,0:0:0:0:
448,192,162315,1,0,0:0:0:0:
320,192,162353,1,0,0:0:0:0:
192,192,162392,1,0,0:0:0:0:
64,192,162431,1,0,0:0:0:0:
448,192,162469,1,0,0:0:0:0:
192,192,162508,1,0,0:0:0:0:
320,192,162547,1,0,0:0:0:0:
64,192,162585,1,0,0:0:0:0:
448,192,162624,1,0,0:0:0:0:
320,192,162663,1,0,0:0:0:0:
192,192,162701,1,0,0:0:0:0:
64,192,162740,1,0,0:0:0:0:
320,192,162779,1,0,0:0:0:0:
448,192,162817,1,0,0:0:0:0:
192,192,162856,1,0,0:0:0:0:
320,192,162895,1,0,0:0:0:0:
64,192,162933,1,0,0:0:0:0:
192,192,162972,1,0,0:0:0:0:
320,192,163011,1,0,0:0:0:0:
448,192,163049,1,0,0:0:0:0:
64,192,163088,1,0,0:0:0:0:
320,192,163127,1,0,0:0:0:0:
192,192,163165,1,0,0:0:0:0:
64,192,163204,1,0,0:0:0:0:
448,192,163243,1,0,0:0:0:0:
320,192,163281,1,0,0:0:0:0:
64,192,163320,1,0,0:0:0:0:
448,192,163359,1,0,0:0:0:0:
320,192,163397,1,0,0:0:0:0:
192,192,163436,1,0,0:0:0:0:
448,192,163475,1,0,0:0:0:0:
192,192,163513,1,0,0:0:0:0:
64,192,163552,1,0,0:0:0:0:
320,192,163591,1,0,0:0:0:0:
192,192,163629,1,0,0:0:0:0:
64,192,163668,1,0,0:0:0:0:
448,192,163707,1,0,0:0:0:0:
320,192,163745,1,0,0:0:0:0:
192,192,163784,1,0,0:0:0:0:
320,192,163823,1,0,0:0:0:0:
192,192,163861,1,0,0:0:0:0:
64,192,163900,1,0,0:0:0:0:
448,192,163938,1,0,0:0:0:0:
192,192,164016,1,0,0:0:0:0:
64,192,164054,1,0,0:0:0:0:
448,192,164093,1,0,0:0:0:0:
320,192,164132,1,0,0:0:0:0:
192,192,164170,1,0,0:0:0:0:
448,192,164209,1,0,0:0:0:0:
64,192,164248,1,0,0:0:0:0:
192,192,164286,1,0,0:0:0:0:
320,192,164325,1,0,0:0:0:0:
64,192,164364,1,0,0:0:0:0:
192,192,164364,1,0,0:0:0:0:
448,192,164402,1,0,0:0:0:0:
320,192,164441,1,0,0:0:0:0:
192,192,164480,1,0,0:0:0:0:
64,192,164518,1,0,0:0:0:0:
448,192,164557,1,0,0:0:0:0:
320,192,164596,1,0,0:0:0:0:
192,192,164634,1,0,0:0:0:0:
448,192,164673,1,0,0:0:0:0:
64,192,164712,1,0,0:0:0:0:
192,192,164750,1,0,0:0:0:0:
320,192,164789,1,0,0:0:0:0:
64,192,164828,1,0,0:0:0:0:
448,192,164866,1,0,0:0:0:0:
320,192,164905,1,0,0:0:0:0:
192,192,164944,1,0,0:0:0:0:
448,192,164982,1,0,0:0:0:0:
320,192,165021,1,0,0:0:0:0:
192,192,165060,1,0,0:0:0:0:
64,192,165098,1,0,0:0:0:0:
448,192,165137,1,0,0:0:0:0:
320,192,165176,1,0,0:0:0:0:
192,192,165214,1,0,0:0:0:0:
448,192,165253,1,0,0:0:0:0:
64,192,165292,1,0,0:0:0:0:
192,192,165330,1,0,0:0:0:0:
320,192,165369,1,0,0:0:0:0:
64,192,165408,1,0,0:0:0:0:
448,192,165446,1,0,0:0:0:0:
320,192,165485,1,0,0:0:0:0:
192,192,165524,1,0,0:0:0:0:
448,192,165562,1,0,0:0:0:0:
320,192,165601,1,0,0:0:0:0:
192,192,165640,1,0,0:0:0:0:
64,192,165678,1,0,0:0:0:0:
448,192,165717,1,0,0:0:0:0:
320,192,165756,1,0,0:0:0:0:
192,192,165794,1,0,0:0:0:0:
448,192,165833,1,0,0:0:0:0:
64,192,165871,1,0,0:0:0:0:
192,192,165910,1,0,0:0:0:0:
320,192,165949,1,0,0:0:0:0:
448,192,165987,1,0,0:0:0:0:
64,192,166026,1,0,0:0:0:0:
320,192,166065,1,0,0:0:0:0:
192,192,166103,1,0,0:0:0:0:
64,192,166142,1,0,0:0:0:0:
448,192,166181,1,0,0:0:0:0:
192,192,166219,1,0,0:0:0:0:
320,192,166258,1,0,0:0:0:0:
64,192,166297,1,0,0:0:0:0:
448,192,166335,1,0,0:0:0:0:
320,192,166374,1,0,0:0:0:0:
192,192,166413,1,0,0:0:0:0:
64,192,166451,1,0,0:0:0:0:
320,192,166490,1,0,0:0:0:0:
448,192,166529,1,0,0:0:0:0:
192,192,166567,1,0,0:0:0:0:
320,192,166606,1,0,0:0:0:0:
64,192,166645,1,0,0:0:0:0:
192,192,166683,1,0,0:0:0:0:
320,192,166722,1,0,0:0:0:0:
448,192,166761,1,0,0:0:0:0:
64,192,166799,1,0,0:0:0:0:
320,192,166838,1,0,0:0:0:0:
192,192,166877,1,0,0:0:0:0:
448,192,166915,1,0,0:0:0:0:
64,192,166954,1,0,0:0:0:0:
192,192,166993,1,0,0:0:0:0:
320,192,167031,1,0,0:0:0:0:
448,192,167070,1,0,0:0:0:0:
192,192,167109,1,0,0:0:0:0:
64,192,167147,1,0,0:0:0:0:
320,192,167186,1,0,0:0:0:0:
192,192,167225,1,0,0:0:0:0:
448,192,167263,1,0,0:0:0:0:
320,192,167302,1,0,0:0:0:0:
192,192,167341,1,0,0:0:0:0:
64,192,167379,1,0,0:0:0:0:
448,192,167418,1,0,0:0:0:0:
192,192,167457,1,0,0:0:0:0:
320,192,167495,1,0,0:0:0:0:
64,192,167534,1,0,0:0:0:0:
448,192,167573,1,0,0:0:0:0:
320,192,167611,1,0,0:0:0:0:
192,192,167650,1,0,0:0:0:0:
64,192,167688,1,0,0:0:0:0:
320,192,167727,1,0,0:0:0:0:
448,192,167766,1,0,0:0:0:0:
192,192,167804,1,0,0:0:0:0:
320,192,167843,1,0,0:0:0:0:
64,192,167882,1,0,0:0:0:0:
192,192,167920,1,0,0:0:0:0:
320,192,167959,1,0,0:0:0:0:
448,192,167998,1,0,0:0:0:0:
64,192,168036,1,0,0:0:0:0:
320,192,168075,1,0,0:0:0:0:
192,192,168127,1,0,0:0:0:0:
64,192,168178,1,0,0:0:0:0:
448,192,168230,1,0,0:0:0:0:
320,192,168281,1,0,0:0:0:0:
64,192,168333,1,0,0:0:0:0:
320,192,168384,1,0,0:0:0:0:
192,192,168436,1,0,0:0:0:0:
64,192,168487,1,0,0:0:0:0:
448,192,168539,1,0,0:0:0:0:
192,192,168591,1,0,0:0:0:0:
64,192,168642,1,0,0:0:0:0:
448,192,168694,1,0,0:0:0:0:
320,192,168745,1,0,0:0:0:0:
192,192,168797,1,0,0:0:0:0:
320,192,168848,1,0,0:0:0:0:
192,192,168900,1,0,0:0:0:0:
64,192,168951,1,0,0:0:0:0:
448,192,169003,1,0,0:0:0:0:
192,192,169054,1,0,0:0:0:0:
64,192,169106,1,0,0:0:0:0:
448,192,169158,1,0,0:0:0:0:
320,192,169209,1,0,0:0:0:0:
192,192,169261,1,0,0:0:0:0:
64,192,169312,1,0,0:0:0:0:
448,192,169312,1,0,0:0:0:0:
192,192,169390,1,0,0:0:0:0:
320,192,169390,1,0,0:0:0:0:
64,192,169467,1,0,0:0:0:0:
448,192,169467,1,0,0:0:0:0:
192,192,169544,1,0,0:0:0:0:
320,192,169544,1,0,0:0:0:0:
64,192,169621,1,0,0:0:0:0:
448,192,169621,1,0,0:0:0:0:
192,192,169699,1,0,0:0:0:0:
320,192,169699,1,0,0:0:0:0:
448,192,169776,1,0,0:0:0:0:
64,192,169853,1,0,0:0:0:0:
192,192,169853,1,0,0:0:0:0:
448,192,169931,1,0,0:0:0:0:
320,192,170008,1,0,0:0:0:0:
192,192,170085,1,0,0:0:0:0:
320,192,170085,1,0,0:0:0:0:
64,192,170163,1,0,0:0:0:0:
192,192,170240,1,0,0:0:0:0:
448,192,170240,1,0,0:0:0:0:
320,192,170317,1,0,0:0:0:0:
64,192,170395,1,0,0:0:0:0:
192,192,170395,1,0,0:0:0:0:
320,192,170472,1,0,0:0:0:0:
448,192,170472,1,0,0:0:0:0:
64,192,170549,1,0,0:0:0:0:
192,192,170549,1,0,0:0:0:0:
448,192,170627,1,0,0:0:0:0:
64,192,170704,1,0,0:0:0:0:
320,192,170704,1,0,0:0:0:0:
192,192,170781,1,0,0:0:0:0:
320,192,170859,1,0,0:0:0:0:
448,192,170859,1,0,0:0:0:0:
64,192,170936,1,0,0:0:0:0:
320,192,171013,1,0,0:0:0:0:
192,192,171091,1,0,0:0:0:0:
448,192,171091,1,0,0:0:0:0:
64,192,171168,1,0,0:0:0:0:
448,192,171245,1,0,0:0:0:0:
320,192,171323,1,0,0:0:0:0:
448,192,171323,1,0,0:0:0:0:
64,192,171400,1,0,0:0:0:0:
192,192,171400,1,0,0:0:0:0:
192,192,171477,1,0,0:0:0:0:
320,192,171477,1,0,0:0:0:0:
320,192,171554,1,0,0:0:0:0:
64,192,171632,1,0,0:0:0:0:
192,192,171632,1,0,0:0:0:0:
64,192,171709,1,0,0:0:0:0:
320,192,171786,1,0,0:0:0:0:
448,192,171786,1,0,0:0:0:0:
64,192,171864,1,0,0:0:0:0:
192,192,171864,1,0,0:0:0:0:
320,192,171941,1,0,0:0:0:0:
448,192,171941,1,0,0:0:0:0:
64,192,172018,1,0,0:0:0:0:
192,192,172018,1,0,0:0:0:0:
320,192,172096,1,0,0:0:0:0:
448,192,172096,1,0,0:0:0:0:
64,192,172173,1,0,0:0:0:0:
192,192,172173,1,0,0:0:0:0:
448,192,172250,1,0,0:0:0:0:
192,192,172328,1,0,0:0:0:0:
320,192,172328,1,0,0:0:0:0:
64,192,172405,1,0,0:0:0:0:
448,192,172482,1,0,0:0:0:0:
192,192,172560,1,0,0:0:0:0:
448,192,172560,1,0,0:0:0:0:
64,192,172637,1,0,0:0:0:0:
320,192,172714,1,0,0:0:0:0:
448,192,172714,1,0,0:0:0:0:
192,192,172792,1,0,0:0:0:0:
64,192,172869,1,0,0:0:0:0:
320,192,172869,1,0,0:0:0:0:
192,192,172946,1,0,0:0:0:0:
448,192,172946,1,0,0:0:0:0:
64,192,173024,1,0,0:0:0:0:
320,192,173024,1,0,0:0:0:0:
448,192,173101,1,0,0:0:0:0:
64,192,173178,1,0,0:0:0:0:
192,192,173178,1,0,0:0:0:0:
320,192,173256,1,0,0:0:0:0:
192,192,173333,1,0,0:0:0:0:
448,192,173333,1,0,0:0:0:0:
64,192,173410,1,0,0:0:0:0:
320,192,173487,1,0,0:0:0:0:
448,192,173487,1,0,0:0:0:0:
64,192,173565,1,0,0:0:0:0:
192,192,173642,1,0,0:0:0:0:
448,192,173642,1,0,0:0:0:0:
448,192,173719,1,0,0:0:0:0:
64,192,173797,1,0,0:0:0:0:
192,192,173797,1,0,0:0:0:0:
64,192,173874,1,0,0:0:0:0:
192,192,173951,1,0,0:0:0:0:
320,192,173951,1,0,0:0:0:0:
320,192,174029,1,0,0:0:0:0:
64,192,174106,1,0,0:0:0:0:
448,192,174106,1,0,0:0:0:0:
192,192,174183,1,0,0:0:0:0:
448,192,174261,1,0,0:0:0:0:
320,192,174261,1,0,0:0:0:0:
192,192,174338,1,0,0:0:0:0:
64,192,174338,1,0,0:0:0:0:
448,192,174415,1,0,0:0:0:0:
320,192,174415,1,0,0:0:0:0:
192,192,174493,1,0,0:0:0:0:
64,192,174493,1,0,0:0:0:0:
448,192,174570,1,0,0:0:0:0:
320,192,174570,1,0,0:0:0:0:
192,192,174647,1,0,0:0:0:0:
64,192,174647,1,0,0:0:0:0:
320,192,174725,1,0,0:0:0:0:
192,192,174802,1,0,0:0:0:0:
448,192,174802,1,0,0:0:0:0:
320,192,174879,1,0,0:0:0:0:
64,192,174957,1,0,0:0:0:0:
64,192,175034,1,0,0:0:0:0:
320,192,175034,1,0,0:0:0:0:
448,192,175111,1,0,0:0:0:0:
192,192,175188,1,0,0:0:0:0:
320,192,175188,1,0,0:0:0:0:
64,192,175266,1,0,0:0:0:0:
192,192,175343,1,0,0:0:0:0:
320,192,175343,1,0,0:0:0:0:
64,192,175420,1,0,0:0:0:0:
448,192,175420,1,0,0:0:0:0:
192,192,175498,1,0,0:0:0:0:
320,192,175498,1,0,0:0:0:0:
448,192,175575,1,0,0:0:0:0:
64,192,175652,1,0,0:0:0:0:
192,192,175652,1,0,0:0:0:0:
320,192,175730,1,0,0:0:0:0:
64,192,175807,1,0,0:0:0:0:
448,192,175807,1,0,0:0:0:0:
192,192,175884,1,0,0:0:0:0:
448,192,175962,1,0,0:0:0:0:
64,192,176039,1,0,0:0:0:0:
320,192,176039,1,0,0:0:0:0:
192,192,176116,1,0,0:0:0:0:
320,192,176194,1,0,0:0:0:0:
320,192,176271,1,0,0:0:0:0:
448,192,176271,1,0,0:0:0:0:
64,192,176348,1,0,0:0:0:0:
192,192,176348,1,0,0:0:0:0:
64,192,176426,1,0,0:0:0:0:
448,192,176426,1,0,0:0:0:0:
320,192,176503,1,0,0:0:0:0:
192,192,176580,1,0,0:0:0:0:
448,192,176580,1,0,0:0:0:0:
192,192,176658,1,0,0:0:0:0:
64,192,176735,1,0,0:0:0:0:
448,192,176735,1,0,0:0:0:0:
192,192,176812,1,0,0:0:0:0:
320,192,176812,1,0,0:0:0:0:
64,192,176890,1,0,0:0:0:0:
448,192,176890,1,0,0:0:0:0:
192,192,176967,1,0,0:0:0:0:
320,192,176967,1,0,0:0:0:0:
64,192,177044,1,0,0:0:0:0:
448,192,177044,1,0,0:0:0:0:
192,192,177121,1,0,0:0:0:0:
320,192,177121,1,0,0:0:0:0:
64,192,177199,1,0,0:0:0:0:
320,192,177276,1,0,0:0:0:0:
448,192,177276,1,0,0:0:0:0:
192,192,177353,1,0,0:0:0:0:
448,192,177431,1,0,0:0:0:0:
64,192,177508,1,0,0:0:0:0:
448,192,177508,1,0,0:0:0:0:
192,192,177585,1,0,0:0:0:0:
320,192,177663,1,0,0:0:0:0:
448,192,177663,1,0,0:0:0:0:
64,192,177740,1,0,0:0:0:0:
192,192,177817,1,0,0:0:0:0:
448,192,177817,1,0,0:0:0:0:
64,192,177895,1,0,0:0:0:0:
320,192,177895,1,0,0:0:0:0:
192,192,177972,1,0,0:0:0:0:
448,192,177972,1,0,0:0:0:0:
320,192,178049,1,0,0:0:0:0:
64,192,178127,1,0,0:0:0:0:
448,192,178204,1,0,0:0:0:0:
64,192,178281,1,0,0:0:0:0:
192,192,178281,1,0,0:0:0:0:
320,192,178359,1,0,0:0:0:0:
64,192,178436,1,0,0:0:0:0:
192,192,178436,1,0,0:0:0:0:
448,192,178513,1,0,0:0:0:0:
64,192,178591,1,0,0:0:0:0:
320,192,178591,1,0,0:0:0:0:
64,192,178668,1,0,0:0:0:0:
320,192,178745,1,0,0:0:0:0:
320,192,178823,1,0,0:0:0:0:
192,192,178900,1,0,0:0:0:0:
192,192,178977,1,0,0:0:0:0:
448,192,179054,1,0,0:0:0:0:
448,192,179132,1,0,0:0:0:0:
64,192,179209,1,0,0:0:0:0:
64,192,179286,1,0,0:0:0:0:
320,192,179364,1,0,0:0:0:0:
320,192,179441,1,0,0:0:0:0:
192,192,179518,1,0,0:0:0:0:
192,192,179596,1,0,0:0:0:0:
448,192,179673,1,0,0:0:0:0:
448,192,179750,1,0,0:0:0:0:
64,192,179828,1,0,0:0:0:0:
64,192,179905,1,0,0:0:0:0:
320,192,179982,1,0,0:0:0:0:
320,192,180060,1,0,0:0:0:0:
192,192,180137,1,0,0:0:0:0:
192,192,180214,1,0,0:0:0:0:
448,192,180292,1,0,0:0:0:0:
448,192,180369,1,0,0:0:0:0:
64,192,180446,1,0,0:0:0:0:
64,192,180524,1,0,0:0:0:0:
320,192,180601,1,0,0:0:0:0:
320,192,180678,1,0,0:0:0:0:
192,192,180756,1,0,0:0:0:0:
192,192,180833,1,0,0:0:0:0:
448,192,180910,1,0,0:0:0:0:
448,192,180987,1,0,0:0:0:0:
