osu file format v14

[General]
AudioFilename: audio 1.152x (pitch raised).mp3
AudioLeadIn: 0
PreviewTime: 54826
Countdown: 0
SampleSet: None
StackLeniency: 0.7
Mode: 3
LetterboxInBreaks: 0
SpecialStyle: 0
WidescreenStoryboard: 0

[Editor]
DistanceSpacing: 0.8
BeatDivisor: 8
GridSize: 8
TimelineZoom: 2.2

[Metadata]
Title:ON MY OWN 2006 (Sped Up Ver.)
TitleUnicode:ON MY OWN 2006 (Sped Up Ver.)
Artist:ANNERLEY GORDON
ArtistUnicode:ANNERLEY GORDON
Creator:Jole
Version:i showed you my car please respond 1.15x (179bpm)
Source:
Tags:4k 4 key dump stream speed stamina minijacks jumpstream initial d
BeatmapID:3107450
BeatmapSetID:844060

[Difficulty]
HPDrainRate:8
CircleSize:4
OverallDifficulty:8
ApproachRate:5.7
SliderMultiplier:1.4
SliderTickRate:1

[Events]
//Background and Video events
0,0,"remake.jpg",0,0
//Break Periods
//Storyboard Layer 0 (Background)
//Storyboard Layer 1 (Fail)
//Storyboard Layer 2 (Pass)
//Storyboard Layer 3 (Foreground)
//Storyboard Layer 4 (Overlay)
//Storyboard Sound Samples

[TimingPoints]
818,335.195530726257,4,1,0,25,1,0

[HitObjects]
64,192,993,5,0,0:0:0:0:
64,192,1153,1,0,0:0:0:0:
320,192,1153,1,0,0:0:0:0:
448,192,1153,1,0,0:0:0:0:
192,192,1236,1,0,0:0:0:0:
192,192,1404,1,0,0:0:0:0:
64,192,1488,1,0,0:0:0:0:
320,192,1488,1,0,0:0:0:0:
448,192,1655,1,0,0:0:0:0:
192,192,1739,1,0,0:0:0:0:
320,192,1739,1,0,0:0:0:0:
64,192,1823,1,0,0:0:0:0:
448,192,1823,1,0,0:0:0:0:
192,192,1907,1,0,0:0:0:0:
320,192,1991,1,0,0:0:0:0:
448,192,1991,1,0,0:0:0:0:
448,192,2158,1,0,0:0:0:0:
192,192,2242,1,0,0:0:0:0:
320,192,2326,1,0,0:0:0:0:
320,192,2410,1,0,0:0:0:0:
64,192,2493,1,0,0:0:0:0:
448,192,2493,1,0,0:0:0:0:
192,192,2577,1,0,0:0:0:0:
320,192,2577,1,0,0:0:0:0:
64,192,2661,1,0,0:0:0:0:
448,192,2745,1,0,0:0:0:0:
64,192,2829,1,0,0:0:0:0:
192,192,2829,1,0,0:0:0:0:
320,192,2912,1,0,0:0:0:0:
448,192,2996,1,0,0:0:0:0:
64,192,3080,1,0,0:0:0:0:
320,192,3080,1,0,0:0:0:0:
192,192,3164,1,0,0:0:0:0:
448,192,3248,1,0,0:0:0:0:
192,192,3331,1,0,0:0:0:0:
320,192,3331,1,0,0:0:0:0:
192,192,3415,1,0,0:0:0:0:
448,192,3499,1,0,0:0:0:0:
320,192,3667,1,0,0:0:0:0:
192,192,3834,1,0,0:0:0:0:
320,192,3918,1,0,0:0:0:0:
448,192,3918,1,0,0:0:0:0:
64,192,4002,1,0,0:0:0:0:
192,192,4086,1,0,0:0:0:0:
320,192,4169,1,0,0:0:0:0:
448,192,4169,1,0,0:0:0:0:
192,192,4253,1,0,0:0:0:0:
64,192,4337,1,0,0:0:0:0:
320,192,4421,1,0,0:0:0:0:
448,192,4421,1,0,0:0:0:0:
64,192,4505,1,0,0:0:0:0:
192,192,4672,1,0,0:0:0:0:
448,192,4672,1,0,0:0:0:0:
448,192,4756,1,0,0:0:0:0:
64,192,4840,1,0,0:0:0:0:
320,192,5007,1,0,0:0:0:0:
192,192,5175,1,0,0:0:0:0:
64,192,5259,1,0,0:0:0:0:
448,192,5259,1,0,0:0:0:0:
320,192,5343,1,0,0:0:0:0:
320,192,5426,1,0,0:0:0:0:
64,192,5510,1,0,0:0:0:0:
192,192,5510,1,0,0:0:0:0:
448,192,5678,1,0,0:0:0:0:
64,192,5762,1,0,0:0:0:0:
192,192,5762,1,0,0:0:0:0:
320,192,5845,1,0,0:0:0:0:
64,192,6013,1,0,0:0:0:0:
320,192,6013,1,0,0:0:0:0:
448,192,6097,1,0,0:0:0:0:
192,192,6181,1,0,0:0:0:0:
192,192,6348,1,0,0:0:0:0:
448,192,6348,1,0,0:0:0:0:
320,192,6404,1,0,0:0:0:0:
64,192,6460,1,0,0:0:0:0:
192,192,6516,1,0,0:0:0:0:
320,192,6516,1,0,0:0:0:0:
192,192,6683,1,0,0:0:0:0:
320,192,6767,1,0,0:0:0:0:
64,192,6851,1,0,0:0:0:0:
192,192,6851,1,0,0:0:0:0:
320,192,7019,1,0,0:0:0:0:
448,192,7019,1,0,0:0:0:0:
64,192,7102,1,0,0:0:0:0:
192,192,7186,1,0,0:0:0:0:
448,192,7186,1,0,0:0:0:0:
448,192,7354,1,0,0:0:0:0:
320,192,7438,1,0,0:0:0:0:
64,192,7521,1,0,0:0:0:0:
192,192,7521,1,0,0:0:0:0:
320,192,7689,1,0,0:0:0:0:
64,192,7857,1,0,0:0:0:0:
320,192,7857,1,0,0:0:0:0:
192,192,7940,1,0,0:0:0:0:
448,192,8024,1,0,0:0:0:0:
448,192,8108,1,0,0:0:0:0:
64,192,8192,1,0,0:0:0:0:
192,192,8192,1,0,0:0:0:0:
320,192,8359,1,0,0:0:0:0:
448,192,8359,1,0,0:0:0:0:
64,192,8443,1,0,0:0:0:0:
448,192,8527,1,0,0:0:0:0:
192,192,8695,1,0,0:0:0:0:
64,192,8778,1,0,0:0:0:0:
192,192,8862,1,0,0:0:0:0:
448,192,8862,1,0,0:0:0:0:
320,192,9030,1,0,0:0:0:0:
192,192,9197,1,0,0:0:0:0:
320,192,9281,1,0,0:0:0:0:
448,192,9281,1,0,0:0:0:0:
64,192,9365,1,0,0:0:0:0:
64,192,9449,1,0,0:0:0:0:
192,192,9533,1,0,0:0:0:0:
320,192,9533,1,0,0:0:0:0:
448,192,9700,1,0,0:0:0:0:
64,192,9784,1,0,0:0:0:0:
192,192,9784,1,0,0:0:0:0:
448,192,9952,1,0,0:0:0:0:
64,192,10035,1,0,0:0:0:0:
320,192,10035,1,0,0:0:0:0:
192,192,10203,1,0,0:0:0:0:
320,192,10371,1,0,0:0:0:0:
320,192,10454,1,0,0:0:0:0:
64,192,10538,1,0,0:0:0:0:
192,192,10538,1,0,0:0:0:0:
320,192,10622,1,0,0:0:0:0:
448,192,10622,1,0,0:0:0:0:
64,192,10706,1,0,0:0:0:0:
192,192,10873,1,0,0:0:0:0:
320,192,10873,1,0,0:0:0:0:
448,192,10957,1,0,0:0:0:0:
64,192,11041,1,0,0:0:0:0:
192,192,11041,1,0,0:0:0:0:
320,192,11125,1,0,0:0:0:0:
448,192,11125,1,0,0:0:0:0:
192,192,11209,1,0,0:0:0:0:
320,192,11292,1,0,0:0:0:0:
448,192,11292,1,0,0:0:0:0:
64,192,11376,1,0,0:0:0:0:
192,192,11376,1,0,0:0:0:0:
320,192,11460,1,0,0:0:0:0:
448,192,11460,1,0,0:0:0:0:
64,192,11544,1,0,0:0:0:0:
192,192,11544,1,0,0:0:0:0:
320,192,11628,1,0,0:0:0:0:
448,192,11628,1,0,0:0:0:0:
64,192,11711,1,0,0:0:0:0:
192,192,11711,1,0,0:0:0:0:
320,192,11795,1,0,0:0:0:0:
64,192,11879,1,0,0:0:0:0:
192,192,11879,1,0,0:0:0:0:
448,192,11879,1,0,0:0:0:0:
320,192,11963,1,0,0:0:0:0:
192,192,12047,1,0,0:0:0:0:
192,192,12214,1,0,0:0:0:0:
448,192,12214,1,0,0:0:0:0:
320,192,12382,1,0,0:0:0:0:
448,192,12466,1,0,0:0:0:0:
64,192,12549,1,0,0:0:0:0:
192,192,12549,1,0,0:0:0:0:
448,192,12633,1,0,0:0:0:0:
320,192,12717,1,0,0:0:0:0:
64,192,12885,1,0,0:0:0:0:
448,192,12885,1,0,0:0:0:0:
320,192,12968,1,0,0:0:0:0:
64,192,13052,1,0,0:0:0:0:
192,192,13136,1,0,0:0:0:0:
320,192,13220,1,0,0:0:0:0:
448,192,13220,1,0,0:0:0:0:
64,192,13304,1,0,0:0:0:0:
64,192,13387,1,0,0:0:0:0:
448,192,13471,1,0,0:0:0:0:
192,192,13555,1,0,0:0:0:0:
320,192,13555,1,0,0:0:0:0:
448,192,13723,1,0,0:0:0:0:
192,192,13806,1,0,0:0:0:0:
64,192,13890,1,0,0:0:0:0:
320,192,13890,1,0,0:0:0:0:
448,192,13974,1,0,0:0:0:0:
192,192,14058,1,0,0:0:0:0:
192,192,14142,1,0,0:0:0:0:
320,192,14225,1,0,0:0:0:0:
448,192,14225,1,0,0:0:0:0:
192,192,14393,1,0,0:0:0:0:
448,192,14477,1,0,0:0:0:0:
64,192,14561,1,0,0:0:0:0:
192,192,14561,1,0,0:0:0:0:
320,192,14644,1,0,0:0:0:0:
64,192,14728,1,0,0:0:0:0:
64,192,14812,1,0,0:0:0:0:
320,192,14896,1,0,0:0:0:0:
448,192,14896,1,0,0:0:0:0:
192,192,14980,1,0,0:0:0:0:
448,192,15063,1,0,0:0:0:0:
448,192,15147,1,0,0:0:0:0:
64,192,15231,1,0,0:0:0:0:
320,192,15231,1,0,0:0:0:0:
192,192,15399,1,0,0:0:0:0:
448,192,15399,1,0,0:0:0:0:
320,192,15482,1,0,0:0:0:0:
64,192,15566,1,0,0:0:0:0:
192,192,15566,1,0,0:0:0:0:
320,192,15734,1,0,0:0:0:0:
320,192,15818,1,0,0:0:0:0:
64,192,15901,1,0,0:0:0:0:
192,192,15901,1,0,0:0:0:0:
448,192,15985,1,0,0:0:0:0:
192,192,16069,1,0,0:0:0:0:
192,192,16153,1,0,0:0:0:0:
320,192,16236,1,0,0:0:0:0:
448,192,16236,1,0,0:0:0:0:
64,192,16404,1,0,0:0:0:0:
64,192,16488,1,0,0:0:0:0:
192,192,16572,1,0,0:0:0:0:
448,192,16572,1,0,0:0:0:0:
192,192,16739,1,0,0:0:0:0:
320,192,16823,1,0,0:0:0:0:
64,192,16907,1,0,0:0:0:0:
192,192,16907,1,0,0:0:0:0:
448,192,16949,1,0,0:0:0:0:
320,192,16991,1,0,0:0:0:0:
64,192,17033,1,0,0:0:0:0:
192,192,17074,1,0,0:0:0:0:
320,192,17158,1,0,0:0:0:0:
64,192,17242,1,0,0:0:0:0:
448,192,17242,1,0,0:0:0:0:
192,192,17326,1,0,0:0:0:0:
448,192,17410,1,0,0:0:0:0:
320,192,17493,1,0,0:0:0:0:
64,192,17577,1,0,0:0:0:0:
192,192,17577,1,0,0:0:0:0:
320,192,17745,1,0,0:0:0:0:
320,192,17829,1,0,0:0:0:0:
192,192,17912,1,0,0:0:0:0:
448,192,17912,1,0,0:0:0:0:
64,192,17996,1,0,0:0:0:0:
448,192,18080,1,0,0:0:0:0:
192,192,18164,1,0,0:0:0:0:
320,192,18248,1,0,0:0:0:0:
448,192,18248,1,0,0:0:0:0:
192,192,18415,1,0,0:0:0:0:
448,192,18499,1,0,0:0:0:0:
64,192,18583,1,0,0:0:0:0:
320,192,18583,1,0,0:0:0:0:
192,192,18667,1,0,0:0:0:0:
320,192,18750,1,0,0:0:0:0:
448,192,18834,1,0,0:0:0:0:
64,192,18918,1,0,0:0:0:0:
192,192,18918,1,0,0:0:0:0:
320,192,19002,1,0,0:0:0:0:
448,192,19086,1,0,0:0:0:0:
192,192,19169,1,0,0:0:0:0:
320,192,19253,1,0,0:0:0:0:
448,192,19253,1,0,0:0:0:0:
448,192,19421,1,0,0:0:0:0:
448,192,19505,1,0,0:0:0:0:
64,192,19588,1,0,0:0:0:0:
192,192,19588,1,0,0:0:0:0:
320,192,19672,1,0,0:0:0:0:
192,192,19756,1,0,0:0:0:0:
64,192,19924,1,0,0:0:0:0:
448,192,19924,1,0,0:0:0:0:
192,192,20007,1,0,0:0:0:0:
320,192,20091,1,0,0:0:0:0:
320,192,20259,1,0,0:0:0:0:
448,192,20259,1,0,0:0:0:0:
192,192,20343,1,0,0:0:0:0:
64,192,20426,1,0,0:0:0:0:
448,192,20426,1,0,0:0:0:0:
192,192,20594,1,0,0:0:0:0:
448,192,20594,1,0,0:0:0:0:
320,192,20678,1,0,0:0:0:0:
64,192,20762,1,0,0:0:0:0:
320,192,20929,1,0,0:0:0:0:
448,192,20929,1,0,0:0:0:0:
64,192,21013,1,0,0:0:0:0:
192,192,21097,1,0,0:0:0:0:
448,192,21097,1,0,0:0:0:0:
320,192,21264,1,0,0:0:0:0:
192,192,21348,1,0,0:0:0:0:
320,192,21432,1,0,0:0:0:0:
192,192,21516,1,0,0:0:0:0:
320,192,21600,1,0,0:0:0:0:
192,192,21683,1,0,0:0:0:0:
320,192,21767,1,0,0:0:0:0:
192,192,21851,1,0,0:0:0:0:
448,192,21935,1,0,0:0:0:0:
64,192,22019,1,0,0:0:0:0:
192,192,22019,1,0,0:0:0:0:
64,192,22102,1,0,0:0:0:0:
320,192,22102,1,0,0:0:0:0:
192,192,22270,1,0,0:0:0:0:
448,192,22270,1,0,0:0:0:0:
64,192,22438,1,0,0:0:0:0:
320,192,22438,1,0,0:0:0:0:
448,192,22438,1,0,0:0:0:0:
64,192,22605,1,0,0:0:0:0:
448,192,22605,1,0,0:0:0:0:
192,192,22689,1,0,0:0:0:0:
320,192,22689,1,0,0:0:0:0:
64,192,22773,1,0,0:0:0:0:
448,192,22773,1,0,0:0:0:0:
192,192,22857,1,0,0:0:0:0:
320,192,22857,1,0,0:0:0:0:
64,192,22940,1,0,0:0:0:0:
448,192,22940,1,0,0:0:0:0:
192,192,23024,1,0,0:0:0:0:
320,192,23024,1,0,0:0:0:0:
448,192,23108,1,0,0:0:0:0:
64,192,23192,1,0,0:0:0:0:
192,192,23192,1,0,0:0:0:0:
448,192,23276,1,0,0:0:0:0:
320,192,23359,1,0,0:0:0:0:
192,192,23443,1,0,0:0:0:0:
320,192,23443,1,0,0:0:0:0:
64,192,23527,1,0,0:0:0:0:
192,192,23611,1,0,0:0:0:0:
448,192,23611,1,0,0:0:0:0:
320,192,23695,1,0,0:0:0:0:
64,192,23778,1,0,0:0:0:0:
192,192,23778,1,0,0:0:0:0:
320,192,23862,1,0,0:0:0:0:
448,192,23862,1,0,0:0:0:0:
64,192,23946,1,0,0:0:0:0:
192,192,23946,1,0,0:0:0:0:
448,192,24030,1,0,0:0:0:0:
64,192,24114,1,0,0:0:0:0:
320,192,24114,1,0,0:0:0:0:
192,192,24197,1,0,0:0:0:0:
320,192,24281,1,0,0:0:0:0:
448,192,24281,1,0,0:0:0:0:
64,192,24365,1,0,0:0:0:0:
320,192,24449,1,0,0:0:0:0:
192,192,24533,1,0,0:0:0:0:
448,192,24533,1,0,0:0:0:0:
64,192,24616,1,0,0:0:0:0:
448,192,24700,1,0,0:0:0:0:
320,192,24784,1,0,0:0:0:0:
448,192,24784,1,0,0:0:0:0:
64,192,24868,1,0,0:0:0:0:
192,192,24868,1,0,0:0:0:0:
192,192,24952,1,0,0:0:0:0:
320,192,24952,1,0,0:0:0:0:
320,192,25035,1,0,0:0:0:0:
64,192,25119,1,0,0:0:0:0:
192,192,25119,1,0,0:0:0:0:
64,192,25203,1,0,0:0:0:0:
320,192,25287,1,0,0:0:0:0:
448,192,25287,1,0,0:0:0:0:
64,192,25371,1,0,0:0:0:0:
192,192,25371,1,0,0:0:0:0:
320,192,25454,1,0,0:0:0:0:
448,192,25454,1,0,0:0:0:0:
64,192,25538,1,0,0:0:0:0:
192,192,25538,1,0,0:0:0:0:
320,192,25622,1,0,0:0:0:0:
448,192,25622,1,0,0:0:0:0:
64,192,25706,1,0,0:0:0:0:
192,192,25706,1,0,0:0:0:0:
448,192,25790,1,0,0:0:0:0:
192,192,25873,1,0,0:0:0:0:
320,192,25873,1,0,0:0:0:0:
64,192,25957,1,0,0:0:0:0:
448,192,26041,1,0,0:0:0:0:
192,192,26125,1,0,0:0:0:0:
448,192,26125,1,0,0:0:0:0:
64,192,26209,1,0,0:0:0:0:
320,192,26292,1,0,0:0:0:0:
448,192,26292,1,0,0:0:0:0:
192,192,26376,1,0,0:0:0:0:
64,192,26460,1,0,0:0:0:0:
320,192,26460,1,0,0:0:0:0:
192,192,26544,1,0,0:0:0:0:
448,192,26544,1,0,0:0:0:0:
64,192,26628,1,0,0:0:0:0:
320,192,26628,1,0,0:0:0:0:
448,192,26711,1,0,0:0:0:0:
64,192,26795,1,0,0:0:0:0:
192,192,26795,1,0,0:0:0:0:
320,192,26879,1,0,0:0:0:0:
448,192,26963,1,0,0:0:0:0:
192,192,26963,1,0,0:0:0:0:
64,192,27047,1,0,0:0:0:0:
320,192,27130,1,0,0:0:0:0:
448,192,27130,1,0,0:0:0:0:
64,192,27214,1,0,0:0:0:0:
192,192,27298,1,0,0:0:0:0:
448,192,27298,1,0,0:0:0:0:
448,192,27382,1,0,0:0:0:0:
64,192,27466,1,0,0:0:0:0:
192,192,27466,1,0,0:0:0:0:
64,192,27549,1,0,0:0:0:0:
192,192,27633,1,0,0:0:0:0:
320,192,27633,1,0,0:0:0:0:
320,192,27717,1,0,0:0:0:0:
448,192,27801,1,0,0:0:0:0:
192,192,27801,1,0,0:0:0:0:
192,192,27885,1,0,0:0:0:0:
448,192,27968,1,0,0:0:0:0:
320,192,27968,1,0,0:0:0:0:
192,192,28052,1,0,0:0:0:0:
64,192,28052,1,0,0:0:0:0:
448,192,28136,1,0,0:0:0:0:
320,192,28136,1,0,0:0:0:0:
192,192,28220,1,0,0:0:0:0:
64,192,28220,1,0,0:0:0:0:
448,192,28304,1,0,0:0:0:0:
320,192,28304,1,0,0:0:0:0:
192,192,28387,1,0,0:0:0:0:
64,192,28387,1,0,0:0:0:0:
320,192,28471,1,0,0:0:0:0:
192,192,28555,1,0,0:0:0:0:
448,192,28555,1,0,0:0:0:0:
320,192,28639,1,0,0:0:0:0:
64,192,28723,1,0,0:0:0:0:
64,192,28806,1,0,0:0:0:0:
320,192,28806,1,0,0:0:0:0:
448,192,28890,1,0,0:0:0:0:
192,192,28974,1,0,0:0:0:0:
320,192,28974,1,0,0:0:0:0:
64,192,29058,1,0,0:0:0:0:
192,192,29142,1,0,0:0:0:0:
320,192,29142,1,0,0:0:0:0:
64,192,29225,1,0,0:0:0:0:
448,192,29225,1,0,0:0:0:0:
192,192,29309,1,0,0:0:0:0:
320,192,29309,1,0,0:0:0:0:
448,192,29393,1,0,0:0:0:0:
64,192,29477,1,0,0:0:0:0:
192,192,29477,1,0,0:0:0:0:
320,192,29561,1,0,0:0:0:0:
64,192,29644,1,0,0:0:0:0:
448,192,29644,1,0,0:0:0:0:
192,192,29728,1,0,0:0:0:0:
448,192,29812,1,0,0:0:0:0:
64,192,29896,1,0,0:0:0:0:
320,192,29896,1,0,0:0:0:0:
192,192,29980,1,0,0:0:0:0:
320,192,30063,1,0,0:0:0:0:
320,192,30147,1,0,0:0:0:0:
448,192,30147,1,0,0:0:0:0:
64,192,30231,1,0,0:0:0:0:
192,192,30231,1,0,0:0:0:0:
64,192,30315,1,0,0:0:0:0:
448,192,30315,1,0,0:0:0:0:
320,192,30399,1,0,0:0:0:0:
192,192,30482,1,0,0:0:0:0:
448,192,30482,1,0,0:0:0:0:
192,192,30566,1,0,0:0:0:0:
64,192,30650,1,0,0:0:0:0:
448,192,30650,1,0,0:0:0:0:
192,192,30734,1,0,0:0:0:0:
320,192,30734,1,0,0:0:0:0:
64,192,30818,1,0,0:0:0:0:
448,192,30818,1,0,0:0:0:0:
192,192,30901,1,0,0:0:0:0:
320,192,30901,1,0,0:0:0:0:
64,192,30985,1,0,0:0:0:0:
448,192,30985,1,0,0:0:0:0:
192,192,31069,1,0,0:0:0:0:
320,192,31069,1,0,0:0:0:0:
64,192,31153,1,0,0:0:0:0:
320,192,31236,1,0,0:0:0:0:
448,192,31236,1,0,0:0:0:0:
192,192,31320,1,0,0:0:0:0:
448,192,31404,1,0,0:0:0:0:
64,192,31488,1,0,0:0:0:0:
448,192,31488,1,0,0:0:0:0:
192,192,31572,1,0,0:0:0:0:
320,192,31655,1,0,0:0:0:0:
448,192,31655,1,0,0:0:0:0:
64,192,31739,1,0,0:0:0:0:
192,192,31823,1,0,0:0:0:0:
448,192,31823,1,0,0:0:0:0:
64,192,31907,1,0,0:0:0:0:
320,192,31907,1,0,0:0:0:0:
192,192,31991,1,0,0:0:0:0:
448,192,31991,1,0,0:0:0:0:
320,192,32074,1,0,0:0:0:0:
64,192,32158,1,0,0:0:0:0:
448,192,32242,1,0,0:0:0:0:
64,192,32326,1,0,0:0:0:0:
192,192,32326,1,0,0:0:0:0:
320,192,32410,1,0,0:0:0:0:
64,192,32493,1,0,0:0:0:0:
192,192,32493,1,0,0:0:0:0:
448,192,32577,1,0,0:0:0:0:
64,192,32661,1,0,0:0:0:0:
192,192,32661,1,0,0:0:0:0:
64,192,32745,1,0,0:0:0:0:
320,192,32829,1,0,0:0:0:0:
320,192,32912,1,0,0:0:0:0:
192,192,32996,1,0,0:0:0:0:
192,192,33080,1,0,0:0:0:0:
448,192,33164,1,0,0:0:0:0:
448,192,33248,1,0,0:0:0:0:
64,192,33331,1,0,0:0:0:0:
192,192,33331,1,0,0:0:0:0:
320,192,33331,1,0,0:0:0:0:
448,192,33415,1,0,0:0:0:0:
64,192,33499,1,0,0:0:0:0:
192,192,33499,1,0,0:0:0:0:
448,192,33583,1,0,0:0:0:0:
192,192,33667,1,0,0:0:0:0:
320,192,33667,1,0,0:0:0:0:
64,192,33750,1,0,0:0:0:0:
192,192,33834,1,0,0:0:0:0:
448,192,33834,1,0,0:0:0:0:
64,192,33918,1,0,0:0:0:0:
320,192,34002,1,0,0:0:0:0:
448,192,34002,1,0,0:0:0:0:
192,192,34086,1,0,0:0:0:0:
64,192,34169,1,0,0:0:0:0:
320,192,34169,1,0,0:0:0:0:
448,192,34253,1,0,0:0:0:0:
64,192,34337,1,0,0:0:0:0:
192,192,34337,1,0,0:0:0:0:
448,192,34421,1,0,0:0:0:0:
64,192,34505,1,0,0:0:0:0:
320,192,34505,1,0,0:0:0:0:
192,192,34561,1,0,0:0:0:0:
448,192,34616,1,0,0:0:0:0:
320,192,34672,1,0,0:0:0:0:
192,192,34728,1,0,0:0:0:0:
64,192,34784,1,0,0:0:0:0:
320,192,34840,1,0,0:0:0:0:
448,192,34840,1,0,0:0:0:0:
192,192,34924,1,0,0:0:0:0:
64,192,35007,1,0,0:0:0:0:
320,192,35007,1,0,0:0:0:0:
192,192,35091,1,0,0:0:0:0:
64,192,35175,1,0,0:0:0:0:
448,192,35175,1,0,0:0:0:0:
320,192,35259,1,0,0:0:0:0:
192,192,35343,1,0,0:0:0:0:
448,192,35343,1,0,0:0:0:0:
64,192,35426,1,0,0:0:0:0:
192,192,35510,1,0,0:0:0:0:
320,192,35510,1,0,0:0:0:0:
448,192,35594,1,0,0:0:0:0:
64,192,35678,1,0,0:0:0:0:
320,192,35762,1,0,0:0:0:0:
192,192,35845,1,0,0:0:0:0:
448,192,35929,1,0,0:0:0:0:
64,192,36013,1,0,0:0:0:0:
320,192,36013,1,0,0:0:0:0:
192,192,36097,1,0,0:0:0:0:
320,192,36181,1,0,0:0:0:0:
448,192,36181,1,0,0:0:0:0:
64,192,36264,1,0,0:0:0:0:
192,192,36348,1,0,0:0:0:0:
448,192,36348,1,0,0:0:0:0:
320,192,36432,1,0,0:0:0:0:
64,192,36516,1,0,0:0:0:0:
448,192,36516,1,0,0:0:0:0:
192,192,36572,1,0,0:0:0:0:
320,192,36628,1,0,0:0:0:0:
64,192,36683,1,0,0:0:0:0:
448,192,36739,1,0,0:0:0:0:
320,192,36795,1,0,0:0:0:0:
192,192,36851,1,0,0:0:0:0:
64,192,36907,1,0,0:0:0:0:
320,192,36963,1,0,0:0:0:0:
192,192,37019,1,0,0:0:0:0:
448,192,37102,1,0,0:0:0:0:
64,192,37186,1,0,0:0:0:0:
192,192,37186,1,0,0:0:0:0:
320,192,37270,1,0,0:0:0:0:
64,192,37354,1,0,0:0:0:0:
448,192,37354,1,0,0:0:0:0:
192,192,37438,1,0,0:0:0:0:
64,192,37521,1,0,0:0:0:0:
448,192,37521,1,0,0:0:0:0:
320,192,37605,1,0,0:0:0:0:
64,192,37689,1,0,0:0:0:0:
192,192,37689,1,0,0:0:0:0:
320,192,37773,1,0,0:0:0:0:
192,192,37857,1,0,0:0:0:0:
448,192,37857,1,0,0:0:0:0:
64,192,37940,1,0,0:0:0:0:
320,192,38024,1,0,0:0:0:0:
448,192,38024,1,0,0:0:0:0:
64,192,38108,1,0,0:0:0:0:
192,192,38108,1,0,0:0:0:0:
320,192,38192,1,0,0:0:0:0:
448,192,38192,1,0,0:0:0:0:
64,192,38276,1,0,0:0:0:0:
192,192,38359,1,0,0:0:0:0:
448,192,38359,1,0,0:0:0:0:
320,192,38443,1,0,0:0:0:0:
64,192,38527,1,0,0:0:0:0:
192,192,38527,1,0,0:0:0:0:
320,192,38611,1,0,0:0:0:0:
448,192,38611,1,0,0:0:0:0:
64,192,38695,1,0,0:0:0:0:
192,192,38695,1,0,0:0:0:0:
448,192,38778,1,0,0:0:0:0:
64,192,38862,1,0,0:0:0:0:
320,192,38862,1,0,0:0:0:0:
192,192,38946,1,0,0:0:0:0:
320,192,39030,1,0,0:0:0:0:
448,192,39030,1,0,0:0:0:0:
64,192,39114,1,0,0:0:0:0:
192,192,39197,1,0,0:0:0:0:
320,192,39197,1,0,0:0:0:0:
448,192,39281,1,0,0:0:0:0:
64,192,39365,1,0,0:0:0:0:
320,192,39365,1,0,0:0:0:0:
192,192,39449,1,0,0:0:0:0:
320,192,39533,1,0,0:0:0:0:
448,192,39533,1,0,0:0:0:0:
64,192,39616,1,0,0:0:0:0:
192,192,39700,1,0,0:0:0:0:
320,192,39700,1,0,0:0:0:0:
448,192,39784,1,0,0:0:0:0:
64,192,39868,1,0,0:0:0:0:
192,192,39868,1,0,0:0:0:0:
320,192,39924,1,0,0:0:0:0:
448,192,39980,1,0,0:0:0:0:
64,192,40035,1,0,0:0:0:0:
192,192,40091,1,0,0:0:0:0:
320,192,40147,1,0,0:0:0:0:
64,192,40203,1,0,0:0:0:0:
192,192,40203,1,0,0:0:0:0:
448,192,40287,1,0,0:0:0:0:
64,192,40371,1,0,0:0:0:0:
320,192,40371,1,0,0:0:0:0:
192,192,40454,1,0,0:0:0:0:
320,192,40538,1,0,0:0:0:0:
448,192,40538,1,0,0:0:0:0:
64,192,40622,1,0,0:0:0:0:
192,192,40706,1,0,0:0:0:0:
448,192,40706,1,0,0:0:0:0:
320,192,40790,1,0,0:0:0:0:
64,192,40873,1,0,0:0:0:0:
192,192,40873,1,0,0:0:0:0:
448,192,40957,1,0,0:0:0:0:
64,192,41041,1,0,0:0:0:0:
320,192,41041,1,0,0:0:0:0:
192,192,41125,1,0,0:0:0:0:
448,192,41209,1,0,0:0:0:0:
64,192,41292,1,0,0:0:0:0:
192,192,41376,1,0,0:0:0:0:
448,192,41376,1,0,0:0:0:0:
320,192,41460,1,0,0:0:0:0:
64,192,41544,1,0,0:0:0:0:
448,192,41544,1,0,0:0:0:0:
320,192,41628,1,0,0:0:0:0:
64,192,41711,1,0,0:0:0:0:
192,192,41711,1,0,0:0:0:0:
448,192,41795,1,0,0:0:0:0:
64,192,41879,1,0,0:0:0:0:
320,192,41879,1,0,0:0:0:0:
192,192,41935,1,0,0:0:0:0:
448,192,41991,1,0,0:0:0:0:
320,192,42047,1,0,0:0:0:0:
192,192,42102,1,0,0:0:0:0:
64,192,42158,1,0,0:0:0:0:
320,192,42214,1,0,0:0:0:0:
192,192,42270,1,0,0:0:0:0:
448,192,42326,1,0,0:0:0:0:
64,192,42382,1,0,0:0:0:0:
192,192,42382,1,0,0:0:0:0:
320,192,42466,1,0,0:0:0:0:
192,192,42549,1,0,0:0:0:0:
448,192,42549,1,0,0:0:0:0:
64,192,42633,1,0,0:0:0:0:
320,192,42717,1,0,0:0:0:0:
448,192,42717,1,0,0:0:0:0:
192,192,42801,1,0,0:0:0:0:
64,192,42885,1,0,0:0:0:0:
320,192,42885,1,0,0:0:0:0:
448,192,42968,1,0,0:0:0:0:
64,192,43052,1,0,0:0:0:0:
192,192,43052,1,0,0:0:0:0:
320,192,43136,1,0,0:0:0:0:
64,192,43220,1,0,0:0:0:0:
448,192,43220,1,0,0:0:0:0:
192,192,43304,1,0,0:0:0:0:
448,192,43387,1,0,0:0:0:0:
320,192,43443,1,0,0:0:0:0:
192,192,43499,1,0,0:0:0:0:
64,192,43555,1,0,0:0:0:0:
448,192,43555,1,0,0:0:0:0:
320,192,43639,1,0,0:0:0:0:
64,192,43723,1,0,0:0:0:0:
192,192,43723,1,0,0:0:0:0:
448,192,43806,1,0,0:0:0:0:
192,192,43890,1,0,0:0:0:0:
448,192,43974,1,0,0:0:0:0:
64,192,44058,1,0,0:0:0:0:
320,192,44058,1,0,0:0:0:0:
192,192,44142,1,0,0:0:0:0:
320,192,44225,1,0,0:0:0:0:
448,192,44225,1,0,0:0:0:0:
64,192,44309,1,0,0:0:0:0:
192,192,44393,1,0,0:0:0:0:
448,192,44393,1,0,0:0:0:0:
320,192,44477,1,0,0:0:0:0:
64,192,44561,1,0,0:0:0:0:
448,192,44561,1,0,0:0:0:0:
192,192,44616,1,0,0:0:0:0:
320,192,44672,1,0,0:0:0:0:
64,192,44728,1,0,0:0:0:0:
448,192,44784,1,0,0:0:0:0:
320,192,44840,1,0,0:0:0:0:
192,192,44896,1,0,0:0:0:0:
448,192,44980,1,0,0:0:0:0:
64,192,45063,1,0,0:0:0:0:
192,192,45063,1,0,0:0:0:0:
320,192,45147,1,0,0:0:0:0:
64,192,45231,1,0,0:0:0:0:
448,192,45231,1,0,0:0:0:0:
192,192,45315,1,0,0:0:0:0:
448,192,45399,1,0,0:0:0:0:
64,192,45482,1,0,0:0:0:0:
192,192,45566,1,0,0:0:0:0:
320,192,45566,1,0,0:0:0:0:
448,192,45650,1,0,0:0:0:0:
64,192,45734,1,0,0:0:0:0:
320,192,45734,1,0,0:0:0:0:
192,192,45818,1,0,0:0:0:0:
320,192,45901,1,0,0:0:0:0:
448,192,45901,1,0,0:0:0:0:
64,192,45985,1,0,0:0:0:0:
320,192,46069,1,0,0:0:0:0:
448,192,46153,1,0,0:0:0:0:
64,192,46236,1,0,0:0:0:0:
192,192,46236,1,0,0:0:0:0:
320,192,46320,1,0,0:0:0:0:
448,192,46404,1,0,0:0:0:0:
192,192,46488,1,0,0:0:0:0:
64,192,46572,1,0,0:0:0:0:
320,192,46572,1,0,0:0:0:0:
448,192,46628,1,0,0:0:0:0:
192,192,46683,1,0,0:0:0:0:
320,192,46739,1,0,0:0:0:0:
64,192,46795,1,0,0:0:0:0:
448,192,46851,1,0,0:0:0:0:
192,192,46907,1,0,0:0:0:0:
320,192,46907,1,0,0:0:0:0:
64,192,46963,1,0,0:0:0:0:
448,192,47019,1,0,0:0:0:0:
192,192,47074,1,0,0:0:0:0:
320,192,47130,1,0,0:0:0:0:
192,192,47186,1,0,0:0:0:0:
320,192,47242,1,0,0:0:0:0:
448,192,47242,1,0,0:0:0:0:
64,192,47298,1,0,0:0:0:0:
448,192,47354,1,0,0:0:0:0:
192,192,47410,1,0,0:0:0:0:
320,192,47466,1,0,0:0:0:0:
64,192,47521,1,0,0:0:0:0:
320,192,47577,1,0,0:0:0:0:
448,192,47577,1,0,0:0:0:0:
192,192,47633,1,0,0:0:0:0:
448,192,47689,1,0,0:0:0:0:
64,192,47745,1,0,0:0:0:0:
320,192,47801,1,0,0:0:0:0:
192,192,47857,1,0,0:0:0:0:
448,192,47912,1,0,0:0:0:0:
320,192,47954,1,0,0:0:0:0:
192,192,47996,1,0,0:0:0:0:
64,192,48038,1,0,0:0:0:0:
448,192,48080,1,0,0:0:0:0:
320,192,48122,1,0,0:0:0:0:
192,192,48164,1,0,0:0:0:0:
64,192,48206,1,0,0:0:0:0:
448,192,48248,1,0,0:0:0:0:
320,192,48304,1,0,0:0:0:0:
448,192,48359,1,0,0:0:0:0:
64,192,48415,1,0,0:0:0:0:
192,192,48471,1,0,0:0:0:0:
64,192,48527,1,0,0:0:0:0:
448,192,48583,1,0,0:0:0:0:
320,192,48639,1,0,0:0:0:0:
448,192,48695,1,0,0:0:0:0:
64,192,48750,1,0,0:0:0:0:
192,192,48834,1,0,0:0:0:0:
320,192,48918,1,0,0:0:0:0:
448,192,48918,1,0,0:0:0:0:
64,192,48974,1,0,0:0:0:0:
192,192,49030,1,0,0:0:0:0:
320,192,49086,1,0,0:0:0:0:
448,192,49142,1,0,0:0:0:0:
64,192,49197,1,0,0:0:0:0:
192,192,49253,1,0,0:0:0:0:
320,192,49253,1,0,0:0:0:0:
64,192,49337,1,0,0:0:0:0:
448,192,49337,1,0,0:0:0:0:
192,192,49421,1,0,0:0:0:0:
320,192,49421,1,0,0:0:0:0:
448,192,49505,1,0,0:0:0:0:
64,192,49588,1,0,0:0:0:0:
320,192,49588,1,0,0:0:0:0:
192,192,49672,1,0,0:0:0:0:
320,192,49756,1,0,0:0:0:0:
448,192,49756,1,0,0:0:0:0:
64,192,49840,1,0,0:0:0:0:
192,192,49924,1,0,0:0:0:0:
448,192,49924,1,0,0:0:0:0:
320,192,50007,1,0,0:0:0:0:
64,192,50091,1,0,0:0:0:0:
448,192,50175,1,0,0:0:0:0:
192,192,50259,1,0,0:0:0:0:
320,192,50259,1,0,0:0:0:0:
64,192,50343,1,0,0:0:0:0:
192,192,50426,1,0,0:0:0:0:
448,192,50426,1,0,0:0:0:0:
320,192,50510,1,0,0:0:0:0:
64,192,50594,1,0,0:0:0:0:
192,192,50594,1,0,0:0:0:0:
448,192,50678,1,0,0:0:0:0:
192,192,50762,1,0,0:0:0:0:
64,192,50845,1,0,0:0:0:0:
320,192,50929,1,0,0:0:0:0:
448,192,50929,1,0,0:0:0:0:
192,192,51013,1,0,0:0:0:0:
64,192,51097,1,0,0:0:0:0:
320,192,51097,1,0,0:0:0:0:
192,192,51181,1,0,0:0:0:0:
64,192,51264,1,0,0:0:0:0:
448,192,51264,1,0,0:0:0:0:
320,192,51348,1,0,0:0:0:0:
64,192,51432,1,0,0:0:0:0:
448,192,51516,1,0,0:0:0:0:
64,192,51600,1,0,0:0:0:0:
192,192,51600,1,0,0:0:0:0:
320,192,51683,1,0,0:0:0:0:
448,192,51767,1,0,0:0:0:0:
192,192,51851,1,0,0:0:0:0:
64,192,51935,1,0,0:0:0:0:
320,192,51935,1,0,0:0:0:0:
448,192,51991,1,0,0:0:0:0:
192,192,52047,1,0,0:0:0:0:
320,192,52102,1,0,0:0:0:0:
64,192,52158,1,0,0:0:0:0:
448,192,52214,1,0,0:0:0:0:
64,192,52270,1,0,0:0:0:0:
192,192,52270,1,0,0:0:0:0:
320,192,52326,1,0,0:0:0:0:
64,192,52382,1,0,0:0:0:0:
448,192,52438,1,0,0:0:0:0:
192,192,52493,1,0,0:0:0:0:
320,192,52549,1,0,0:0:0:0:
64,192,52605,1,0,0:0:0:0:
192,192,52605,1,0,0:0:0:0:
448,192,52661,1,0,0:0:0:0:
192,192,52717,1,0,0:0:0:0:
320,192,52773,1,0,0:0:0:0:
64,192,52829,1,0,0:0:0:0:
192,192,52885,1,0,0:0:0:0:
320,192,52940,1,0,0:0:0:0:
448,192,52940,1,0,0:0:0:0:
64,192,52982,1,0,0:0:0:0:
192,192,53024,1,0,0:0:0:0:
448,192,53066,1,0,0:0:0:0:
64,192,53108,1,0,0:0:0:0:
192,192,53108,1,0,0:0:0:0:
64,192,53276,1,0,0:0:0:0:
448,192,53276,1,0,0:0:0:0:
64,192,53443,1,0,0:0:0:0:
320,192,53443,1,0,0:0:0:0:
448,192,53443,1,0,0:0:0:0:
192,192,53611,1,0,0:0:0:0:
448,192,53611,1,0,0:0:0:0:
192,192,53778,1,0,0:0:0:0:
320,192,53778,1,0,0:0:0:0:
64,192,53946,1,0,0:0:0:0:
448,192,53946,1,0,0:0:0:0:
320,192,54197,1,0,0:0:0:0:
448,192,54197,1,0,0:0:0:0:
64,192,54281,1,0,0:0:0:0:
448,192,54281,1,0,0:0:0:0:
64,192,54449,1,0,0:0:0:0:
320,192,54449,1,0,0:0:0:0:
320,192,54616,1,0,0:0:0:0:
448,192,54616,1,0,0:0:0:0:
448,192,54700,1,0,0:0:0:0:
64,192,54784,1,0,0:0:0:0:
192,192,54826,1,0,0:0:0:0:
320,192,54868,1,0,0:0:0:0:
448,192,54910,1,0,0:0:0:0:
64,192,54952,1,0,0:0:0:0:
192,192,54993,1,0,0:0:0:0:
448,192,55035,1,0,0:0:0:0:
320,192,55077,1,0,0:0:0:0:
64,192,55119,1,0,0:0:0:0:
448,192,55161,1,0,0:0:0:0:
320,192,55203,1,0,0:0:0:0:
192,192,55245,1,0,0:0:0:0:
64,192,55287,1,0,0:0:0:0:
448,192,55329,1,0,0:0:0:0:
192,192,55371,1,0,0:0:0:0:
320,192,55412,1,0,0:0:0:0:
448,192,55454,1,0,0:0:0:0:
64,192,55496,1,0,0:0:0:0:
192,192,55538,1,0,0:0:0:0:
320,192,55580,1,0,0:0:0:0:
448,192,55622,1,0,0:0:0:0:
64,192,55664,1,0,0:0:0:0:
192,192,55706,1,0,0:0:0:0:
448,192,55748,1,0,0:0:0:0:
320,192,55790,1,0,0:0:0:0:
64,192,55831,1,0,0:0:0:0:
192,192,55873,1,0,0:0:0:0:
448,192,55915,1,0,0:0:0:0:
64,192,55957,1,0,0:0:0:0:
192,192,55999,1,0,0:0:0:0:
320,192,56041,1,0,0:0:0:0:
448,192,56083,1,0,0:0:0:0:
64,192,56125,1,0,0:0:0:0:
192,192,56167,1,0,0:0:0:0:
320,192,56209,1,0,0:0:0:0:
448,192,56250,1,0,0:0:0:0:
192,192,56292,1,0,0:0:0:0:
320,192,56334,1,0,0:0:0:0:
192,192,56376,1,0,0:0:0:0:
64,192,56418,1,0,0:0:0:0:
448,192,56460,1,0,0:0:0:0:
320,192,56502,1,0,0:0:0:0:
192,192,56544,1,0,0:0:0:0:
64,192,56586,1,0,0:0:0:0:
448,192,56628,1,0,0:0:0:0:
320,192,56669,1,0,0:0:0:0:
192,192,56711,1,0,0:0:0:0:
448,192,56753,1,0,0:0:0:0:
64,192,56795,1,0,0:0:0:0:
192,192,56837,1,0,0:0:0:0:
320,192,56879,1,0,0:0:0:0:
448,192,56921,1,0,0:0:0:0:
64,192,56963,1,0,0:0:0:0:
192,192,57005,1,0,0:0:0:0:
320,192,57047,1,0,0:0:0:0:
64,192,57088,1,0,0:0:0:0:
192,192,57130,1,0,0:0:0:0:
448,192,57172,1,0,0:0:0:0:
320,192,57214,1,0,0:0:0:0:
192,192,57256,1,0,0:0:0:0:
448,192,57298,1,0,0:0:0:0:
64,192,57340,1,0,0:0:0:0:
320,192,57382,1,0,0:0:0:0:
448,192,57424,1,0,0:0:0:0:
64,192,57466,1,0,0:0:0:0:
192,192,57507,1,0,0:0:0:0:
320,192,57549,1,0,0:0:0:0:
448,192,57591,1,0,0:0:0:0:
64,192,57633,1,0,0:0:0:0:
192,192,57675,1,0,0:0:0:0:
320,192,57717,1,0,0:0:0:0:
448,192,57759,1,0,0:0:0:0:
64,192,57801,1,0,0:0:0:0:
320,192,57843,1,0,0:0:0:0:
192,192,57885,1,0,0:0:0:0:
64,192,57926,1,0,0:0:0:0:
448,192,57968,1,0,0:0:0:0:
320,192,58010,1,0,0:0:0:0:
64,192,58052,1,0,0:0:0:0:
448,192,58094,1,0,0:0:0:0:
320,192,58136,1,0,0:0:0:0:
192,192,58178,1,0,0:0:0:0:
64,192,58220,1,0,0:0:0:0:
448,192,58262,1,0,0:0:0:0:
192,192,58304,1,0,0:0:0:0:
320,192,58345,1,0,0:0:0:0:
192,192,58387,1,0,0:0:0:0:
64,192,58429,1,0,0:0:0:0:
448,192,58471,1,0,0:0:0:0:
192,192,58513,1,0,0:0:0:0:
320,192,58555,1,0,0:0:0:0:
64,192,58597,1,0,0:0:0:0:
448,192,58639,1,0,0:0:0:0:
320,192,58681,1,0,0:0:0:0:
192,192,58723,1,0,0:0:0:0:
448,192,58764,1,0,0:0:0:0:
64,192,58806,1,0,0:0:0:0:
192,192,58848,1,0,0:0:0:0:
320,192,58890,1,0,0:0:0:0:
64,192,58932,1,0,0:0:0:0:
192,192,58974,1,0,0:0:0:0:
448,192,59016,1,0,0:0:0:0:
192,192,59058,1,0,0:0:0:0:
320,192,59100,1,0,0:0:0:0:
448,192,59142,1,0,0:0:0:0:
64,192,59183,1,0,0:0:0:0:
320,192,59225,1,0,0:0:0:0:
448,192,59267,1,0,0:0:0:0:
192,192,59309,1,0,0:0:0:0:
320,192,59351,1,0,0:0:0:0:
448,192,59393,1,0,0:0:0:0:
64,192,59435,1,0,0:0:0:0:
192,192,59477,1,0,0:0:0:0:
448,192,59519,1,0,0:0:0:0:
64,192,59561,1,0,0:0:0:0:
192,192,59602,1,0,0:0:0:0:
320,192,59644,1,0,0:0:0:0:
64,192,59686,1,0,0:0:0:0:
320,192,59728,1,0,0:0:0:0:
448,192,59770,1,0,0:0:0:0:
64,192,59812,1,0,0:0:0:0:
192,192,59854,1,0,0:0:0:0:
448,192,59896,1,0,0:0:0:0:
64,192,59938,1,0,0:0:0:0:
192,192,59980,1,0,0:0:0:0:
320,192,60021,1,0,0:0:0:0:
64,192,60063,1,0,0:0:0:0:
192,192,60105,1,0,0:0:0:0:
320,192,60147,1,0,0:0:0:0:
448,192,60147,1,0,0:0:0:0:
64,192,60189,1,0,0:0:0:0:
192,192,60231,1,0,0:0:0:0:
320,192,60273,1,0,0:0:0:0:
448,192,60315,1,0,0:0:0:0:
192,192,60357,1,0,0:0:0:0:
320,192,60399,1,0,0:0:0:0:
64,192,60440,1,0,0:0:0:0:
192,192,60482,1,0,0:0:0:0:
448,192,60524,1,0,0:0:0:0:
320,192,60566,1,0,0:0:0:0:
192,192,60608,1,0,0:0:0:0:
448,192,60650,1,0,0:0:0:0:
64,192,60692,1,0,0:0:0:0:
192,192,60734,1,0,0:0:0:0:
320,192,60776,1,0,0:0:0:0:
448,192,60818,1,0,0:0:0:0:
64,192,60859,1,0,0:0:0:0:
192,192,60901,1,0,0:0:0:0:
448,192,60943,1,0,0:0:0:0:
320,192,60985,1,0,0:0:0:0:
64,192,61027,1,0,0:0:0:0:
192,192,61069,1,0,0:0:0:0:
448,192,61111,1,0,0:0:0:0:
320,192,61153,1,0,0:0:0:0:
64,192,61195,1,0,0:0:0:0:
448,192,61236,1,0,0:0:0:0:
320,192,61278,1,0,0:0:0:0:
192,192,61320,1,0,0:0:0:0:
448,192,61362,1,0,0:0:0:0:
320,192,61404,1,0,0:0:0:0:
192,192,61446,1,0,0:0:0:0:
64,192,61488,1,0,0:0:0:0:
448,192,61530,1,0,0:0:0:0:
192,192,61572,1,0,0:0:0:0:
64,192,61614,1,0,0:0:0:0:
320,192,61655,1,0,0:0:0:0:
448,192,61697,1,0,0:0:0:0:
320,192,61739,1,0,0:0:0:0:
192,192,61781,1,0,0:0:0:0:
64,192,61823,1,0,0:0:0:0:
320,192,61865,1,0,0:0:0:0:
448,192,61907,1,0,0:0:0:0:
64,192,61949,1,0,0:0:0:0:
192,192,61991,1,0,0:0:0:0:
448,192,62033,1,0,0:0:0:0:
64,192,62074,1,0,0:0:0:0:
192,192,62116,1,0,0:0:0:0:
320,192,62158,1,0,0:0:0:0:
448,192,62200,1,0,0:0:0:0:
64,192,62242,1,0,0:0:0:0:
320,192,62284,1,0,0:0:0:0:
192,192,62326,1,0,0:0:0:0:
448,192,62368,1,0,0:0:0:0:
320,192,62410,1,0,0:0:0:0:
64,192,62452,1,0,0:0:0:0:
448,192,62493,1,0,0:0:0:0:
320,192,62535,1,0,0:0:0:0:
192,192,62577,1,0,0:0:0:0:
448,192,62619,1,0,0:0:0:0:
64,192,62661,1,0,0:0:0:0:
192,192,62703,1,0,0:0:0:0:
320,192,62745,1,0,0:0:0:0:
448,192,62787,1,0,0:0:0:0:
64,192,62829,1,0,0:0:0:0:
320,192,62871,1,0,0:0:0:0:
192,192,62912,1,0,0:0:0:0:
448,192,62954,1,0,0:0:0:0:
64,192,62996,1,0,0:0:0:0:
192,192,63038,1,0,0:0:0:0:
320,192,63080,1,0,0:0:0:0:
448,192,63122,1,0,0:0:0:0:
64,192,63164,1,0,0:0:0:0:
192,192,63206,1,0,0:0:0:0:
448,192,63248,1,0,0:0:0:0:
64,192,63290,1,0,0:0:0:0:
320,192,63331,1,0,0:0:0:0:
192,192,63373,1,0,0:0:0:0:
448,192,63415,1,0,0:0:0:0:
320,192,63457,1,0,0:0:0:0:
64,192,63499,1,0,0:0:0:0:
192,192,63541,1,0,0:0:0:0:
448,192,63583,1,0,0:0:0:0:
64,192,63625,1,0,0:0:0:0:
192,192,63667,1,0,0:0:0:0:
320,192,63709,1,0,0:0:0:0:
64,192,63750,1,0,0:0:0:0:
448,192,63792,1,0,0:0:0:0:
320,192,63834,1,0,0:0:0:0:
192,192,63876,1,0,0:0:0:0:
64,192,63918,1,0,0:0:0:0:
448,192,63960,1,0,0:0:0:0:
192,192,64002,1,0,0:0:0:0:
320,192,64044,1,0,0:0:0:0:
64,192,64086,1,0,0:0:0:0:
192,192,64128,1,0,0:0:0:0:
448,192,64169,1,0,0:0:0:0:
320,192,64211,1,0,0:0:0:0:
192,192,64253,1,0,0:0:0:0:
64,192,64295,1,0,0:0:0:0:
448,192,64337,1,0,0:0:0:0:
192,192,64379,1,0,0:0:0:0:
320,192,64421,1,0,0:0:0:0:
448,192,64463,1,0,0:0:0:0:
64,192,64505,1,0,0:0:0:0:
192,192,64547,1,0,0:0:0:0:
320,192,64588,1,0,0:0:0:0:
448,192,64630,1,0,0:0:0:0:
192,192,64672,1,0,0:0:0:0:
64,192,64714,1,0,0:0:0:0:
320,192,64756,1,0,0:0:0:0:
192,192,64798,1,0,0:0:0:0:
448,192,64840,1,0,0:0:0:0:
320,192,64882,1,0,0:0:0:0:
192,192,64924,1,0,0:0:0:0:
64,192,64966,1,0,0:0:0:0:
448,192,65007,1,0,0:0:0:0:
320,192,65063,1,0,0:0:0:0:
192,192,65119,1,0,0:0:0:0:
448,192,65175,1,0,0:0:0:0:
320,192,65231,1,0,0:0:0:0:
64,192,65287,1,0,0:0:0:0:
320,192,65343,1,0,0:0:0:0:
192,192,65399,1,0,0:0:0:0:
64,192,65454,1,0,0:0:0:0:
320,192,65510,1,0,0:0:0:0:
448,192,65510,1,0,0:0:0:0:
64,192,65594,1,0,0:0:0:0:
192,192,65594,1,0,0:0:0:0:
320,192,65678,1,0,0:0:0:0:
448,192,65678,1,0,0:0:0:0:
64,192,65762,1,0,0:0:0:0:
192,192,65762,1,0,0:0:0:0:
320,192,65845,1,0,0:0:0:0:
448,192,65845,1,0,0:0:0:0:
64,192,65929,1,0,0:0:0:0:
192,192,65929,1,0,0:0:0:0:
448,192,66013,1,0,0:0:0:0:
192,192,66097,1,0,0:0:0:0:
320,192,66097,1,0,0:0:0:0:
64,192,66181,1,0,0:0:0:0:
448,192,66264,1,0,0:0:0:0:
192,192,66348,1,0,0:0:0:0:
448,192,66348,1,0,0:0:0:0:
64,192,66432,1,0,0:0:0:0:
320,192,66516,1,0,0:0:0:0:
448,192,66516,1,0,0:0:0:0:
192,192,66600,1,0,0:0:0:0:
64,192,66683,1,0,0:0:0:0:
320,192,66683,1,0,0:0:0:0:
192,192,66767,1,0,0:0:0:0:
448,192,66767,1,0,0:0:0:0:
64,192,66851,1,0,0:0:0:0:
320,192,66851,1,0,0:0:0:0:
448,192,66935,1,0,0:0:0:0:
64,192,67019,1,0,0:0:0:0:
192,192,67019,1,0,0:0:0:0:
320,192,67102,1,0,0:0:0:0:
192,192,67186,1,0,0:0:0:0:
448,192,67186,1,0,0:0:0:0:
64,192,67270,1,0,0:0:0:0:
320,192,67354,1,0,0:0:0:0:
448,192,67354,1,0,0:0:0:0:
64,192,67438,1,0,0:0:0:0:
192,192,67438,1,0,0:0:0:0:
448,192,67521,1,0,0:0:0:0:
320,192,67605,1,0,0:0:0:0:
448,192,67605,1,0,0:0:0:0:
64,192,67689,1,0,0:0:0:0:
192,192,67689,1,0,0:0:0:0:
64,192,67773,1,0,0:0:0:0:
192,192,67857,1,0,0:0:0:0:
320,192,67857,1,0,0:0:0:0:
320,192,67940,1,0,0:0:0:0:
448,192,68024,1,0,0:0:0:0:
192,192,68024,1,0,0:0:0:0:
192,192,68108,1,0,0:0:0:0:
448,192,68192,1,0,0:0:0:0:
320,192,68192,1,0,0:0:0:0:
192,192,68276,1,0,0:0:0:0:
64,192,68276,1,0,0:0:0:0:
448,192,68359,1,0,0:0:0:0:
320,192,68359,1,0,0:0:0:0:
192,192,68443,1,0,0:0:0:0:
64,192,68443,1,0,0:0:0:0:
448,192,68527,1,0,0:0:0:0:
320,192,68527,1,0,0:0:0:0:
192,192,68611,1,0,0:0:0:0:
64,192,68611,1,0,0:0:0:0:
320,192,68695,1,0,0:0:0:0:
192,192,68778,1,0,0:0:0:0:
448,192,68778,1,0,0:0:0:0:
320,192,68862,1,0,0:0:0:0:
64,192,68946,1,0,0:0:0:0:
64,192,69030,1,0,0:0:0:0:
320,192,69030,1,0,0:0:0:0:
448,192,69114,1,0,0:0:0:0:
192,192,69197,1,0,0:0:0:0:
320,192,69197,1,0,0:0:0:0:
64,192,69281,1,0,0:0:0:0:
192,192,69365,1,0,0:0:0:0:
320,192,69365,1,0,0:0:0:0:
64,192,69449,1,0,0:0:0:0:
448,192,69449,1,0,0:0:0:0:
192,192,69533,1,0,0:0:0:0:
320,192,69533,1,0,0:0:0:0:
448,192,69616,1,0,0:0:0:0:
64,192,69700,1,0,0:0:0:0:
192,192,69700,1,0,0:0:0:0:
320,192,69784,1,0,0:0:0:0:
64,192,69868,1,0,0:0:0:0:
448,192,69868,1,0,0:0:0:0:
192,192,69952,1,0,0:0:0:0:
448,192,70035,1,0,0:0:0:0:
64,192,70119,1,0,0:0:0:0:
192,192,70203,1,0,0:0:0:0:
448,192,70203,1,0,0:0:0:0:
192,192,70287,1,0,0:0:0:0:
64,192,70371,1,0,0:0:0:0:
448,192,70371,1,0,0:0:0:0:
448,192,70454,1,0,0:0:0:0:
64,192,70538,1,0,0:0:0:0:
192,192,70538,1,0,0:0:0:0:
64,192,70622,1,0,0:0:0:0:
192,192,70706,1,0,0:0:0:0:
320,192,70706,1,0,0:0:0:0:
320,192,70790,1,0,0:0:0:0:
64,192,70873,1,0,0:0:0:0:
448,192,70873,1,0,0:0:0:0:
192,192,70957,1,0,0:0:0:0:
320,192,70957,1,0,0:0:0:0:
64,192,71041,1,0,0:0:0:0:
448,192,71041,1,0,0:0:0:0:
192,192,71125,1,0,0:0:0:0:
320,192,71125,1,0,0:0:0:0:
64,192,71209,1,0,0:0:0:0:
448,192,71209,1,0,0:0:0:0:
192,192,71292,1,0,0:0:0:0:
320,192,71292,1,0,0:0:0:0:
64,192,71376,1,0,0:0:0:0:
320,192,71460,1,0,0:0:0:0:
448,192,71460,1,0,0:0:0:0:
192,192,71544,1,0,0:0:0:0:
448,192,71628,1,0,0:0:0:0:
64,192,71711,1,0,0:0:0:0:
448,192,71711,1,0,0:0:0:0:
192,192,71795,1,0,0:0:0:0:
320,192,71879,1,0,0:0:0:0:
448,192,71879,1,0,0:0:0:0:
64,192,71963,1,0,0:0:0:0:
192,192,72047,1,0,0:0:0:0:
448,192,72047,1,0,0:0:0:0:
64,192,72130,1,0,0:0:0:0:
320,192,72130,1,0,0:0:0:0:
192,192,72214,1,0,0:0:0:0:
448,192,72214,1,0,0:0:0:0:
320,192,72298,1,0,0:0:0:0:
64,192,72382,1,0,0:0:0:0:
448,192,72466,1,0,0:0:0:0:
64,192,72549,1,0,0:0:0:0:
192,192,72549,1,0,0:0:0:0:
320,192,72633,1,0,0:0:0:0:
192,192,72717,1,0,0:0:0:0:
320,192,72801,1,0,0:0:0:0:
448,192,72801,1,0,0:0:0:0:
64,192,72885,1,0,0:0:0:0:
448,192,72968,1,0,0:0:0:0:
320,192,73052,1,0,0:0:0:0:
448,192,73052,1,0,0:0:0:0:
64,192,73136,1,0,0:0:0:0:
192,192,73136,1,0,0:0:0:0:
192,192,73220,1,0,0:0:0:0:
320,192,73220,1,0,0:0:0:0:
320,192,73304,1,0,0:0:0:0:
64,192,73387,1,0,0:0:0:0:
192,192,73387,1,0,0:0:0:0:
64,192,73471,1,0,0:0:0:0:
320,192,73555,1,0,0:0:0:0:
448,192,73555,1,0,0:0:0:0:
64,192,73639,1,0,0:0:0:0:
192,192,73639,1,0,0:0:0:0:
320,192,73723,1,0,0:0:0:0:
448,192,73723,1,0,0:0:0:0:
64,192,73806,1,0,0:0:0:0:
192,192,73806,1,0,0:0:0:0:
320,192,73890,1,0,0:0:0:0:
448,192,73890,1,0,0:0:0:0:
64,192,73974,1,0,0:0:0:0:
192,192,73974,1,0,0:0:0:0:
448,192,74058,1,0,0:0:0:0:
192,192,74142,1,0,0:0:0:0:
320,192,74142,1,0,0:0:0:0:
64,192,74225,1,0,0:0:0:0:
448,192,74309,1,0,0:0:0:0:
192,192,74393,1,0,0:0:0:0:
448,192,74393,1,0,0:0:0:0:
64,192,74477,1,0,0:0:0:0:
320,192,74561,1,0,0:0:0:0:
448,192,74561,1,0,0:0:0:0:
192,192,74644,1,0,0:0:0:0:
64,192,74728,1,0,0:0:0:0:
320,192,74728,1,0,0:0:0:0:
192,192,74812,1,0,0:0:0:0:
448,192,74812,1,0,0:0:0:0:
64,192,74896,1,0,0:0:0:0:
320,192,74896,1,0,0:0:0:0:
448,192,74980,1,0,0:0:0:0:
64,192,75063,1,0,0:0:0:0:
192,192,75063,1,0,0:0:0:0:
320,192,75147,1,0,0:0:0:0:
192,192,75231,1,0,0:0:0:0:
448,192,75231,1,0,0:0:0:0:
64,192,75315,1,0,0:0:0:0:
320,192,75399,1,0,0:0:0:0:
448,192,75399,1,0,0:0:0:0:
64,192,75482,1,0,0:0:0:0:
448,192,75566,1,0,0:0:0:0:
448,192,75650,1,0,0:0:0:0:
64,192,75734,1,0,0:0:0:0:
64,192,75818,1,0,0:0:0:0:
320,192,75901,1,0,0:0:0:0:
320,192,75985,1,0,0:0:0:0:
192,192,76069,1,0,0:0:0:0:
192,192,76153,1,0,0:0:0:0:
64,192,76236,1,0,0:0:0:0:
448,192,76236,1,0,0:0:0:0:
320,192,76236,1,0,0:0:0:0:
192,192,76320,1,0,0:0:0:0:
64,192,76404,1,0,0:0:0:0:
320,192,76404,1,0,0:0:0:0:
192,192,76488,1,0,0:0:0:0:
320,192,76572,1,0,0:0:0:0:
448,192,76572,1,0,0:0:0:0:
64,192,76655,1,0,0:0:0:0:
192,192,76739,1,0,0:0:0:0:
448,192,76739,1,0,0:0:0:0:
320,192,76823,1,0,0:0:0:0:
64,192,76907,1,0,0:0:0:0:
448,192,76907,1,0,0:0:0:0:
192,192,76991,1,0,0:0:0:0:
320,192,77074,1,0,0:0:0:0:
448,192,77074,1,0,0:0:0:0:
64,192,77158,1,0,0:0:0:0:
192,192,77242,1,0,0:0:0:0:
320,192,77242,1,0,0:0:0:0:
448,192,77326,1,0,0:0:0:0:
64,192,77410,1,0,0:0:0:0:
320,192,77410,1,0,0:0:0:0:
192,192,77466,1,0,0:0:0:0:
448,192,77521,1,0,0:0:0:0:
320,192,77577,1,0,0:0:0:0:
192,192,77633,1,0,0:0:0:0:
448,192,77689,1,0,0:0:0:0:
64,192,77745,1,0,0:0:0:0:
192,192,77745,1,0,0:0:0:0:
320,192,77829,1,0,0:0:0:0:
192,192,77912,1,0,0:0:0:0:
448,192,77912,1,0,0:0:0:0:
64,192,77996,1,0,0:0:0:0:
320,192,78080,1,0,0:0:0:0:
448,192,78080,1,0,0:0:0:0:
192,192,78164,1,0,0:0:0:0:
64,192,78248,1,0,0:0:0:0:
320,192,78248,1,0,0:0:0:0:
448,192,78331,1,0,0:0:0:0:
64,192,78415,1,0,0:0:0:0:
192,192,78415,1,0,0:0:0:0:
320,192,78499,1,0,0:0:0:0:
448,192,78583,1,0,0:0:0:0:
192,192,78667,1,0,0:0:0:0:
64,192,78750,1,0,0:0:0:0:
320,192,78834,1,0,0:0:0:0:
192,192,78918,1,0,0:0:0:0:
448,192,78918,1,0,0:0:0:0:
320,192,79002,1,0,0:0:0:0:
64,192,79086,1,0,0:0:0:0:
448,192,79086,1,0,0:0:0:0:
192,192,79169,1,0,0:0:0:0:
320,192,79253,1,0,0:0:0:0:
448,192,79253,1,0,0:0:0:0:
64,192,79337,1,0,0:0:0:0:
192,192,79421,1,0,0:0:0:0:
448,192,79421,1,0,0:0:0:0:
320,192,79477,1,0,0:0:0:0:
64,192,79533,1,0,0:0:0:0:
448,192,79588,1,0,0:0:0:0:
320,192,79644,1,0,0:0:0:0:
192,192,79700,1,0,0:0:0:0:
448,192,79756,1,0,0:0:0:0:
64,192,79840,1,0,0:0:0:0:
320,192,79924,1,0,0:0:0:0:
448,192,79924,1,0,0:0:0:0:
192,192,80007,1,0,0:0:0:0:
64,192,80091,1,0,0:0:0:0:
448,192,80091,1,0,0:0:0:0:
320,192,80175,1,0,0:0:0:0:
64,192,80259,1,0,0:0:0:0:
192,192,80259,1,0,0:0:0:0:
448,192,80259,1,0,0:0:0:0:
320,192,80343,1,0,0:0:0:0:
192,192,80426,1,0,0:0:0:0:
320,192,80594,1,0,0:0:0:0:
448,192,80594,1,0,0:0:0:0:
192,192,80678,1,0,0:0:0:0:
64,192,80762,1,0,0:0:0:0:
320,192,80762,1,0,0:0:0:0:
192,192,81013,1,0,0:0:0:0:
64,192,81097,1,0,0:0:0:0:
448,192,81097,1,0,0:0:0:0:
320,192,81264,1,0,0:0:0:0:
448,192,81264,1,0,0:0:0:0:
192,192,81320,1,0,0:0:0:0:
64,192,81376,1,0,0:0:0:0:
320,192,81432,1,0,0:0:0:0:
448,192,81432,1,0,0:0:0:0:
192,192,81516,1,0,0:0:0:0:
64,192,81600,1,0,0:0:0:0:
320,192,81600,1,0,0:0:0:0:
448,192,81600,1,0,0:0:0:0:
192,192,81683,1,0,0:0:0:0:
64,192,81767,1,0,0:0:0:0:
448,192,81767,1,0,0:0:0:0:
320,192,81851,1,0,0:0:0:0:
64,192,81935,1,0,0:0:0:0:
192,192,81935,1,0,0:0:0:0:
448,192,82019,1,0,0:0:0:0:
192,192,82102,1,0,0:0:0:0:
320,192,82102,1,0,0:0:0:0:
64,192,82186,1,0,0:0:0:0:
192,192,82270,1,0,0:0:0:0:
448,192,82270,1,0,0:0:0:0:
320,192,82354,1,0,0:0:0:0:
64,192,82438,1,0,0:0:0:0:
192,192,82438,1,0,0:0:0:0:
448,192,82521,1,0,0:0:0:0:
192,192,82605,1,0,0:0:0:0:
320,192,82605,1,0,0:0:0:0:
64,192,82689,1,0,0:0:0:0:
320,192,82773,1,0,0:0:0:0:
448,192,82773,1,0,0:0:0:0:
192,192,82829,1,0,0:0:0:0:
64,192,82885,1,0,0:0:0:0:
448,192,82940,1,0,0:0:0:0:
320,192,82996,1,0,0:0:0:0:
64,192,83052,1,0,0:0:0:0:
320,192,83108,1,0,0:0:0:0:
448,192,83108,1,0,0:0:0:0:
192,192,83192,1,0,0:0:0:0:
64,192,83276,1,0,0:0:0:0:
320,192,83276,1,0,0:0:0:0:
192,192,83359,1,0,0:0:0:0:
320,192,83443,1,0,0:0:0:0:
448,192,83443,1,0,0:0:0:0:
64,192,83527,1,0,0:0:0:0:
192,192,83611,1,0,0:0:0:0:
448,192,83611,1,0,0:0:0:0:
320,192,83695,1,0,0:0:0:0:
64,192,83778,1,0,0:0:0:0:
192,192,83778,1,0,0:0:0:0:
448,192,83862,1,0,0:0:0:0:
192,192,83946,1,0,0:0:0:0:
320,192,83946,1,0,0:0:0:0:
64,192,84030,1,0,0:0:0:0:
448,192,84114,1,0,0:0:0:0:
192,192,84197,1,0,0:0:0:0:
320,192,84281,1,0,0:0:0:0:
448,192,84281,1,0,0:0:0:0:
64,192,84365,1,0,0:0:0:0:
192,192,84449,1,0,0:0:0:0:
448,192,84449,1,0,0:0:0:0:
320,192,84533,1,0,0:0:0:0:
64,192,84616,1,0,0:0:0:0:
192,192,84616,1,0,0:0:0:0:
448,192,84700,1,0,0:0:0:0:
320,192,84784,1,0,0:0:0:0:
64,192,84784,1,0,0:0:0:0:
192,192,84840,1,0,0:0:0:0:
448,192,84896,1,0,0:0:0:0:
64,192,84952,1,0,0:0:0:0:
192,192,85007,1,0,0:0:0:0:
448,192,85063,1,0,0:0:0:0:
64,192,85119,1,0,0:0:0:0:
320,192,85119,1,0,0:0:0:0:
192,192,85203,1,0,0:0:0:0:
320,192,85287,1,0,0:0:0:0:
448,192,85287,1,0,0:0:0:0:
64,192,85371,1,0,0:0:0:0:
448,192,85454,1,0,0:0:0:0:
192,192,85454,1,0,0:0:0:0:
320,192,85538,1,0,0:0:0:0:
64,192,85622,1,0,0:0:0:0:
448,192,85622,1,0,0:0:0:0:
320,192,85706,1,0,0:0:0:0:
64,192,85790,1,0,0:0:0:0:
192,192,85790,1,0,0:0:0:0:
448,192,85873,1,0,0:0:0:0:
192,192,85957,1,0,0:0:0:0:
320,192,85957,1,0,0:0:0:0:
64,192,86041,1,0,0:0:0:0:
192,192,86125,1,0,0:0:0:0:
448,192,86125,1,0,0:0:0:0:
320,192,86209,1,0,0:0:0:0:
64,192,86292,1,0,0:0:0:0:
192,192,86292,1,0,0:0:0:0:
320,192,86348,1,0,0:0:0:0:
448,192,86404,1,0,0:0:0:0:
64,192,86460,1,0,0:0:0:0:
192,192,86460,1,0,0:0:0:0:
320,192,86544,1,0,0:0:0:0:
192,192,86628,1,0,0:0:0:0:
448,192,86628,1,0,0:0:0:0:
64,192,86711,1,0,0:0:0:0:
320,192,86795,1,0,0:0:0:0:
64,192,86879,1,0,0:0:0:0:
320,192,86963,1,0,0:0:0:0:
448,192,86963,1,0,0:0:0:0:
192,192,87047,1,0,0:0:0:0:
64,192,87130,1,0,0:0:0:0:
448,192,87130,1,0,0:0:0:0:
320,192,87214,1,0,0:0:0:0:
64,192,87298,1,0,0:0:0:0:
192,192,87298,1,0,0:0:0:0:
320,192,87382,1,0,0:0:0:0:
192,192,87466,1,0,0:0:0:0:
448,192,87466,1,0,0:0:0:0:
64,192,87521,1,0,0:0:0:0:
448,192,87577,1,0,0:0:0:0:
320,192,87633,1,0,0:0:0:0:
192,192,87689,1,0,0:0:0:0:
64,192,87745,1,0,0:0:0:0:
320,192,87801,1,0,0:0:0:0:
448,192,87801,1,0,0:0:0:0:
192,192,87885,1,0,0:0:0:0:
448,192,87968,1,0,0:0:0:0:
64,192,88052,1,0,0:0:0:0:
320,192,88136,1,0,0:0:0:0:
448,192,88136,1,0,0:0:0:0:
192,192,88220,1,0,0:0:0:0:
64,192,88304,1,0,0:0:0:0:
448,192,88387,1,0,0:0:0:0:
64,192,88471,1,0,0:0:0:0:
192,192,88471,1,0,0:0:0:0:
320,192,88555,1,0,0:0:0:0:
192,192,88639,1,0,0:0:0:0:
448,192,88639,1,0,0:0:0:0:
64,192,88723,1,0,0:0:0:0:
320,192,88806,1,0,0:0:0:0:
448,192,88806,1,0,0:0:0:0:
192,192,88890,1,0,0:0:0:0:
64,192,88974,1,0,0:0:0:0:
448,192,89058,1,0,0:0:0:0:
192,192,89142,1,0,0:0:0:0:
320,192,89225,1,0,0:0:0:0:
64,192,89309,1,0,0:0:0:0:
448,192,89393,1,0,0:0:0:0:
64,192,89477,1,0,0:0:0:0:
192,192,89477,1,0,0:0:0:0:
448,192,89533,1,0,0:0:0:0:
192,192,89588,1,0,0:0:0:0:
320,192,89644,1,0,0:0:0:0:
64,192,89700,1,0,0:0:0:0:
448,192,89756,1,0,0:0:0:0:
64,192,89812,1,0,0:0:0:0:
192,192,89812,1,0,0:0:0:0:
320,192,89868,1,0,0:0:0:0:
64,192,89924,1,0,0:0:0:0:
448,192,89980,1,0,0:0:0:0:
192,192,90035,1,0,0:0:0:0:
64,192,90091,1,0,0:0:0:0:
320,192,90147,1,0,0:0:0:0:
448,192,90147,1,0,0:0:0:0:
192,192,90203,1,0,0:0:0:0:
448,192,90259,1,0,0:0:0:0:
64,192,90315,1,0,0:0:0:0:
320,192,90371,1,0,0:0:0:0:
192,192,90426,1,0,0:0:0:0:
320,192,90482,1,0,0:0:0:0:
448,192,90482,1,0,0:0:0:0:
64,192,90538,1,0,0:0:0:0:
320,192,90594,1,0,0:0:0:0:
192,192,90650,1,0,0:0:0:0:
448,192,90706,1,0,0:0:0:0:
320,192,90762,1,0,0:0:0:0:
64,192,90818,1,0,0:0:0:0:
192,192,90818,1,0,0:0:0:0:
448,192,90873,1,0,0:0:0:0:
192,192,90929,1,0,0:0:0:0:
320,192,90985,1,0,0:0:0:0:
64,192,91041,1,0,0:0:0:0:
448,192,91097,1,0,0:0:0:0:
320,192,91153,1,0,0:0:0:0:
192,192,91209,1,0,0:0:0:0:
64,192,91264,1,0,0:0:0:0:
448,192,91320,1,0,0:0:0:0:
320,192,91376,1,0,0:0:0:0:
64,192,91432,1,0,0:0:0:0:
320,192,91488,1,0,0:0:0:0:
448,192,91488,1,0,0:0:0:0:
192,192,91544,1,0,0:0:0:0:
64,192,91600,1,0,0:0:0:0:
320,192,91655,1,0,0:0:0:0:
448,192,91655,1,0,0:0:0:0:
64,192,91739,1,0,0:0:0:0:
192,192,91739,1,0,0:0:0:0:
320,192,91823,1,0,0:0:0:0:
448,192,91823,1,0,0:0:0:0:
64,192,91907,1,0,0:0:0:0:
320,192,91991,1,0,0:0:0:0:
448,192,92074,1,0,0:0:0:0:
192,192,92158,1,0,0:0:0:0:
64,192,92242,1,0,0:0:0:0:
320,192,92326,1,0,0:0:0:0:
448,192,92326,1,0,0:0:0:0:
192,192,92410,1,0,0:0:0:0:
64,192,92493,1,0,0:0:0:0:
320,192,92493,1,0,0:0:0:0:
448,192,92577,1,0,0:0:0:0:
64,192,92661,1,0,0:0:0:0:
192,192,92661,1,0,0:0:0:0:
320,192,92745,1,0,0:0:0:0:
64,192,92829,1,0,0:0:0:0:
448,192,92829,1,0,0:0:0:0:
192,192,92912,1,0,0:0:0:0:
448,192,92996,1,0,0:0:0:0:
64,192,93080,1,0,0:0:0:0:
320,192,93164,1,0,0:0:0:0:
448,192,93164,1,0,0:0:0:0:
192,192,93248,1,0,0:0:0:0:
64,192,93331,1,0,0:0:0:0:
320,192,93331,1,0,0:0:0:0:
448,192,93415,1,0,0:0:0:0:
192,192,93499,1,0,0:0:0:0:
320,192,93499,1,0,0:0:0:0:
64,192,93583,1,0,0:0:0:0:
448,192,93667,1,0,0:0:0:0:
192,192,93750,1,0,0:0:0:0:
64,192,93834,1,0,0:0:0:0:
320,192,93834,1,0,0:0:0:0:
448,192,93918,1,0,0:0:0:0:
64,192,94002,1,0,0:0:0:0:
192,192,94002,1,0,0:0:0:0:
320,192,94086,1,0,0:0:0:0:
64,192,94169,1,0,0:0:0:0:
448,192,94169,1,0,0:0:0:0:
192,192,94253,1,0,0:0:0:0:
320,192,94337,1,0,0:0:0:0:
448,192,94421,1,0,0:0:0:0:
64,192,94505,1,0,0:0:0:0:
192,192,94505,1,0,0:0:0:0:
320,192,94588,1,0,0:0:0:0:
448,192,94672,1,0,0:0:0:0:
192,192,94756,1,0,0:0:0:0:
320,192,94840,1,0,0:0:0:0:
448,192,94840,1,0,0:0:0:0:
64,192,94896,1,0,0:0:0:0:
320,192,94952,1,0,0:0:0:0:
192,192,95007,1,0,0:0:0:0:
448,192,95063,1,0,0:0:0:0:
64,192,95119,1,0,0:0:0:0:
320,192,95175,1,0,0:0:0:0:
448,192,95175,1,0,0:0:0:0:
192,192,95231,1,0,0:0:0:0:
64,192,95287,1,0,0:0:0:0:
448,192,95343,1,0,0:0:0:0:
192,192,95399,1,0,0:0:0:0:
320,192,95454,1,0,0:0:0:0:
64,192,95510,1,0,0:0:0:0:
192,192,95510,1,0,0:0:0:0:
448,192,95566,1,0,0:0:0:0:
64,192,95622,1,0,0:0:0:0:
320,192,95678,1,0,0:0:0:0:
192,192,95734,1,0,0:0:0:0:
448,192,95790,1,0,0:0:0:0:
64,192,95845,1,0,0:0:0:0:
192,192,95845,1,0,0:0:0:0:
320,192,95901,1,0,0:0:0:0:
448,192,95957,1,0,0:0:0:0:
64,192,96013,1,0,0:0:0:0:
192,192,96013,1,0,0:0:0:0:
64,192,96181,1,0,0:0:0:0:
192,192,96181,1,0,0:0:0:0:
320,192,96181,1,0,0:0:0:0:
64,192,96348,1,0,0:0:0:0:
448,192,96348,1,0,0:0:0:0:
64,192,96516,1,0,0:0:0:0:
192,192,96516,1,0,0:0:0:0:
320,192,96683,1,0,0:0:0:0:
448,192,96683,1,0,0:0:0:0:
192,192,96851,1,0,0:0:0:0:
448,192,96851,1,0,0:0:0:0:
320,192,97102,1,0,0:0:0:0:
448,192,97102,1,0,0:0:0:0:
64,192,97186,1,0,0:0:0:0:
448,192,97186,1,0,0:0:0:0:
192,192,97354,1,0,0:0:0:0:
320,192,97354,1,0,0:0:0:0:
64,192,97521,1,0,0:0:0:0:
192,192,97521,1,0,0:0:0:0:
192,192,97605,1,0,0:0:0:0:
448,192,97689,1,0,0:0:0:0:
320,192,97731,1,0,0:0:0:0:
192,192,97773,1,0,0:0:0:0:
64,192,97815,1,0,0:0:0:0:
448,192,97857,1,0,0:0:0:0:
320,192,97899,1,0,0:0:0:0:
64,192,97940,1,0,0:0:0:0:
192,192,97982,1,0,0:0:0:0:
448,192,98024,1,0,0:0:0:0:
64,192,98066,1,0,0:0:0:0:
192,192,98108,1,0,0:0:0:0:
320,192,98150,1,0,0:0:0:0:
448,192,98192,1,0,0:0:0:0:
64,192,98234,1,0,0:0:0:0:
320,192,98276,1,0,0:0:0:0:
192,192,98318,1,0,0:0:0:0:
64,192,98359,1,0,0:0:0:0:
448,192,98401,1,0,0:0:0:0:
320,192,98443,1,0,0:0:0:0:
192,192,98485,1,0,0:0:0:0:
64,192,98527,1,0,0:0:0:0:
448,192,98569,1,0,0:0:0:0:
320,192,98611,1,0,0:0:0:0:
64,192,98653,1,0,0:0:0:0:
192,192,98695,1,0,0:0:0:0:
448,192,98736,1,0,0:0:0:0:
320,192,98778,1,0,0:0:0:0:
64,192,98820,1,0,0:0:0:0:
448,192,98862,1,0,0:0:0:0:
320,192,98904,1,0,0:0:0:0:
192,192,98946,1,0,0:0:0:0:
64,192,98988,1,0,0:0:0:0:
448,192,99030,1,0,0:0:0:0:
320,192,99072,1,0,0:0:0:0:
192,192,99114,1,0,0:0:0:0:
64,192,99155,1,0,0:0:0:0:
320,192,99197,1,0,0:0:0:0:
192,192,99239,1,0,0:0:0:0:
320,192,99281,1,0,0:0:0:0:
448,192,99323,1,0,0:0:0:0:
64,192,99365,1,0,0:0:0:0:
192,192,99407,1,0,0:0:0:0:
320,192,99449,1,0,0:0:0:0:
448,192,99491,1,0,0:0:0:0:
64,192,99533,1,0,0:0:0:0:
192,192,99574,1,0,0:0:0:0:
320,192,99616,1,0,0:0:0:0:
64,192,99658,1,0,0:0:0:0:
448,192,99700,1,0,0:0:0:0:
320,192,99742,1,0,0:0:0:0:
192,192,99784,1,0,0:0:0:0:
64,192,99826,1,0,0:0:0:0:
448,192,99868,1,0,0:0:0:0:
320,192,99910,1,0,0:0:0:0:
192,192,99952,1,0,0:0:0:0:
448,192,99993,1,0,0:0:0:0:
320,192,100035,1,0,0:0:0:0:
64,192,100077,1,0,0:0:0:0:
192,192,100119,1,0,0:0:0:0:
320,192,100161,1,0,0:0:0:0:
64,192,100203,1,0,0:0:0:0:
448,192,100245,1,0,0:0:0:0:
192,192,100287,1,0,0:0:0:0:
64,192,100329,1,0,0:0:0:0:
448,192,100371,1,0,0:0:0:0:
320,192,100412,1,0,0:0:0:0:
192,192,100454,1,0,0:0:0:0:
64,192,100496,1,0,0:0:0:0:
448,192,100538,1,0,0:0:0:0:
320,192,100580,1,0,0:0:0:0:
192,192,100622,1,0,0:0:0:0:
64,192,100664,1,0,0:0:0:0:
448,192,100706,1,0,0:0:0:0:
192,192,100748,1,0,0:0:0:0:
320,192,100790,1,0,0:0:0:0:
448,192,100831,1,0,0:0:0:0:
64,192,100873,1,0,0:0:0:0:
192,192,100915,1,0,0:0:0:0:
448,192,100957,1,0,0:0:0:0:
64,192,100999,1,0,0:0:0:0:
192,192,101041,1,0,0:0:0:0:
320,192,101083,1,0,0:0:0:0:
448,192,101125,1,0,0:0:0:0:
64,192,101167,1,0,0:0:0:0:
320,192,101209,1,0,0:0:0:0:
192,192,101250,1,0,0:0:0:0:
320,192,101292,1,0,0:0:0:0:
448,192,101334,1,0,0:0:0:0:
64,192,101376,1,0,0:0:0:0:
320,192,101418,1,0,0:0:0:0:
192,192,101460,1,0,0:0:0:0:
448,192,101502,1,0,0:0:0:0:
64,192,101544,1,0,0:0:0:0:
192,192,101586,1,0,0:0:0:0:
320,192,101628,1,0,0:0:0:0:
64,192,101669,1,0,0:0:0:0:
448,192,101711,1,0,0:0:0:0:
320,192,101753,1,0,0:0:0:0:
192,192,101795,1,0,0:0:0:0:
448,192,101837,1,0,0:0:0:0:
320,192,101879,1,0,0:0:0:0:
64,192,101921,1,0,0:0:0:0:
320,192,101963,1,0,0:0:0:0:
192,192,102005,1,0,0:0:0:0:
64,192,102047,1,0,0:0:0:0:
448,192,102088,1,0,0:0:0:0:
192,192,102130,1,0,0:0:0:0:
64,192,102172,1,0,0:0:0:0:
320,192,102214,1,0,0:0:0:0:
192,192,102256,1,0,0:0:0:0:
64,192,102298,1,0,0:0:0:0:
448,192,102340,1,0,0:0:0:0:
320,192,102382,1,0,0:0:0:0:
64,192,102424,1,0,0:0:0:0:
448,192,102466,1,0,0:0:0:0:
320,192,102507,1,0,0:0:0:0:
192,192,102549,1,0,0:0:0:0:
448,192,102591,1,0,0:0:0:0:
192,192,102633,1,0,0:0:0:0:
64,192,102675,1,0,0:0:0:0:
448,192,102717,1,0,0:0:0:0:
320,192,102759,1,0,0:0:0:0:
64,192,102801,1,0,0:0:0:0:
448,192,102843,1,0,0:0:0:0:
320,192,102885,1,0,0:0:0:0:
192,192,102926,1,0,0:0:0:0:
448,192,102968,1,0,0:0:0:0:
320,192,103010,1,0,0:0:0:0:
64,192,103052,1,0,0:0:0:0:
192,192,103052,1,0,0:0:0:0:
448,192,103094,1,0,0:0:0:0:
320,192,103136,1,0,0:0:0:0:
192,192,103178,1,0,0:0:0:0:
64,192,103220,1,0,0:0:0:0:
320,192,103262,1,0,0:0:0:0:
192,192,103304,1,0,0:0:0:0:
448,192,103345,1,0,0:0:0:0:
320,192,103387,1,0,0:0:0:0:
64,192,103429,1,0,0:0:0:0:
192,192,103471,1,0,0:0:0:0:
320,192,103513,1,0,0:0:0:0:
64,192,103555,1,0,0:0:0:0:
448,192,103597,1,0,0:0:0:0:
320,192,103639,1,0,0:0:0:0:
192,192,103681,1,0,0:0:0:0:
64,192,103723,1,0,0:0:0:0:
448,192,103764,1,0,0:0:0:0:
320,192,103806,1,0,0:0:0:0:
64,192,103848,1,0,0:0:0:0:
192,192,103890,1,0,0:0:0:0:
448,192,103932,1,0,0:0:0:0:
320,192,103974,1,0,0:0:0:0:
64,192,104016,1,0,0:0:0:0:
192,192,104058,1,0,0:0:0:0:
448,192,104100,1,0,0:0:0:0:
64,192,104142,1,0,0:0:0:0:
192,192,104183,1,0,0:0:0:0:
320,192,104225,1,0,0:0:0:0:
64,192,104267,1,0,0:0:0:0:
192,192,104309,1,0,0:0:0:0:
320,192,104351,1,0,0:0:0:0:
448,192,104393,1,0,0:0:0:0:
64,192,104435,1,0,0:0:0:0:
320,192,104477,1,0,0:0:0:0:
448,192,104519,1,0,0:0:0:0:
192,192,104561,1,0,0:0:0:0:
64,192,104602,1,0,0:0:0:0:
192,192,104644,1,0,0:0:0:0:
320,192,104686,1,0,0:0:0:0:
448,192,104728,1,0,0:0:0:0:
192,192,104770,1,0,0:0:0:0:
64,192,104812,1,0,0:0:0:0:
448,192,104854,1,0,0:0:0:0:
320,192,104896,1,0,0:0:0:0:
64,192,104938,1,0,0:0:0:0:
448,192,104980,1,0,0:0:0:0:
320,192,105021,1,0,0:0:0:0:
192,192,105063,1,0,0:0:0:0:
64,192,105105,1,0,0:0:0:0:
448,192,105147,1,0,0:0:0:0:
192,192,105189,1,0,0:0:0:0:
320,192,105231,1,0,0:0:0:0:
64,192,105273,1,0,0:0:0:0:
192,192,105315,1,0,0:0:0:0:
448,192,105357,1,0,0:0:0:0:
64,192,105399,1,0,0:0:0:0:
192,192,105440,1,0,0:0:0:0:
320,192,105482,1,0,0:0:0:0:
64,192,105524,1,0,0:0:0:0:
448,192,105566,1,0,0:0:0:0:
320,192,105608,1,0,0:0:0:0:
192,192,105650,1,0,0:0:0:0:
64,192,105692,1,0,0:0:0:0:
448,192,105734,1,0,0:0:0:0:
192,192,105776,1,0,0:0:0:0:
320,192,105818,1,0,0:0:0:0:
64,192,105859,1,0,0:0:0:0:
448,192,105901,1,0,0:0:0:0:
320,192,105943,1,0,0:0:0:0:
192,192,105985,1,0,0:0:0:0:
64,192,106027,1,0,0:0:0:0:
448,192,106069,1,0,0:0:0:0:
320,192,106111,1,0,0:0:0:0:
64,192,106153,1,0,0:0:0:0:
448,192,106195,1,0,0:0:0:0:
192,192,106236,1,0,0:0:0:0:
320,192,106278,1,0,0:0:0:0:
64,192,106320,1,0,0:0:0:0:
192,192,106362,1,0,0:0:0:0:
448,192,106404,1,0,0:0:0:0:
320,192,106446,1,0,0:0:0:0:
64,192,106488,1,0,0:0:0:0:
448,192,106530,1,0,0:0:0:0:
320,192,106572,1,0,0:0:0:0:
192,192,106614,1,0,0:0:0:0:
448,192,106655,1,0,0:0:0:0:
64,192,106697,1,0,0:0:0:0:
192,192,106739,1,0,0:0:0:0:
320,192,106781,1,0,0:0:0:0:
448,192,106823,1,0,0:0:0:0:
64,192,106865,1,0,0:0:0:0:
320,192,106907,1,0,0:0:0:0:
192,192,106949,1,0,0:0:0:0:
448,192,106991,1,0,0:0:0:0:
320,192,107033,1,0,0:0:0:0:
64,192,107074,1,0,0:0:0:0:
192,192,107116,1,0,0:0:0:0:
320,192,107158,1,0,0:0:0:0:
448,192,107200,1,0,0:0:0:0:
64,192,107242,1,0,0:0:0:0:
320,192,107284,1,0,0:0:0:0:
192,192,107326,1,0,0:0:0:0:
64,192,107368,1,0,0:0:0:0:
448,192,107410,1,0,0:0:0:0:
320,192,107452,1,0,0:0:0:0:
192,192,107493,1,0,0:0:0:0:
64,192,107535,1,0,0:0:0:0:
320,192,107577,1,0,0:0:0:0:
448,192,107619,1,0,0:0:0:0:
192,192,107661,1,0,0:0:0:0:
320,192,107703,1,0,0:0:0:0:
64,192,107745,1,0,0:0:0:0:
192,192,107787,1,0,0:0:0:0:
320,192,107829,1,0,0:0:0:0:
448,192,107871,1,0,0:0:0:0:
64,192,107912,1,0,0:0:0:0:
192,192,107968,1,0,0:0:0:0:
320,192,108024,1,0,0:0:0:0:
64,192,108080,1,0,0:0:0:0:
192,192,108136,1,0,0:0:0:0:
448,192,108192,1,0,0:0:0:0:
192,192,108248,1,0,0:0:0:0:
320,192,108304,1,0,0:0:0:0:
448,192,108359,1,0,0:0:0:0:
64,192,108415,1,0,0:0:0:0:
192,192,108457,1,0,0:0:0:0:
320,192,108499,1,0,0:0:0:0:
448,192,108541,1,0,0:0:0:0:
64,192,108583,1,0,0:0:0:0:
192,192,108625,1,0,0:0:0:0:
448,192,108667,1,0,0:0:0:0:
320,192,108709,1,0,0:0:0:0:
64,192,108750,1,0,0:0:0:0:
448,192,108792,1,0,0:0:0:0:
320,192,108834,1,0,0:0:0:0:
192,192,108876,1,0,0:0:0:0:
64,192,108918,1,0,0:0:0:0:
448,192,108960,1,0,0:0:0:0:
192,192,109002,1,0,0:0:0:0:
320,192,109044,1,0,0:0:0:0:
448,192,109086,1,0,0:0:0:0:
64,192,109128,1,0,0:0:0:0:
192,192,109169,1,0,0:0:0:0:
320,192,109211,1,0,0:0:0:0:
448,192,109253,1,0,0:0:0:0:
64,192,109295,1,0,0:0:0:0:
192,192,109337,1,0,0:0:0:0:
448,192,109379,1,0,0:0:0:0:
320,192,109421,1,0,0:0:0:0:
64,192,109463,1,0,0:0:0:0:
192,192,109505,1,0,0:0:0:0:
448,192,109547,1,0,0:0:0:0:
64,192,109588,1,0,0:0:0:0:
192,192,109630,1,0,0:0:0:0:
320,192,109672,1,0,0:0:0:0:
448,192,109714,1,0,0:0:0:0:
64,192,109756,1,0,0:0:0:0:
192,192,109798,1,0,0:0:0:0:
320,192,109840,1,0,0:0:0:0:
448,192,109882,1,0,0:0:0:0:
192,192,109924,1,0,0:0:0:0:
320,192,109966,1,0,0:0:0:0:
192,192,110007,1,0,0:0:0:0:
64,192,110049,1,0,0:0:0:0:
448,192,110091,1,0,0:0:0:0:
320,192,110133,1,0,0:0:0:0:
192,192,110175,1,0,0:0:0:0:
64,192,110217,1,0,0:0:0:0:
448,192,110259,1,0,0:0:0:0:
320,192,110301,1,0,0:0:0:0:
192,192,110343,1,0,0:0:0:0:
448,192,110385,1,0,0:0:0:0:
64,192,110426,1,0,0:0:0:0:
192,192,110468,1,0,0:0:0:0:
320,192,110510,1,0,0:0:0:0:
448,192,110552,1,0,0:0:0:0:
64,192,110594,1,0,0:0:0:0:
192,192,110636,1,0,0:0:0:0:
320,192,110678,1,0,0:0:0:0:
64,192,110720,1,0,0:0:0:0:
192,192,110762,1,0,0:0:0:0:
448,192,110804,1,0,0:0:0:0:
320,192,110845,1,0,0:0:0:0:
192,192,110887,1,0,0:0:0:0:
448,192,110929,1,0,0:0:0:0:
64,192,110971,1,0,0:0:0:0:
320,192,111013,1,0,0:0:0:0:
448,192,111055,1,0,0:0:0:0:
64,192,111097,1,0,0:0:0:0:
192,192,111139,1,0,0:0:0:0:
320,192,111181,1,0,0:0:0:0:
448,192,111223,1,0,0:0:0:0:
64,192,111264,1,0,0:0:0:0:
192,192,111306,1,0,0:0:0:0:
320,192,111348,1,0,0:0:0:0:
448,192,111390,1,0,0:0:0:0:
64,192,111432,1,0,0:0:0:0:
320,192,111474,1,0,0:0:0:0:
192,192,111516,1,0,0:0:0:0:
64,192,111558,1,0,0:0:0:0:
448,192,111600,1,0,0:0:0:0:
320,192,111642,1,0,0:0:0:0:
64,192,111683,1,0,0:0:0:0:
448,192,111725,1,0,0:0:0:0:
320,192,111767,1,0,0:0:0:0:
192,192,111809,1,0,0:0:0:0:
64,192,111851,1,0,0:0:0:0:
448,192,111893,1,0,0:0:0:0:
192,192,111935,1,0,0:0:0:0:
320,192,111977,1,0,0:0:0:0:
192,192,112019,1,0,0:0:0:0:
64,192,112061,1,0,0:0:0:0:
448,192,112102,1,0,0:0:0:0:
192,192,112144,1,0,0:0:0:0:
320,192,112186,1,0,0:0:0:0:
64,192,112228,1,0,0:0:0:0:
448,192,112270,1,0,0:0:0:0:
320,192,112312,1,0,0:0:0:0:
192,192,112354,1,0,0:0:0:0:
448,192,112396,1,0,0:0:0:0:
64,192,112438,1,0,0:0:0:0:
192,192,112480,1,0,0:0:0:0:
320,192,112521,1,0,0:0:0:0:
64,192,112563,1,0,0:0:0:0:
192,192,112605,1,0,0:0:0:0:
448,192,112647,1,0,0:0:0:0:
192,192,112689,1,0,0:0:0:0:
320,192,112731,1,0,0:0:0:0:
448,192,112773,1,0,0:0:0:0:
64,192,112815,1,0,0:0:0:0:
320,192,112857,1,0,0:0:0:0:
448,192,112899,1,0,0:0:0:0:
192,192,112940,1,0,0:0:0:0:
320,192,112982,1,0,0:0:0:0:
448,192,113024,1,0,0:0:0:0:
64,192,113066,1,0,0:0:0:0:
192,192,113108,1,0,0:0:0:0:
448,192,113150,1,0,0:0:0:0:
64,192,113192,1,0,0:0:0:0:
192,192,113234,1,0,0:0:0:0:
320,192,113276,1,0,0:0:0:0:
64,192,113318,1,0,0:0:0:0:
320,192,113359,1,0,0:0:0:0:
448,192,113401,1,0,0:0:0:0:
64,192,113443,1,0,0:0:0:0:
192,192,113485,1,0,0:0:0:0:
448,192,113527,1,0,0:0:0:0:
64,192,113569,1,0,0:0:0:0:
192,192,113611,1,0,0:0:0:0:
320,192,113653,1,0,0:0:0:0:
64,192,113695,1,0,0:0:0:0:
192,192,113736,1,0,0:0:0:0:
320,192,113778,1,0,0:0:0:0:
448,192,113778,1,0,0:0:0:0:
64,192,113820,1,0,0:0:0:0:
192,192,113862,1,0,0:0:0:0:
320,192,113904,1,0,0:0:0:0:
448,192,113946,1,0,0:0:0:0:
192,192,113988,1,0,0:0:0:0:
320,192,114030,1,0,0:0:0:0:
64,192,114072,1,0,0:0:0:0:
192,192,114114,1,0,0:0:0:0:
448,192,114155,1,0,0:0:0:0:
320,192,114197,1,0,0:0:0:0:
192,192,114239,1,0,0:0:0:0:
448,192,114281,1,0,0:0:0:0:
64,192,114323,1,0,0:0:0:0:
192,192,114365,1,0,0:0:0:0:
320,192,114407,1,0,0:0:0:0:
448,192,114449,1,0,0:0:0:0:
64,192,114491,1,0,0:0:0:0:
192,192,114533,1,0,0:0:0:0:
448,192,114574,1,0,0:0:0:0:
320,192,114616,1,0,0:0:0:0:
64,192,114658,1,0,0:0:0:0:
192,192,114700,1,0,0:0:0:0:
448,192,114742,1,0,0:0:0:0:
320,192,114784,1,0,0:0:0:0:
64,192,114826,1,0,0:0:0:0:
448,192,114868,1,0,0:0:0:0:
320,192,114910,1,0,0:0:0:0:
192,192,114952,1,0,0:0:0:0:
448,192,114993,1,0,0:0:0:0:
320,192,115035,1,0,0:0:0:0:
192,192,115077,1,0,0:0:0:0:
64,192,115119,1,0,0:0:0:0:
448,192,115161,1,0,0:0:0:0:
192,192,115203,1,0,0:0:0:0:
64,192,115245,1,0,0:0:0:0:
320,192,115287,1,0,0:0:0:0:
448,192,115329,1,0,0:0:0:0:
320,192,115371,1,0,0:0:0:0:
192,192,115412,1,0,0:0:0:0:
64,192,115454,1,0,0:0:0:0:
320,192,115496,1,0,0:0:0:0:
448,192,115538,1,0,0:0:0:0:
64,192,115580,1,0,0:0:0:0:
192,192,115622,1,0,0:0:0:0:
448,192,115664,1,0,0:0:0:0:
64,192,115706,1,0,0:0:0:0:
192,192,115748,1,0,0:0:0:0:
320,192,115790,1,0,0:0:0:0:
448,192,115831,1,0,0:0:0:0:
64,192,115873,1,0,0:0:0:0:
320,192,115915,1,0,0:0:0:0:
192,192,115957,1,0,0:0:0:0:
448,192,115999,1,0,0:0:0:0:
320,192,116041,1,0,0:0:0:0:
64,192,116083,1,0,0:0:0:0:
448,192,116125,1,0,0:0:0:0:
320,192,116167,1,0,0:0:0:0:
192,192,116209,1,0,0:0:0:0:
448,192,116250,1,0,0:0:0:0:
64,192,116292,1,0,0:0:0:0:
192,192,116334,1,0,0:0:0:0:
320,192,116376,1,0,0:0:0:0:
448,192,116418,1,0,0:0:0:0:
64,192,116460,1,0,0:0:0:0:
320,192,116502,1,0,0:0:0:0:
192,192,116544,1,0,0:0:0:0:
448,192,116586,1,0,0:0:0:0:
64,192,116628,1,0,0:0:0:0:
192,192,116669,1,0,0:0:0:0:
320,192,116711,1,0,0:0:0:0:
448,192,116753,1,0,0:0:0:0:
64,192,116795,1,0,0:0:0:0:
192,192,116837,1,0,0:0:0:0:
448,192,116879,1,0,0:0:0:0:
64,192,116921,1,0,0:0:0:0:
320,192,116963,1,0,0:0:0:0:
192,192,117005,1,0,0:0:0:0:
448,192,117047,1,0,0:0:0:0:
320,192,117088,1,0,0:0:0:0:
64,192,117130,1,0,0:0:0:0:
192,192,117172,1,0,0:0:0:0:
448,192,117214,1,0,0:0:0:0:
64,192,117256,1,0,0:0:0:0:
192,192,117298,1,0,0:0:0:0:
320,192,117340,1,0,0:0:0:0:
64,192,117382,1,0,0:0:0:0:
448,192,117424,1,0,0:0:0:0:
320,192,117466,1,0,0:0:0:0:
192,192,117507,1,0,0:0:0:0:
64,192,117549,1,0,0:0:0:0:
448,192,117591,1,0,0:0:0:0:
192,192,117633,1,0,0:0:0:0:
320,192,117675,1,0,0:0:0:0:
64,192,117717,1,0,0:0:0:0:
192,192,117759,1,0,0:0:0:0:
448,192,117801,1,0,0:0:0:0:
320,192,117843,1,0,0:0:0:0:
192,192,117885,1,0,0:0:0:0:
64,192,117926,1,0,0:0:0:0:
448,192,117968,1,0,0:0:0:0:
192,192,118010,1,0,0:0:0:0:
320,192,118052,1,0,0:0:0:0:
448,192,118094,1,0,0:0:0:0:
64,192,118136,1,0,0:0:0:0:
192,192,118178,1,0,0:0:0:0:
320,192,118220,1,0,0:0:0:0:
448,192,118262,1,0,0:0:0:0:
192,192,118304,1,0,0:0:0:0:
64,192,118345,1,0,0:0:0:0:
320,192,118387,1,0,0:0:0:0:
192,192,118429,1,0,0:0:0:0:
448,192,118471,1,0,0:0:0:0:
320,192,118513,1,0,0:0:0:0:
192,192,118555,1,0,0:0:0:0:
64,192,118597,1,0,0:0:0:0:
448,192,118639,1,0,0:0:0:0:
320,192,118695,1,0,0:0:0:0:
192,192,118750,1,0,0:0:0:0:
448,192,118806,1,0,0:0:0:0:
320,192,118862,1,0,0:0:0:0:
64,192,118918,1,0,0:0:0:0:
320,192,118974,1,0,0:0:0:0:
192,192,119030,1,0,0:0:0:0:
64,192,119086,1,0,0:0:0:0:
320,192,119142,1,0,0:0:0:0:
448,192,119142,1,0,0:0:0:0:
64,192,119225,1,0,0:0:0:0:
192,192,119225,1,0,0:0:0:0:
320,192,119309,1,0,0:0:0:0:
448,192,119309,1,0,0:0:0:0:
64,192,119393,1,0,0:0:0:0:
192,192,119393,1,0,0:0:0:0:
320,192,119477,1,0,0:0:0:0:
448,192,119477,1,0,0:0:0:0:
64,192,119561,1,0,0:0:0:0:
192,192,119561,1,0,0:0:0:0:
448,192,119644,1,0,0:0:0:0:
192,192,119728,1,0,0:0:0:0:
320,192,119728,1,0,0:0:0:0:
64,192,119812,1,0,0:0:0:0:
448,192,119896,1,0,0:0:0:0:
192,192,119980,1,0,0:0:0:0:
448,192,119980,1,0,0:0:0:0:
64,192,120063,1,0,0:0:0:0:
320,192,120147,1,0,0:0:0:0:
448,192,120147,1,0,0:0:0:0:
192,192,120231,1,0,0:0:0:0:
64,192,120315,1,0,0:0:0:0:
320,192,120315,1,0,0:0:0:0:
192,192,120399,1,0,0:0:0:0:
448,192,120399,1,0,0:0:0:0:
64,192,120482,1,0,0:0:0:0:
320,192,120482,1,0,0:0:0:0:
448,192,120566,1,0,0:0:0:0:
64,192,120650,1,0,0:0:0:0:
192,192,120650,1,0,0:0:0:0:
320,192,120734,1,0,0:0:0:0:
192,192,120818,1,0,0:0:0:0:
448,192,120818,1,0,0:0:0:0:
64,192,120901,1,0,0:0:0:0:
320,192,120985,1,0,0:0:0:0:
448,192,120985,1,0,0:0:0:0:
64,192,121069,1,0,0:0:0:0:
192,192,121069,1,0,0:0:0:0:
448,192,121153,1,0,0:0:0:0:
320,192,121236,1,0,0:0:0:0:
448,192,121236,1,0,0:0:0:0:
64,192,121320,1,0,0:0:0:0:
192,192,121320,1,0,0:0:0:0:
64,192,121404,1,0,0:0:0:0:
192,192,121488,1,0,0:0:0:0:
320,192,121488,1,0,0:0:0:0:
320,192,121572,1,0,0:0:0:0:
192,192,121655,1,0,0:0:0:0:
448,192,121655,1,0,0:0:0:0:
192,192,121739,1,0,0:0:0:0:
448,192,121823,1,0,0:0:0:0:
320,192,121823,1,0,0:0:0:0:
192,192,121907,1,0,0:0:0:0:
64,192,121907,1,0,0:0:0:0:
448,192,121991,1,0,0:0:0:0:
320,192,121991,1,0,0:0:0:0:
192,192,122074,1,0,0:0:0:0:
64,192,122074,1,0,0:0:0:0:
448,192,122158,1,0,0:0:0:0:
320,192,122158,1,0,0:0:0:0:
192,192,122242,1,0,0:0:0:0:
64,192,122242,1,0,0:0:0:0:
320,192,122326,1,0,0:0:0:0:
192,192,122410,1,0,0:0:0:0:
448,192,122410,1,0,0:0:0:0:
320,192,122493,1,0,0:0:0:0:
64,192,122577,1,0,0:0:0:0:
64,192,122661,1,0,0:0:0:0:
320,192,122661,1,0,0:0:0:0:
448,192,122745,1,0,0:0:0:0:
192,192,122829,1,0,0:0:0:0:
320,192,122829,1,0,0:0:0:0:
64,192,122912,1,0,0:0:0:0:
192,192,122996,1,0,0:0:0:0:
320,192,122996,1,0,0:0:0:0:
64,192,123080,1,0,0:0:0:0:
448,192,123080,1,0,0:0:0:0:
192,192,123164,1,0,0:0:0:0:
320,192,123164,1,0,0:0:0:0:
448,192,123248,1,0,0:0:0:0:
64,192,123331,1,0,0:0:0:0:
192,192,123331,1,0,0:0:0:0:
320,192,123415,1,0,0:0:0:0:
64,192,123499,1,0,0:0:0:0:
448,192,123499,1,0,0:0:0:0:
192,192,123583,1,0,0:0:0:0:
448,192,123667,1,0,0:0:0:0:
64,192,123750,1,0,0:0:0:0:
192,192,123834,1,0,0:0:0:0:
448,192,123834,1,0,0:0:0:0:
192,192,123918,1,0,0:0:0:0:
64,192,124002,1,0,0:0:0:0:
448,192,124002,1,0,0:0:0:0:
448,192,124086,1,0,0:0:0:0:
64,192,124169,1,0,0:0:0:0:
192,192,124169,1,0,0:0:0:0:
64,192,124253,1,0,0:0:0:0:
192,192,124337,1,0,0:0:0:0:
320,192,124337,1,0,0:0:0:0:
320,192,124421,1,0,0:0:0:0:
64,192,124505,1,0,0:0:0:0:
448,192,124505,1,0,0:0:0:0:
192,192,124588,1,0,0:0:0:0:
320,192,124588,1,0,0:0:0:0:
64,192,124672,1,0,0:0:0:0:
448,192,124672,1,0,0:0:0:0:
192,192,124756,1,0,0:0:0:0:
320,192,124756,1,0,0:0:0:0:
64,192,124840,1,0,0:0:0:0:
448,192,124840,1,0,0:0:0:0:
192,192,124924,1,0,0:0:0:0:
320,192,124924,1,0,0:0:0:0:
64,192,125007,1,0,0:0:0:0:
320,192,125091,1,0,0:0:0:0:
448,192,125091,1,0,0:0:0:0:
192,192,125175,1,0,0:0:0:0:
448,192,125259,1,0,0:0:0:0:
64,192,125343,1,0,0:0:0:0:
448,192,125343,1,0,0:0:0:0:
192,192,125426,1,0,0:0:0:0:
320,192,125510,1,0,0:0:0:0:
448,192,125510,1,0,0:0:0:0:
64,192,125594,1,0,0:0:0:0:
192,192,125678,1,0,0:0:0:0:
448,192,125678,1,0,0:0:0:0:
64,192,125762,1,0,0:0:0:0:
320,192,125762,1,0,0:0:0:0:
192,192,125845,1,0,0:0:0:0:
448,192,125845,1,0,0:0:0:0:
320,192,125929,1,0,0:0:0:0:
64,192,126013,1,0,0:0:0:0:
448,192,126097,1,0,0:0:0:0:
64,192,126181,1,0,0:0:0:0:
192,192,126181,1,0,0:0:0:0:
320,192,126264,1,0,0:0:0:0:
192,192,126348,1,0,0:0:0:0:
320,192,126432,1,0,0:0:0:0:
448,192,126432,1,0,0:0:0:0:
64,192,126516,1,0,0:0:0:0:
448,192,126600,1,0,0:0:0:0:
320,192,126683,1,0,0:0:0:0:
448,192,126683,1,0,0:0:0:0:
64,192,126767,1,0,0:0:0:0:
192,192,126767,1,0,0:0:0:0:
192,192,126851,1,0,0:0:0:0:
320,192,126851,1,0,0:0:0:0:
320,192,126935,1,0,0:0:0:0:
64,192,127019,1,0,0:0:0:0:
192,192,127019,1,0,0:0:0:0:
64,192,127102,1,0,0:0:0:0:
320,192,127186,1,0,0:0:0:0:
448,192,127186,1,0,0:0:0:0:
64,192,127270,1,0,0:0:0:0:
192,192,127270,1,0,0:0:0:0:
320,192,127354,1,0,0:0:0:0:
448,192,127354,1,0,0:0:0:0:
64,192,127438,1,0,0:0:0:0:
192,192,127438,1,0,0:0:0:0:
320,192,127521,1,0,0:0:0:0:
448,192,127521,1,0,0:0:0:0:
64,192,127605,1,0,0:0:0:0:
192,192,127605,1,0,0:0:0:0:
448,192,127689,1,0,0:0:0:0:
192,192,127773,1,0,0:0:0:0:
320,192,127773,1,0,0:0:0:0:
64,192,127857,1,0,0:0:0:0:
448,192,127940,1,0,0:0:0:0:
192,192,128024,1,0,0:0:0:0:
448,192,128024,1,0,0:0:0:0:
64,192,128108,1,0,0:0:0:0:
320,192,128192,1,0,0:0:0:0:
448,192,128192,1,0,0:0:0:0:
192,192,128276,1,0,0:0:0:0:
64,192,128359,1,0,0:0:0:0:
320,192,128359,1,0,0:0:0:0:
192,192,128443,1,0,0:0:0:0:
448,192,128443,1,0,0:0:0:0:
64,192,128527,1,0,0:0:0:0:
320,192,128527,1,0,0:0:0:0:
448,192,128611,1,0,0:0:0:0:
64,192,128695,1,0,0:0:0:0:
192,192,128695,1,0,0:0:0:0:
320,192,128778,1,0,0:0:0:0:
192,192,128862,1,0,0:0:0:0:
448,192,128862,1,0,0:0:0:0:
64,192,128946,1,0,0:0:0:0:
320,192,129030,1,0,0:0:0:0:
448,192,129030,1,0,0:0:0:0:
64,192,129114,1,0,0:0:0:0:
448,192,129197,1,0,0:0:0:0:
448,192,129281,1,0,0:0:0:0:
64,192,129365,1,0,0:0:0:0:
64,192,129449,1,0,0:0:0:0:
320,192,129533,1,0,0:0:0:0:
320,192,129616,1,0,0:0:0:0:
192,192,129700,1,0,0:0:0:0:
448,192,129700,1,0,0:0:0:0:
192,192,129784,1,0,0:0:0:0:
64,192,129868,1,0,0:0:0:0:
448,192,129868,1,0,0:0:0:0:
320,192,129868,1,0,0:0:0:0:
192,192,130035,1,0,0:0:0:0:
320,192,130035,1,0,0:0:0:0:
192,192,130203,1,0,0:0:0:0:
448,192,130203,1,0,0:0:0:0:
64,192,130371,1,0,0:0:0:0:
320,192,130371,1,0,0:0:0:0:
64,192,130538,1,0,0:0:0:0:
448,192,130538,1,0,0:0:0:0:
64,192,130706,1,0,0:0:0:0:
192,192,130706,1,0,0:0:0:0:
448,192,130873,1,0,0:0:0:0:
320,192,130873,1,0,0:0:0:0:
64,192,131041,1,0,0:0:0:0:
192,192,131097,1,0,0:0:0:0:
320,192,131153,1,0,0:0:0:0:
448,192,131209,1,0,0:0:0:0:
64,192,131264,1,0,0:0:0:0:
192,192,131320,1,0,0:0:0:0:
320,192,131376,1,0,0:0:0:0:
448,192,131376,1,0,0:0:0:0:
192,192,131544,1,0,0:0:0:0:
448,192,131544,1,0,0:0:0:0:
192,192,131711,1,0,0:0:0:0:
448,192,131711,1,0,0:0:0:0:
64,192,131879,1,0,0:0:0:0:
192,192,131879,1,0,0:0:0:0:
64,192,132047,1,0,0:0:0:0:
320,192,132047,1,0,0:0:0:0:
448,192,132214,1,0,0:0:0:0:
320,192,132298,1,0,0:0:0:0:
448,192,132382,1,0,0:0:0:0:
320,192,132466,1,0,0:0:0:0:
64,192,132549,1,0,0:0:0:0:
192,192,132549,1,0,0:0:0:0:
192,192,132717,1,0,0:0:0:0:
448,192,132717,1,0,0:0:0:0:
192,192,132885,1,0,0:0:0:0:
320,192,132885,1,0,0:0:0:0:
320,192,133052,1,0,0:0:0:0:
448,192,133052,1,0,0:0:0:0:
192,192,133136,1,0,0:0:0:0:
320,192,133220,1,0,0:0:0:0:
448,192,133304,1,0,0:0:0:0:
320,192,133387,1,0,0:0:0:0:
448,192,133471,1,0,0:0:0:0:
320,192,133555,1,0,0:0:0:0:
64,192,133723,1,0,0:0:0:0:
192,192,133723,1,0,0:0:0:0:
64,192,133890,1,0,0:0:0:0:
448,192,133890,1,0,0:0:0:0:
64,192,134058,1,0,0:0:0:0:
448,192,134058,1,0,0:0:0:0:
192,192,134225,1,0,0:0:0:0:
320,192,134225,1,0,0:0:0:0:
192,192,134393,1,0,0:0:0:0:
448,192,134393,1,0,0:0:0:0:
64,192,134728,1,0,0:0:0:0:
192,192,134728,1,0,0:0:0:0:
64,192,134896,1,0,0:0:0:0:
448,192,134896,1,0,0:0:0:0:
320,192,134952,1,0,0:0:0:0:
192,192,135007,1,0,0:0:0:0:
320,192,135063,1,0,0:0:0:0:
448,192,135063,1,0,0:0:0:0:
192,192,135231,1,0,0:0:0:0:
320,192,135231,1,0,0:0:0:0:
448,192,135231,1,0,0:0:0:0:
64,192,135399,1,0,0:0:0:0:
192,192,135399,1,0,0:0:0:0:
64,192,135566,1,0,0:0:0:0:
320,192,135566,1,0,0:0:0:0:
192,192,135734,1,0,0:0:0:0:
320,192,135734,1,0,0:0:0:0:
64,192,135901,1,0,0:0:0:0:
448,192,135901,1,0,0:0:0:0:
64,192,136069,1,0,0:0:0:0:
192,192,136069,1,0,0:0:0:0:
320,192,136236,1,0,0:0:0:0:
448,192,136236,1,0,0:0:0:0:
192,192,136404,1,0,0:0:0:0:
448,192,136404,1,0,0:0:0:0:
320,192,136460,1,0,0:0:0:0:
64,192,136516,1,0,0:0:0:0:
448,192,136572,1,0,0:0:0:0:
192,192,136628,1,0,0:0:0:0:
64,192,136683,1,0,0:0:0:0:
320,192,136739,1,0,0:0:0:0:
448,192,136739,1,0,0:0:0:0:
192,192,136907,1,0,0:0:0:0:
448,192,136907,1,0,0:0:0:0:
64,192,137074,1,0,0:0:0:0:
192,192,137074,1,0,0:0:0:0:
320,192,137242,1,0,0:0:0:0:
448,192,137242,1,0,0:0:0:0:
64,192,137410,1,0,0:0:0:0:
320,192,137410,1,0,0:0:0:0:
64,192,137577,1,0,0:0:0:0:
192,192,137577,1,0,0:0:0:0:
320,192,137745,1,0,0:0:0:0:
448,192,137829,1,0,0:0:0:0:
64,192,137912,1,0,0:0:0:0:
320,192,137912,1,0,0:0:0:0:
192,192,138080,1,0,0:0:0:0:
448,192,138080,1,0,0:0:0:0:
192,192,138248,1,0,0:0:0:0:
320,192,138248,1,0,0:0:0:0:
64,192,138415,1,0,0:0:0:0:
448,192,138415,1,0,0:0:0:0:
192,192,138499,1,0,0:0:0:0:
64,192,138583,1,0,0:0:0:0:
448,192,138750,1,0,0:0:0:0:
320,192,138834,1,0,0:0:0:0:
448,192,138918,1,0,0:0:0:0:
192,192,139086,1,0,0:0:0:0:
320,192,139169,1,0,0:0:0:0:
64,192,139253,1,0,0:0:0:0:
192,192,139253,1,0,0:0:0:0:
192,192,139421,1,0,0:0:0:0:
448,192,139421,1,0,0:0:0:0:
64,192,139588,1,0,0:0:0:0:
320,192,139588,1,0,0:0:0:0:
320,192,139756,1,0,0:0:0:0:
448,192,139756,1,0,0:0:0:0:
192,192,139812,1,0,0:0:0:0:
64,192,139868,1,0,0:0:0:0:
448,192,139924,1,0,0:0:0:0:
320,192,140035,1,0,0:0:0:0:
192,192,140147,1,0,0:0:0:0:
64,192,140259,1,0,0:0:0:0:
448,192,140371,1,0,0:0:0:0:
320,192,140482,1,0,0:0:0:0:
64,192,140594,1,0,0:0:0:0:
192,192,140594,1,0,0:0:0:0:
320,192,140678,1,0,0:0:0:0:
192,192,140762,1,0,0:0:0:0:
448,192,140762,1,0,0:0:0:0:
64,192,140845,1,0,0:0:0:0:
320,192,140929,1,0,0:0:0:0:
448,192,140929,1,0,0:0:0:0:
192,192,141013,1,0,0:0:0:0:
320,192,141097,1,0,0:0:0:0:
448,192,141097,1,0,0:0:0:0:
192,192,141153,1,0,0:0:0:0:
64,192,141209,1,0,0:0:0:0:
448,192,141264,1,0,0:0:0:0:
320,192,141320,1,0,0:0:0:0:
192,192,141376,1,0,0:0:0:0:
320,192,141432,1,0,0:0:0:0:
448,192,141432,1,0,0:0:0:0:
64,192,141516,1,0,0:0:0:0:
192,192,141600,1,0,0:0:0:0:
448,192,141600,1,0,0:0:0:0:
64,192,141683,1,0,0:0:0:0:
192,192,141767,1,0,0:0:0:0:
320,192,141767,1,0,0:0:0:0:
448,192,141851,1,0,0:0:0:0:
64,192,141935,1,0,0:0:0:0:
320,192,142019,1,0,0:0:0:0:
192,192,142102,1,0,0:0:0:0:
448,192,142102,1,0,0:0:0:0:
64,192,142186,1,0,0:0:0:0:
320,192,142270,1,0,0:0:0:0:
448,192,142270,1,0,0:0:0:0:
192,192,142354,1,0,0:0:0:0:
64,192,142438,1,0,0:0:0:0:
448,192,142438,1,0,0:0:0:0:
320,192,142521,1,0,0:0:0:0:
192,192,142605,1,0,0:0:0:0:
64,192,142689,1,0,0:0:0:0:
320,192,142773,1,0,0:0:0:0:
448,192,142773,1,0,0:0:0:0:
192,192,142857,1,0,0:0:0:0:
64,192,142940,1,0,0:0:0:0:
320,192,143024,1,0,0:0:0:0:
64,192,143108,1,0,0:0:0:0:
192,192,143108,1,0,0:0:0:0:
448,192,143108,1,0,0:0:0:0:
192,192,143443,1,0,0:0:0:0:
320,192,143443,1,0,0:0:0:0:
448,192,143443,1,0,0:0:0:0:
64,192,143778,1,0,0:0:0:0:
320,192,143778,1,0,0:0:0:0:
448,192,143778,1,0,0:0:0:0:
192,192,143946,1,0,0:0:0:0:
64,192,144114,1,0,0:0:0:0:
192,192,144114,1,0,0:0:0:0:
320,192,144114,1,0,0:0:0:0:
320,192,144281,1,0,0:0:0:0:
64,192,144365,1,0,0:0:0:0:
192,192,144449,1,0,0:0:0:0:
320,192,144449,1,0,0:0:0:0:
448,192,144449,1,0,0:0:0:0:
64,192,144533,1,0,0:0:0:0:
320,192,144616,1,0,0:0:0:0:
448,192,144616,1,0,0:0:0:0:
192,192,144700,1,0,0:0:0:0:
64,192,144784,1,0,0:0:0:0:
320,192,144784,1,0,0:0:0:0:
448,192,144868,1,0,0:0:0:0:
64,192,144952,1,0,0:0:0:0:
192,192,144952,1,0,0:0:0:0:
448,192,145035,1,0,0:0:0:0:
64,192,145119,1,0,0:0:0:0:
320,192,145119,1,0,0:0:0:0:
192,192,145203,1,0,0:0:0:0:
320,192,145287,1,0,0:0:0:0:
448,192,145287,1,0,0:0:0:0:
64,192,145371,1,0,0:0:0:0:
192,192,145454,1,0,0:0:0:0:
448,192,145454,1,0,0:0:0:0:
320,192,145538,1,0,0:0:0:0:
64,192,145622,1,0,0:0:0:0:
192,192,145622,1,0,0:0:0:0:
448,192,145706,1,0,0:0:0:0:
64,192,145790,1,0,0:0:0:0:
320,192,145790,1,0,0:0:0:0:
448,192,145873,1,0,0:0:0:0:
64,192,145957,1,0,0:0:0:0:
192,192,145957,1,0,0:0:0:0:
320,192,146041,1,0,0:0:0:0:
64,192,146125,1,0,0:0:0:0:
448,192,146125,1,0,0:0:0:0:
192,192,146209,1,0,0:0:0:0:
320,192,146292,1,0,0:0:0:0:
448,192,146292,1,0,0:0:0:0:
192,192,146376,1,0,0:0:0:0:
64,192,146460,1,0,0:0:0:0:
320,192,146460,1,0,0:0:0:0:
448,192,146516,1,0,0:0:0:0:
64,192,146572,1,0,0:0:0:0:
192,192,146628,1,0,0:0:0:0:
320,192,146683,1,0,0:0:0:0:
448,192,146739,1,0,0:0:0:0:
64,192,146795,1,0,0:0:0:0:
192,192,146795,1,0,0:0:0:0:
320,192,146879,1,0,0:0:0:0:
64,192,146963,1,0,0:0:0:0:
448,192,147047,1,0,0:0:0:0:
64,192,147130,1,0,0:0:0:0:
192,192,147130,1,0,0:0:0:0:
320,192,147214,1,0,0:0:0:0:
448,192,147298,1,0,0:0:0:0:
64,192,147382,1,0,0:0:0:0:
320,192,147466,1,0,0:0:0:0:
448,192,147466,1,0,0:0:0:0:
192,192,147549,1,0,0:0:0:0:
64,192,147633,1,0,0:0:0:0:
320,192,147633,1,0,0:0:0:0:
448,192,147717,1,0,0:0:0:0:
64,192,147801,1,0,0:0:0:0:
192,192,147801,1,0,0:0:0:0:
320,192,147885,1,0,0:0:0:0:
448,192,147968,1,0,0:0:0:0:
64,192,148052,1,0,0:0:0:0:
320,192,148136,1,0,0:0:0:0:
192,192,148220,1,0,0:0:0:0:
448,192,148304,1,0,0:0:0:0:
320,192,148387,1,0,0:0:0:0:
64,192,148471,1,0,0:0:0:0:
192,192,148471,1,0,0:0:0:0:
448,192,148527,1,0,0:0:0:0:
192,192,148583,1,0,0:0:0:0:
320,192,148639,1,0,0:0:0:0:
64,192,148695,1,0,0:0:0:0:
448,192,148750,1,0,0:0:0:0:
64,192,148806,1,0,0:0:0:0:
192,192,148806,1,0,0:0:0:0:
320,192,148862,1,0,0:0:0:0:
448,192,148918,1,0,0:0:0:0:
64,192,148974,1,0,0:0:0:0:
320,192,149030,1,0,0:0:0:0:
192,192,149086,1,0,0:0:0:0:
320,192,149142,1,0,0:0:0:0:
448,192,149142,1,0,0:0:0:0:
64,192,149197,1,0,0:0:0:0:
448,192,149253,1,0,0:0:0:0:
192,192,149309,1,0,0:0:0:0:
320,192,149365,1,0,0:0:0:0:
64,192,149421,1,0,0:0:0:0:
320,192,149477,1,0,0:0:0:0:
448,192,149477,1,0,0:0:0:0:
192,192,149533,1,0,0:0:0:0:
64,192,149588,1,0,0:0:0:0:
320,192,149644,1,0,0:0:0:0:
448,192,149644,1,0,0:0:0:0:
192,192,149812,1,0,0:0:0:0:
320,192,149812,1,0,0:0:0:0:
448,192,149812,1,0,0:0:0:0:
64,192,149980,1,0,0:0:0:0:
448,192,149980,1,0,0:0:0:0:
320,192,150147,1,0,0:0:0:0:
448,192,150147,1,0,0:0:0:0:
64,192,150315,1,0,0:0:0:0:
192,192,150315,1,0,0:0:0:0:
64,192,150482,1,0,0:0:0:0:
320,192,150482,1,0,0:0:0:0:
64,192,150734,1,0,0:0:0:0:
192,192,150734,1,0,0:0:0:0:
64,192,150818,1,0,0:0:0:0:
448,192,150818,1,0,0:0:0:0:
192,192,150985,1,0,0:0:0:0:
320,192,150985,1,0,0:0:0:0:
320,192,151153,1,0,0:0:0:0:
448,192,151153,1,0,0:0:0:0:
320,192,151236,1,0,0:0:0:0:
64,192,151320,1,0,0:0:0:0:
192,192,151362,1,0,0:0:0:0:
320,192,151404,1,0,0:0:0:0:
448,192,151446,1,0,0:0:0:0:
64,192,151488,1,0,0:0:0:0:
192,192,151530,1,0,0:0:0:0:
448,192,151572,1,0,0:0:0:0:
320,192,151614,1,0,0:0:0:0:
64,192,151655,1,0,0:0:0:0:
448,192,151697,1,0,0:0:0:0:
320,192,151739,1,0,0:0:0:0:
192,192,151781,1,0,0:0:0:0:
64,192,151823,1,0,0:0:0:0:
448,192,151865,1,0,0:0:0:0:
192,192,151907,1,0,0:0:0:0:
320,192,151949,1,0,0:0:0:0:
448,192,151991,1,0,0:0:0:0:
64,192,152033,1,0,0:0:0:0:
192,192,152074,1,0,0:0:0:0:
320,192,152116,1,0,0:0:0:0:
448,192,152158,1,0,0:0:0:0:
64,192,152200,1,0,0:0:0:0:
192,192,152242,1,0,0:0:0:0:
448,192,152284,1,0,0:0:0:0:
320,192,152326,1,0,0:0:0:0:
64,192,152368,1,0,0:0:0:0:
192,192,152410,1,0,0:0:0:0:
448,192,152452,1,0,0:0:0:0:
64,192,152493,1,0,0:0:0:0:
192,192,152535,1,0,0:0:0:0:
320,192,152577,1,0,0:0:0:0:
448,192,152619,1,0,0:0:0:0:
64,192,152661,1,0,0:0:0:0:
192,192,152703,1,0,0:0:0:0:
320,192,152745,1,0,0:0:0:0:
448,192,152787,1,0,0:0:0:0:
192,192,152829,1,0,0:0:0:0:
320,192,152871,1,0,0:0:0:0:
192,192,152912,1,0,0:0:0:0:
64,192,152954,1,0,0:0:0:0:
448,192,152996,1,0,0:0:0:0:
320,192,153038,1,0,0:0:0:0:
192,192,153080,1,0,0:0:0:0:
64,192,153122,1,0,0:0:0:0:
448,192,153164,1,0,0:0:0:0:
320,192,153206,1,0,0:0:0:0:
192,192,153248,1,0,0:0:0:0:
448,192,153290,1,0,0:0:0:0:
64,192,153331,1,0,0:0:0:0:
192,192,153373,1,0,0:0:0:0:
320,192,153415,1,0,0:0:0:0:
448,192,153457,1,0,0:0:0:0:
64,192,153499,1,0,0:0:0:0:
192,192,153541,1,0,0:0:0:0:
320,192,153583,1,0,0:0:0:0:
64,192,153625,1,0,0:0:0:0:
192,192,153667,1,0,0:0:0:0:
448,192,153709,1,0,0:0:0:0:
320,192,153750,1,0,0:0:0:0:
192,192,153792,1,0,0:0:0:0:
448,192,153834,1,0,0:0:0:0:
64,192,153876,1,0,0:0:0:0:
320,192,153918,1,0,0:0:0:0:
448,192,153960,1,0,0:0:0:0:
64,192,154002,1,0,0:0:0:0:
192,192,154044,1,0,0:0:0:0:
320,192,154086,1,0,0:0:0:0:
448,192,154128,1,0,0:0:0:0:
64,192,154169,1,0,0:0:0:0:
192,192,154211,1,0,0:0:0:0:
320,192,154253,1,0,0:0:0:0:
448,192,154295,1,0,0:0:0:0:
64,192,154337,1,0,0:0:0:0:
320,192,154379,1,0,0:0:0:0:
192,192,154421,1,0,0:0:0:0:
64,192,154463,1,0,0:0:0:0:
448,192,154505,1,0,0:0:0:0:
320,192,154547,1,0,0:0:0:0:
64,192,154588,1,0,0:0:0:0:
448,192,154630,1,0,0:0:0:0:
320,192,154672,1,0,0:0:0:0:
192,192,154714,1,0,0:0:0:0:
64,192,154756,1,0,0:0:0:0:
448,192,154798,1,0,0:0:0:0:
192,192,154840,1,0,0:0:0:0:
320,192,154882,1,0,0:0:0:0:
192,192,154924,1,0,0:0:0:0:
64,192,154966,1,0,0:0:0:0:
448,192,155007,1,0,0:0:0:0:
192,192,155049,1,0,0:0:0:0:
320,192,155091,1,0,0:0:0:0:
64,192,155133,1,0,0:0:0:0:
448,192,155175,1,0,0:0:0:0:
320,192,155217,1,0,0:0:0:0:
192,192,155259,1,0,0:0:0:0:
448,192,155301,1,0,0:0:0:0:
64,192,155343,1,0,0:0:0:0:
192,192,155385,1,0,0:0:0:0:
320,192,155426,1,0,0:0:0:0:
64,192,155468,1,0,0:0:0:0:
192,192,155510,1,0,0:0:0:0:
448,192,155552,1,0,0:0:0:0:
192,192,155594,1,0,0:0:0:0:
320,192,155636,1,0,0:0:0:0:
448,192,155678,1,0,0:0:0:0:
64,192,155720,1,0,0:0:0:0:
320,192,155762,1,0,0:0:0:0:
448,192,155804,1,0,0:0:0:0:
192,192,155845,1,0,0:0:0:0:
320,192,155887,1,0,0:0:0:0:
448,192,155929,1,0,0:0:0:0:
64,192,155971,1,0,0:0:0:0:
192,192,156013,1,0,0:0:0:0:
448,192,156055,1,0,0:0:0:0:
64,192,156097,1,0,0:0:0:0:
192,192,156139,1,0,0:0:0:0:
320,192,156181,1,0,0:0:0:0:
64,192,156223,1,0,0:0:0:0:
320,192,156264,1,0,0:0:0:0:
448,192,156306,1,0,0:0:0:0:
64,192,156348,1,0,0:0:0:0:
192,192,156390,1,0,0:0:0:0:
448,192,156432,1,0,0:0:0:0:
64,192,156474,1,0,0:0:0:0:
192,192,156516,1,0,0:0:0:0:
320,192,156558,1,0,0:0:0:0:
64,192,156600,1,0,0:0:0:0:
192,192,156642,1,0,0:0:0:0:
320,192,156683,1,0,0:0:0:0:
448,192,156683,1,0,0:0:0:0:
64,192,156725,1,0,0:0:0:0:
192,192,156767,1,0,0:0:0:0:
320,192,156809,1,0,0:0:0:0:
448,192,156851,1,0,0:0:0:0:
192,192,156893,1,0,0:0:0:0:
320,192,156935,1,0,0:0:0:0:
64,192,156977,1,0,0:0:0:0:
192,192,157019,1,0,0:0:0:0:
448,192,157061,1,0,0:0:0:0:
320,192,157102,1,0,0:0:0:0:
192,192,157144,1,0,0:0:0:0:
448,192,157186,1,0,0:0:0:0:
64,192,157228,1,0,0:0:0:0:
192,192,157270,1,0,0:0:0:0:
320,192,157312,1,0,0:0:0:0:
448,192,157354,1,0,0:0:0:0:
64,192,157396,1,0,0:0:0:0:
192,192,157438,1,0,0:0:0:0:
448,192,157480,1,0,0:0:0:0:
320,192,157521,1,0,0:0:0:0:
64,192,157563,1,0,0:0:0:0:
192,192,157605,1,0,0:0:0:0:
448,192,157647,1,0,0:0:0:0:
320,192,157689,1,0,0:0:0:0:
64,192,157731,1,0,0:0:0:0:
448,192,157773,1,0,0:0:0:0:
320,192,157815,1,0,0:0:0:0:
192,192,157857,1,0,0:0:0:0:
448,192,157899,1,0,0:0:0:0:
320,192,157940,1,0,0:0:0:0:
192,192,157982,1,0,0:0:0:0:
64,192,158024,1,0,0:0:0:0:
448,192,158066,1,0,0:0:0:0:
192,192,158108,1,0,0:0:0:0:
64,192,158150,1,0,0:0:0:0:
320,192,158192,1,0,0:0:0:0:
448,192,158234,1,0,0:0:0:0:
320,192,158276,1,0,0:0:0:0:
192,192,158318,1,0,0:0:0:0:
64,192,158359,1,0,0:0:0:0:
320,192,158401,1,0,0:0:0:0:
448,192,158443,1,0,0:0:0:0:
64,192,158485,1,0,0:0:0:0:
192,192,158527,1,0,0:0:0:0:
448,192,158569,1,0,0:0:0:0:
64,192,158611,1,0,0:0:0:0:
192,192,158653,1,0,0:0:0:0:
320,192,158695,1,0,0:0:0:0:
448,192,158736,1,0,0:0:0:0:
64,192,158778,1,0,0:0:0:0:
320,192,158820,1,0,0:0:0:0:
192,192,158862,1,0,0:0:0:0:
448,192,158904,1,0,0:0:0:0:
320,192,158946,1,0,0:0:0:0:
64,192,158988,1,0,0:0:0:0:
448,192,159030,1,0,0:0:0:0:
320,192,159072,1,0,0:0:0:0:
192,192,159114,1,0,0:0:0:0:
448,192,159155,1,0,0:0:0:0:
64,192,159197,1,0,0:0:0:0:
192,192,159239,1,0,0:0:0:0:
320,192,159281,1,0,0:0:0:0:
448,192,159323,1,0,0:0:0:0:
64,192,159365,1,0,0:0:0:0:
320,192,159407,1,0,0:0:0:0:
192,192,159449,1,0,0:0:0:0:
448,192,159491,1,0,0:0:0:0:
64,192,159533,1,0,0:0:0:0:
192,192,159574,1,0,0:0:0:0:
320,192,159616,1,0,0:0:0:0:
448,192,159658,1,0,0:0:0:0:
64,192,159700,1,0,0:0:0:0:
192,192,159742,1,0,0:0:0:0:
448,192,159784,1,0,0:0:0:0:
64,192,159826,1,0,0:0:0:0:
320,192,159868,1,0,0:0:0:0:
192,192,159910,1,0,0:0:0:0:
448,192,159952,1,0,0:0:0:0:
320,192,159993,1,0,0:0:0:0:
64,192,160035,1,0,0:0:0:0:
192,192,160077,1,0,0:0:0:0:
448,192,160119,1,0,0:0:0:0:
64,192,160161,1,0,0:0:0:0:
192,192,160203,1,0,0:0:0:0:
320,192,160245,1,0,0:0:0:0:
64,192,160287,1,0,0:0:0:0:
448,192,160329,1,0,0:0:0:0:
320,192,160371,1,0,0:0:0:0:
192,192,160412,1,0,0:0:0:0:
64,192,160454,1,0,0:0:0:0:
448,192,160496,1,0,0:0:0:0:
192,192,160538,1,0,0:0:0:0:
320,192,160580,1,0,0:0:0:0:
64,192,160622,1,0,0:0:0:0:
192,192,160664,1,0,0:0:0:0:
448,192,160706,1,0,0:0:0:0:
320,192,160748,1,0,0:0:0:0:
192,192,160790,1,0,0:0:0:0:
64,192,160831,1,0,0:0:0:0:
448,192,160873,1,0,0:0:0:0:
192,192,160915,1,0,0:0:0:0:
320,192,160957,1,0,0:0:0:0:
448,192,160999,1,0,0:0:0:0:
64,192,161041,1,0,0:0:0:0:
192,192,161083,1,0,0:0:0:0:
320,192,161125,1,0,0:0:0:0:
448,192,161167,1,0,0:0:0:0:
192,192,161209,1,0,0:0:0:0:
64,192,161250,1,0,0:0:0:0:
320,192,161292,1,0,0:0:0:0:
192,192,161334,1,0,0:0:0:0:
448,192,161376,1,0,0:0:0:0:
320,192,161418,1,0,0:0:0:0:
192,192,161460,1,0,0:0:0:0:
64,192,161502,1,0,0:0:0:0:
448,192,161544,1,0,0:0:0:0:
320,192,161600,1,0,0:0:0:0:
192,192,161655,1,0,0:0:0:0:
448,192,161711,1,0,0:0:0:0:
320,192,161767,1,0,0:0:0:0:
64,192,161823,1,0,0:0:0:0:
320,192,161879,1,0,0:0:0:0:
192,192,161935,1,0,0:0:0:0:
64,192,161991,1,0,0:0:0:0:
448,192,162047,1,0,0:0:0:0:
320,192,162088,1,0,0:0:0:0:
192,192,162130,1,0,0:0:0:0:
64,192,162172,1,0,0:0:0:0:
448,192,162214,1,0,0:0:0:0:
320,192,162256,1,0,0:0:0:0:
64,192,162298,1,0,0:0:0:0:
192,192,162340,1,0,0:0:0:0:
448,192,162382,1,0,0:0:0:0:
64,192,162424,1,0,0:0:0:0:
192,192,162466,1,0,0:0:0:0:
320,192,162507,1,0,0:0:0:0:
448,192,162549,1,0,0:0:0:0:
64,192,162591,1,0,0:0:0:0:
320,192,162633,1,0,0:0:0:0:
192,192,162675,1,0,0:0:0:0:
64,192,162717,1,0,0:0:0:0:
448,192,162759,1,0,0:0:0:0:
320,192,162801,1,0,0:0:0:0:
192,192,162843,1,0,0:0:0:0:
64,192,162885,1,0,0:0:0:0:
448,192,162926,1,0,0:0:0:0:
320,192,162968,1,0,0:0:0:0:
64,192,163010,1,0,0:0:0:0:
192,192,163052,1,0,0:0:0:0:
448,192,163094,1,0,0:0:0:0:
320,192,163136,1,0,0:0:0:0:
64,192,163178,1,0,0:0:0:0:
448,192,163220,1,0,0:0:0:0:
320,192,163262,1,0,0:0:0:0:
192,192,163304,1,0,0:0:0:0:
64,192,163345,1,0,0:0:0:0:
448,192,163387,1,0,0:0:0:0:
320,192,163429,1,0,0:0:0:0:
192,192,163471,1,0,0:0:0:0:
64,192,163513,1,0,0:0:0:0:
320,192,163555,1,0,0:0:0:0:
192,192,163597,1,0,0:0:0:0:
320,192,163639,1,0,0:0:0:0:
448,192,163681,1,0,0:0:0:0:
64,192,163723,1,0,0:0:0:0:
192,192,163764,1,0,0:0:0:0:
320,192,163806,1,0,0:0:0:0:
448,192,163848,1,0,0:0:0:0:
64,192,163890,1,0,0:0:0:0:
192,192,163932,1,0,0:0:0:0:
320,192,163974,1,0,0:0:0:0:
64,192,164016,1,0,0:0:0:0:
448,192,164058,1,0,0:0:0:0:
320,192,164100,1,0,0:0:0:0:
192,192,164142,1,0,0:0:0:0:
64,192,164183,1,0,0:0:0:0:
448,192,164225,1,0,0:0:0:0:
320,192,164267,1,0,0:0:0:0:
192,192,164309,1,0,0:0:0:0:
448,192,164351,1,0,0:0:0:0:
320,192,164393,1,0,0:0:0:0:
64,192,164435,1,0,0:0:0:0:
192,192,164477,1,0,0:0:0:0:
320,192,164519,1,0,0:0:0:0:
64,192,164561,1,0,0:0:0:0:
448,192,164602,1,0,0:0:0:0:
192,192,164644,1,0,0:0:0:0:
64,192,164686,1,0,0:0:0:0:
448,192,164728,1,0,0:0:0:0:
320,192,164770,1,0,0:0:0:0:
192,192,164812,1,0,0:0:0:0:
64,192,164854,1,0,0:0:0:0:
448,192,164896,1,0,0:0:0:0:
320,192,164938,1,0,0:0:0:0:
192,192,164980,1,0,0:0:0:0:
64,192,165021,1,0,0:0:0:0:
448,192,165063,1,0,0:0:0:0:
192,192,165105,1,0,0:0:0:0:
320,192,165147,1,0,0:0:0:0:
448,192,165189,1,0,0:0:0:0:
64,192,165231,1,0,0:0:0:0:
192,192,165273,1,0,0:0:0:0:
448,192,165315,1,0,0:0:0:0:
64,192,165357,1,0,0:0:0:0:
192,192,165399,1,0,0:0:0:0:
320,192,165440,1,0,0:0:0:0:
448,192,165482,1,0,0:0:0:0:
64,192,165524,1,0,0:0:0:0:
320,192,165566,1,0,0:0:0:0:
192,192,165608,1,0,0:0:0:0:
320,192,165650,1,0,0:0:0:0:
448,192,165692,1,0,0:0:0:0:
64,192,165734,1,0,0:0:0:0:
320,192,165776,1,0,0:0:0:0:
192,192,165818,1,0,0:0:0:0:
448,192,165859,1,0,0:0:0:0:
64,192,165901,1,0,0:0:0:0:
192,192,165943,1,0,0:0:0:0:
320,192,165985,1,0,0:0:0:0:
64,192,166027,1,0,0:0:0:0:
448,192,166069,1,0,0:0:0:0:
320,192,166111,1,0,0:0:0:0:
192,192,166153,1,0,0:0:0:0:
448,192,166195,1,0,0:0:0:0:
320,192,166236,1,0,0:0:0:0:
64,192,166278,1,0,0:0:0:0:
320,192,166320,1,0,0:0:0:0:
192,192,166362,1,0,0:0:0:0:
64,192,166404,1,0,0:0:0:0:
448,192,166446,1,0,0:0:0:0:
192,192,166488,1,0,0:0:0:0:
64,192,166530,1,0,0:0:0:0:
320,192,166572,1,0,0:0:0:0:
192,192,166614,1,0,0:0:0:0:
64,192,166655,1,0,0:0:0:0:
448,192,166697,1,0,0:0:0:0:
320,192,166739,1,0,0:0:0:0:
64,192,166781,1,0,0:0:0:0:
448,192,166823,1,0,0:0:0:0:
320,192,166865,1,0,0:0:0:0:
192,192,166907,1,0,0:0:0:0:
448,192,166949,1,0,0:0:0:0:
192,192,166991,1,0,0:0:0:0:
64,192,167033,1,0,0:0:0:0:
448,192,167074,1,0,0:0:0:0:
320,192,167116,1,0,0:0:0:0:
64,192,167158,1,0,0:0:0:0:
448,192,167200,1,0,0:0:0:0:
320,192,167242,1,0,0:0:0:0:
192,192,167284,1,0,0:0:0:0:
448,192,167326,1,0,0:0:0:0:
320,192,167368,1,0,0:0:0:0:
64,192,167410,1,0,0:0:0:0:
192,192,167410,1,0,0:0:0:0:
448,192,167452,1,0,0:0:0:0:
320,192,167493,1,0,0:0:0:0:
192,192,167535,1,0,0:0:0:0:
64,192,167577,1,0,0:0:0:0:
320,192,167619,1,0,0:0:0:0:
192,192,167661,1,0,0:0:0:0:
448,192,167703,1,0,0:0:0:0:
320,192,167745,1,0,0:0:0:0:
64,192,167787,1,0,0:0:0:0:
192,192,167829,1,0,0:0:0:0:
320,192,167871,1,0,0:0:0:0:
64,192,167912,1,0,0:0:0:0:
448,192,167954,1,0,0:0:0:0:
320,192,167996,1,0,0:0:0:0:
192,192,168038,1,0,0:0:0:0:
64,192,168080,1,0,0:0:0:0:
448,192,168122,1,0,0:0:0:0:
320,192,168164,1,0,0:0:0:0:
64,192,168206,1,0,0:0:0:0:
192,192,168248,1,0,0:0:0:0:
448,192,168290,1,0,0:0:0:0:
320,192,168331,1,0,0:0:0:0:
64,192,168373,1,0,0:0:0:0:
192,192,168415,1,0,0:0:0:0:
448,192,168457,1,0,0:0:0:0:
64,192,168499,1,0,0:0:0:0:
192,192,168541,1,0,0:0:0:0:
320,192,168583,1,0,0:0:0:0:
64,192,168625,1,0,0:0:0:0:
192,192,168667,1,0,0:0:0:0:
320,192,168709,1,0,0:0:0:0:
448,192,168750,1,0,0:0:0:0:
64,192,168792,1,0,0:0:0:0:
320,192,168834,1,0,0:0:0:0:
448,192,168876,1,0,0:0:0:0:
192,192,168918,1,0,0:0:0:0:
64,192,168960,1,0,0:0:0:0:
192,192,169002,1,0,0:0:0:0:
320,192,169044,1,0,0:0:0:0:
448,192,169086,1,0,0:0:0:0:
192,192,169128,1,0,0:0:0:0:
64,192,169169,1,0,0:0:0:0:
448,192,169211,1,0,0:0:0:0:
320,192,169253,1,0,0:0:0:0:
64,192,169295,1,0,0:0:0:0:
448,192,169337,1,0,0:0:0:0:
320,192,169379,1,0,0:0:0:0:
192,192,169421,1,0,0:0:0:0:
64,192,169463,1,0,0:0:0:0:
448,192,169505,1,0,0:0:0:0:
192,192,169547,1,0,0:0:0:0:
320,192,169588,1,0,0:0:0:0:
64,192,169630,1,0,0:0:0:0:
192,192,169672,1,0,0:0:0:0:
448,192,169714,1,0,0:0:0:0:
64,192,169756,1,0,0:0:0:0:
192,192,169798,1,0,0:0:0:0:
320,192,169840,1,0,0:0:0:0:
64,192,169882,1,0,0:0:0:0:
448,192,169924,1,0,0:0:0:0:
320,192,169966,1,0,0:0:0:0:
192,192,170007,1,0,0:0:0:0:
64,192,170049,1,0,0:0:0:0:
448,192,170091,1,0,0:0:0:0:
192,192,170133,1,0,0:0:0:0:
320,192,170175,1,0,0:0:0:0:
64,192,170217,1,0,0:0:0:0:
448,192,170259,1,0,0:0:0:0:
320,192,170301,1,0,0:0:0:0:
192,192,170343,1,0,0:0:0:0:
64,192,170385,1,0,0:0:0:0:
448,192,170426,1,0,0:0:0:0:
320,192,170468,1,0,0:0:0:0:
64,192,170510,1,0,0:0:0:0:
448,192,170552,1,0,0:0:0:0:
192,192,170594,1,0,0:0:0:0:
320,192,170636,1,0,0:0:0:0:
64,192,170678,1,0,0:0:0:0:
192,192,170720,1,0,0:0:0:0:
448,192,170762,1,0,0:0:0:0:
320,192,170804,1,0,0:0:0:0:
64,192,170845,1,0,0:0:0:0:
448,192,170887,1,0,0:0:0:0:
320,192,170929,1,0,0:0:0:0:
192,192,170971,1,0,0:0:0:0:
448,192,171013,1,0,0:0:0:0:
64,192,171055,1,0,0:0:0:0:
192,192,171097,1,0,0:0:0:0:
320,192,171139,1,0,0:0:0:0:
448,192,171181,1,0,0:0:0:0:
64,192,171223,1,0,0:0:0:0:
320,192,171264,1,0,0:0:0:0:
192,192,171306,1,0,0:0:0:0:
448,192,171348,1,0,0:0:0:0:
320,192,171390,1,0,0:0:0:0:
64,192,171432,1,0,0:0:0:0:
192,192,171474,1,0,0:0:0:0:
320,192,171516,1,0,0:0:0:0:
448,192,171558,1,0,0:0:0:0:
64,192,171600,1,0,0:0:0:0:
320,192,171642,1,0,0:0:0:0:
192,192,171683,1,0,0:0:0:0:
64,192,171725,1,0,0:0:0:0:
448,192,171767,1,0,0:0:0:0:
320,192,171809,1,0,0:0:0:0:
192,192,171851,1,0,0:0:0:0:
64,192,171893,1,0,0:0:0:0:
320,192,171935,1,0,0:0:0:0:
448,192,171977,1,0,0:0:0:0:
192,192,172019,1,0,0:0:0:0:
320,192,172061,1,0,0:0:0:0:
64,192,172102,1,0,0:0:0:0:
192,192,172144,1,0,0:0:0:0:
320,192,172186,1,0,0:0:0:0:
448,192,172228,1,0,0:0:0:0:
64,192,172270,1,0,0:0:0:0:
192,192,172326,1,0,0:0:0:0:
320,192,172382,1,0,0:0:0:0:
64,192,172438,1,0,0:0:0:0:
192,192,172438,1,0,0:0:0:0:
320,192,172521,1,0,0:0:0:0:
448,192,172521,1,0,0:0:0:0:
64,192,172605,1,0,0:0:0:0:
192,192,172605,1,0,0:0:0:0:
320,192,172689,1,0,0:0:0:0:
448,192,172689,1,0,0:0:0:0:
64,192,172773,1,0,0:0:0:0:
192,192,172773,1,0,0:0:0:0:
448,192,172815,1,0,0:0:0:0:
320,192,172857,1,0,0:0:0:0:
192,192,172899,1,0,0:0:0:0:
64,192,172940,1,0,0:0:0:0:
448,192,172982,1,0,0:0:0:0:
320,192,173024,1,0,0:0:0:0:
192,192,173066,1,0,0:0:0:0:
448,192,173108,1,0,0:0:0:0:
64,192,173150,1,0,0:0:0:0:
192,192,173192,1,0,0:0:0:0:
320,192,173234,1,0,0:0:0:0:
64,192,173276,1,0,0:0:0:0:
448,192,173318,1,0,0:0:0:0:
320,192,173359,1,0,0:0:0:0:
192,192,173401,1,0,0:0:0:0:
448,192,173443,1,0,0:0:0:0:
320,192,173485,1,0,0:0:0:0:
192,192,173527,1,0,0:0:0:0:
64,192,173569,1,0,0:0:0:0:
448,192,173611,1,0,0:0:0:0:
320,192,173653,1,0,0:0:0:0:
192,192,173695,1,0,0:0:0:0:
448,192,173736,1,0,0:0:0:0:
64,192,173778,1,0,0:0:0:0:
192,192,173820,1,0,0:0:0:0:
320,192,173862,1,0,0:0:0:0:
64,192,173904,1,0,0:0:0:0:
448,192,173946,1,0,0:0:0:0:
320,192,173988,1,0,0:0:0:0:
192,192,174030,1,0,0:0:0:0:
448,192,174072,1,0,0:0:0:0:
320,192,174114,1,0,0:0:0:0:
192,192,174155,1,0,0:0:0:0:
64,192,174197,1,0,0:0:0:0:
448,192,174239,1,0,0:0:0:0:
320,192,174281,1,0,0:0:0:0:
192,192,174323,1,0,0:0:0:0:
448,192,174365,1,0,0:0:0:0:
64,192,174407,1,0,0:0:0:0:
192,192,174449,1,0,0:0:0:0:
320,192,174491,1,0,0:0:0:0:
448,192,174533,1,0,0:0:0:0:
64,192,174574,1,0,0:0:0:0:
320,192,174616,1,0,0:0:0:0:
192,192,174658,1,0,0:0:0:0:
64,192,174700,1,0,0:0:0:0:
448,192,174742,1,0,0:0:0:0:
192,192,174784,1,0,0:0:0:0:
320,192,174826,1,0,0:0:0:0:
64,192,174868,1,0,0:0:0:0:
448,192,174910,1,0,0:0:0:0:
320,192,174952,1,0,0:0:0:0:
192,192,174993,1,0,0:0:0:0:
64,192,175035,1,0,0:0:0:0:
320,192,175077,1,0,0:0:0:0:
448,192,175119,1,0,0:0:0:0:
192,192,175161,1,0,0:0:0:0:
320,192,175203,1,0,0:0:0:0:
64,192,175245,1,0,0:0:0:0:
192,192,175287,1,0,0:0:0:0:
320,192,175329,1,0,0:0:0:0:
448,192,175371,1,0,0:0:0:0:
64,192,175412,1,0,0:0:0:0:
320,192,175454,1,0,0:0:0:0:
192,192,175496,1,0,0:0:0:0:
448,192,175538,1,0,0:0:0:0:
64,192,175580,1,0,0:0:0:0:
192,192,175622,1,0,0:0:0:0:
320,192,175664,1,0,0:0:0:0:
448,192,175706,1,0,0:0:0:0:
192,192,175748,1,0,0:0:0:0:
64,192,175790,1,0,0:0:0:0:
320,192,175831,1,0,0:0:0:0:
192,192,175873,1,0,0:0:0:0:
448,192,175915,1,0,0:0:0:0:
320,192,175957,1,0,0:0:0:0:
192,192,175999,1,0,0:0:0:0:
64,192,176041,1,0,0:0:0:0:
448,192,176083,1,0,0:0:0:0:
192,192,176125,1,0,0:0:0:0:
320,192,176167,1,0,0:0:0:0:
64,192,176209,1,0,0:0:0:0:
448,192,176250,1,0,0:0:0:0:
320,192,176292,1,0,0:0:0:0:
192,192,176334,1,0,0:0:0:0:
64,192,176376,1,0,0:0:0:0:
320,192,176418,1,0,0:0:0:0:
448,192,176460,1,0,0:0:0:0:
192,192,176502,1,0,0:0:0:0:
320,192,176544,1,0,0:0:0:0:
64,192,176586,1,0,0:0:0:0:
192,192,176628,1,0,0:0:0:0:
320,192,176669,1,0,0:0:0:0:
448,192,176711,1,0,0:0:0:0:
64,192,176753,1,0,0:0:0:0:
320,192,176795,1,0,0:0:0:0:
192,192,176837,1,0,0:0:0:0:
64,192,176879,1,0,0:0:0:0:
448,192,176921,1,0,0:0:0:0:
320,192,176963,1,0,0:0:0:0:
64,192,177005,1,0,0:0:0:0:
448,192,177047,1,0,0:0:0:0:
320,192,177088,1,0,0:0:0:0:
192,192,177130,1,0,0:0:0:0:
448,192,177172,1,0,0:0:0:0:
192,192,177214,1,0,0:0:0:0:
64,192,177256,1,0,0:0:0:0:
320,192,177298,1,0,0:0:0:0:
192,192,177340,1,0,0:0:0:0:
64,192,177382,1,0,0:0:0:0:
448,192,177424,1,0,0:0:0:0:
320,192,177466,1,0,0:0:0:0:
192,192,177507,1,0,0:0:0:0:
320,192,177549,1,0,0:0:0:0:
192,192,177591,1,0,0:0:0:0:
64,192,177633,1,0,0:0:0:0:
448,192,177675,1,0,0:0:0:0:
192,192,177759,1,0,0:0:0:0:
64,192,177801,1,0,0:0:0:0:
448,192,177843,1,0,0:0:0:0:
320,192,177885,1,0,0:0:0:0:
192,192,177926,1,0,0:0:0:0:
448,192,177968,1,0,0:0:0:0:
64,192,178010,1,0,0:0:0:0:
192,192,178052,1,0,0:0:0:0:
320,192,178094,1,0,0:0:0:0:
64,192,178136,1,0,0:0:0:0:
192,192,178136,1,0,0:0:0:0:
448,192,178178,1,0,0:0:0:0:
320,192,178220,1,0,0:0:0:0:
192,192,178262,1,0,0:0:0:0:
64,192,178304,1,0,0:0:0:0:
448,192,178345,1,0,0:0:0:0:
320,192,178387,1,0,0:0:0:0:
192,192,178429,1,0,0:0:0:0:
448,192,178471,1,0,0:0:0:0:
64,192,178513,1,0,0:0:0:0:
192,192,178555,1,0,0:0:0:0:
320,192,178597,1,0,0:0:0:0:
64,192,178639,1,0,0:0:0:0:
448,192,178681,1,0,0:0:0:0:
320,192,178723,1,0,0:0:0:0:
192,192,178764,1,0,0:0:0:0:
448,192,178806,1,0,0:0:0:0:
320,192,178848,1,0,0:0:0:0:
192,192,178890,1,0,0:0:0:0:
64,192,178932,1,0,0:0:0:0:
448,192,178974,1,0,0:0:0:0:
320,192,179016,1,0,0:0:0:0:
192,192,179058,1,0,0:0:0:0:
448,192,179100,1,0,0:0:0:0:
64,192,179142,1,0,0:0:0:0:
192,192,179183,1,0,0:0:0:0:
320,192,179225,1,0,0:0:0:0:
64,192,179267,1,0,0:0:0:0:
448,192,179309,1,0,0:0:0:0:
320,192,179351,1,0,0:0:0:0:
192,192,179393,1,0,0:0:0:0:
448,192,179435,1,0,0:0:0:0:
320,192,179477,1,0,0:0:0:0:
192,192,179519,1,0,0:0:0:0:
64,192,179561,1,0,0:0:0:0:
448,192,179602,1,0,0:0:0:0:
320,192,179644,1,0,0:0:0:0:
192,192,179686,1,0,0:0:0:0:
448,192,179728,1,0,0:0:0:0:
64,192,179770,1,0,0:0:0:0:
192,192,179812,1,0,0:0:0:0:
320,192,179854,1,0,0:0:0:0:
448,192,179896,1,0,0:0:0:0:
64,192,179938,1,0,0:0:0:0:
320,192,179980,1,0,0:0:0:0:
192,192,180021,1,0,0:0:0:0:
64,192,180063,1,0,0:0:0:0:
448,192,180105,1,0,0:0:0:0:
192,192,180147,1,0,0:0:0:0:
320,192,180189,1,0,0:0:0:0:
64,192,180231,1,0,0:0:0:0:
448,192,180273,1,0,0:0:0:0:
320,192,180315,1,0,0:0:0:0:
192,192,180357,1,0,0:0:0:0:
64,192,180399,1,0,0:0:0:0:
320,192,180440,1,0,0:0:0:0:
448,192,180482,1,0,0:0:0:0:
192,192,180524,1,0,0:0:0:0:
320,192,180566,1,0,0:0:0:0:
64,192,180608,1,0,0:0:0:0:
192,192,180650,1,0,0:0:0:0:
320,192,180692,1,0,0:0:0:0:
448,192,180734,1,0,0:0:0:0:
64,192,180776,1,0,0:0:0:0:
320,192,180818,1,0,0:0:0:0:
192,192,180859,1,0,0:0:0:0:
448,192,180901,1,0,0:0:0:0:
64,192,180943,1,0,0:0:0:0:
192,192,180985,1,0,0:0:0:0:
320,192,181027,1,0,0:0:0:0:
448,192,181069,1,0,0:0:0:0:
192,192,181111,1,0,0:0:0:0:
64,192,181153,1,0,0:0:0:0:
320,192,181195,1,0,0:0:0:0:
192,192,181236,1,0,0:0:0:0:
448,192,181278,1,0,0:0:0:0:
320,192,181320,1,0,0:0:0:0:
192,192,181362,1,0,0:0:0:0:
64,192,181404,1,0,0:0:0:0:
448,192,181446,1,0,0:0:0:0:
192,192,181488,1,0,0:0:0:0:
320,192,181530,1,0,0:0:0:0:
64,192,181572,1,0,0:0:0:0:
448,192,181614,1,0,0:0:0:0:
320,192,181655,1,0,0:0:0:0:
192,192,181697,1,0,0:0:0:0:
64,192,181739,1,0,0:0:0:0:
320,192,181781,1,0,0:0:0:0:
448,192,181823,1,0,0:0:0:0:
192,192,181865,1,0,0:0:0:0:
320,192,181907,1,0,0:0:0:0:
64,192,181949,1,0,0:0:0:0:
192,192,181991,1,0,0:0:0:0:
320,192,182033,1,0,0:0:0:0:
448,192,182074,1,0,0:0:0:0:
64,192,182116,1,0,0:0:0:0:
320,192,182158,1,0,0:0:0:0:
192,192,182214,1,0,0:0:0:0:
64,192,182270,1,0,0:0:0:0:
448,192,182326,1,0,0:0:0:0:
320,192,182382,1,0,0:0:0:0:
64,192,182438,1,0,0:0:0:0:
320,192,182493,1,0,0:0:0:0:
192,192,182549,1,0,0:0:0:0:
64,192,182605,1,0,0:0:0:0:
448,192,182661,1,0,0:0:0:0:
192,192,182717,1,0,0:0:0:0:
64,192,182773,1,0,0:0:0:0:
448,192,182829,1,0,0:0:0:0:
320,192,182885,1,0,0:0:0:0:
192,192,182940,1,0,0:0:0:0:
320,192,182996,1,0,0:0:0:0:
192,192,183052,1,0,0:0:0:0:
64,192,183108,1,0,0:0:0:0:
448,192,183164,1,0,0:0:0:0:
192,192,183220,1,0,0:0:0:0:
64,192,183276,1,0,0:0:0:0:
448,192,183331,1,0,0:0:0:0:
320,192,183387,1,0,0:0:0:0:
192,192,183443,1,0,0:0:0:0:
64,192,183499,1,0,0:0:0:0:
448,192,183499,1,0,0:0:0:0:
192,192,183583,1,0,0:0:0:0:
320,192,183583,1,0,0:0:0:0:
64,192,183667,1,0,0:0:0:0:
448,192,183667,1,0,0:0:0:0:
192,192,183750,1,0,0:0:0:0:
320,192,183750,1,0,0:0:0:0:
64,192,183834,1,0,0:0:0:0:
448,192,183834,1,0,0:0:0:0:
192,192,183918,1,0,0:0:0:0:
320,192,183918,1,0,0:0:0:0:
448,192,184002,1,0,0:0:0:0:
64,192,184086,1,0,0:0:0:0:
192,192,184086,1,0,0:0:0:0:
448,192,184169,1,0,0:0:0:0:
320,192,184253,1,0,0:0:0:0:
192,192,184337,1,0,0:0:0:0:
320,192,184337,1,0,0:0:0:0:
64,192,184421,1,0,0:0:0:0:
192,192,184505,1,0,0:0:0:0:
448,192,184505,1,0,0:0:0:0:
320,192,184588,1,0,0:0:0:0:
64,192,184672,1,0,0:0:0:0:
192,192,184672,1,0,0:0:0:0:
320,192,184756,1,0,0:0:0:0:
448,192,184756,1,0,0:0:0:0:
64,192,184840,1,0,0:0:0:0:
192,192,184840,1,0,0:0:0:0:
448,192,184924,1,0,0:0:0:0:
64,192,185007,1,0,0:0:0:0:
320,192,185007,1,0,0:0:0:0:
192,192,185091,1,0,0:0:0:0:
320,192,185175,1,0,0:0:0:0:
448,192,185175,1,0,0:0:0:0:
64,192,185259,1,0,0:0:0:0:
320,192,185343,1,0,0:0:0:0:
192,192,185426,1,0,0:0:0:0:
448,192,185426,1,0,0:0:0:0:
64,192,185510,1,0,0:0:0:0:
448,192,185594,1,0,0:0:0:0:
320,192,185678,1,0,0:0:0:0:
448,192,185678,1,0,0:0:0:0:
64,192,185762,1,0,0:0:0:0:
192,192,185762,1,0,0:0:0:0:
192,192,185845,1,0,0:0:0:0:
320,192,185845,1,0,0:0:0:0:
320,192,185929,1,0,0:0:0:0:
64,192,186013,1,0,0:0:0:0:
192,192,186013,1,0,0:0:0:0:
64,192,186097,1,0,0:0:0:0:
320,192,186181,1,0,0:0:0:0:
448,192,186181,1,0,0:0:0:0:
64,192,186264,1,0,0:0:0:0:
192,192,186264,1,0,0:0:0:0:
320,192,186348,1,0,0:0:0:0:
448,192,186348,1,0,0:0:0:0:
64,192,186432,1,0,0:0:0:0:
192,192,186432,1,0,0:0:0:0:
320,192,186516,1,0,0:0:0:0:
448,192,186516,1,0,0:0:0:0:
64,192,186600,1,0,0:0:0:0:
192,192,186600,1,0,0:0:0:0:
448,192,186683,1,0,0:0:0:0:
192,192,186767,1,0,0:0:0:0:
320,192,186767,1,0,0:0:0:0:
64,192,186851,1,0,0:0:0:0:
448,192,186935,1,0,0:0:0:0:
192,192,187019,1,0,0:0:0:0:
448,192,187019,1,0,0:0:0:0:
64,192,187102,1,0,0:0:0:0:
320,192,187186,1,0,0:0:0:0:
448,192,187186,1,0,0:0:0:0:
192,192,187270,1,0,0:0:0:0:
64,192,187354,1,0,0:0:0:0:
320,192,187354,1,0,0:0:0:0:
192,192,187438,1,0,0:0:0:0:
448,192,187438,1,0,0:0:0:0:
64,192,187521,1,0,0:0:0:0:
320,192,187521,1,0,0:0:0:0:
448,192,187605,1,0,0:0:0:0:
64,192,187689,1,0,0:0:0:0:
192,192,187689,1,0,0:0:0:0:
320,192,187773,1,0,0:0:0:0:
192,192,187857,1,0,0:0:0:0:
448,192,187857,1,0,0:0:0:0:
64,192,187940,1,0,0:0:0:0:
320,192,188024,1,0,0:0:0:0:
448,192,188024,1,0,0:0:0:0:
64,192,188108,1,0,0:0:0:0:
192,192,188192,1,0,0:0:0:0:
448,192,188192,1,0,0:0:0:0:
448,192,188276,1,0,0:0:0:0:
64,192,188359,1,0,0:0:0:0:
192,192,188359,1,0,0:0:0:0:
64,192,188443,1,0,0:0:0:0:
192,192,188527,1,0,0:0:0:0:
320,192,188527,1,0,0:0:0:0:
320,192,188611,1,0,0:0:0:0:
64,192,188695,1,0,0:0:0:0:
448,192,188695,1,0,0:0:0:0:
192,192,188778,1,0,0:0:0:0:
448,192,188862,1,0,0:0:0:0:
320,192,188862,1,0,0:0:0:0:
192,192,188946,1,0,0:0:0:0:
64,192,188946,1,0,0:0:0:0:
448,192,189030,1,0,0:0:0:0:
320,192,189030,1,0,0:0:0:0:
192,192,189114,1,0,0:0:0:0:
64,192,189114,1,0,0:0:0:0:
448,192,189197,1,0,0:0:0:0:
320,192,189197,1,0,0:0:0:0:
192,192,189281,1,0,0:0:0:0:
64,192,189281,1,0,0:0:0:0:
320,192,189365,1,0,0:0:0:0:
192,192,189449,1,0,0:0:0:0:
448,192,189449,1,0,0:0:0:0:
320,192,189533,1,0,0:0:0:0:
64,192,189616,1,0,0:0:0:0:
64,192,189700,1,0,0:0:0:0:
320,192,189700,1,0,0:0:0:0:
448,192,189784,1,0,0:0:0:0:
192,192,189868,1,0,0:0:0:0:
320,192,189868,1,0,0:0:0:0:
64,192,189952,1,0,0:0:0:0:
192,192,190035,1,0,0:0:0:0:
320,192,190035,1,0,0:0:0:0:
64,192,190119,1,0,0:0:0:0:
448,192,190119,1,0,0:0:0:0:
192,192,190203,1,0,0:0:0:0:
320,192,190203,1,0,0:0:0:0:
448,192,190287,1,0,0:0:0:0:
64,192,190371,1,0,0:0:0:0:
192,192,190371,1,0,0:0:0:0:
320,192,190454,1,0,0:0:0:0:
64,192,190538,1,0,0:0:0:0:
448,192,190538,1,0,0:0:0:0:
192,192,190622,1,0,0:0:0:0:
448,192,190706,1,0,0:0:0:0:
64,192,190790,1,0,0:0:0:0:
320,192,190790,1,0,0:0:0:0:
192,192,190873,1,0,0:0:0:0:
320,192,190957,1,0,0:0:0:0:
320,192,191041,1,0,0:0:0:0:
448,192,191041,1,0,0:0:0:0:
64,192,191125,1,0,0:0:0:0:
192,192,191125,1,0,0:0:0:0:
64,192,191209,1,0,0:0:0:0:
448,192,191209,1,0,0:0:0:0:
320,192,191292,1,0,0:0:0:0:
192,192,191376,1,0,0:0:0:0:
448,192,191376,1,0,0:0:0:0:
192,192,191460,1,0,0:0:0:0:
64,192,191544,1,0,0:0:0:0:
448,192,191544,1,0,0:0:0:0:
192,192,191628,1,0,0:0:0:0:
320,192,191628,1,0,0:0:0:0:
64,192,191711,1,0,0:0:0:0:
448,192,191711,1,0,0:0:0:0:
192,192,191795,1,0,0:0:0:0:
320,192,191795,1,0,0:0:0:0:
64,192,191879,1,0,0:0:0:0:
448,192,191879,1,0,0:0:0:0:
192,192,191963,1,0,0:0:0:0:
320,192,191963,1,0,0:0:0:0:
64,192,192047,1,0,0:0:0:0:
320,192,192130,1,0,0:0:0:0:
448,192,192130,1,0,0:0:0:0:
192,192,192214,1,0,0:0:0:0:
448,192,192298,1,0,0:0:0:0:
64,192,192382,1,0,0:0:0:0:
448,192,192382,1,0,0:0:0:0:
192,192,192466,1,0,0:0:0:0:
320,192,192549,1,0,0:0:0:0:
448,192,192549,1,0,0:0:0:0:
64,192,192633,1,0,0:0:0:0:
192,192,192717,1,0,0:0:0:0:
448,192,192717,1,0,0:0:0:0:
64,192,192801,1,0,0:0:0:0:
320,192,192801,1,0,0:0:0:0:
192,192,192885,1,0,0:0:0:0:
448,192,192885,1,0,0:0:0:0:
320,192,192968,1,0,0:0:0:0:
64,192,193052,1,0,0:0:0:0:
448,192,193136,1,0,0:0:0:0:
64,192,193220,1,0,0:0:0:0:
192,192,193220,1,0,0:0:0:0:
320,192,193304,1,0,0:0:0:0:
64,192,193387,1,0,0:0:0:0:
192,192,193387,1,0,0:0:0:0:
448,192,193471,1,0,0:0:0:0:
64,192,193555,1,0,0:0:0:0:
320,192,193555,1,0,0:0:0:0:
64,192,193639,1,0,0:0:0:0:
320,192,193723,1,0,0:0:0:0:
320,192,193806,1,0,0:0:0:0:
192,192,193890,1,0,0:0:0:0:
192,192,193974,1,0,0:0:0:0:
448,192,194058,1,0,0:0:0:0:
448,192,194142,1,0,0:0:0:0:
64,192,194225,1,0,0:0:0:0:
64,192,194309,1,0,0:0:0:0:
320,192,194393,1,0,0:0:0:0:
320,192,194477,1,0,0:0:0:0:
192,192,194561,1,0,0:0:0:0:
192,192,194644,1,0,0:0:0:0:
448,192,194728,1,0,0:0:0:0:
448,192,194812,1,0,0:0:0:0:
64,192,194896,1,0,0:0:0:0:
64,192,194980,1,0,0:0:0:0:
320,192,195063,1,0,0:0:0:0:
320,192,195147,1,0,0:0:0:0:
192,192,195231,1,0,0:0:0:0:
192,192,195315,1,0,0:0:0:0:
448,192,195399,1,0,0:0:0:0:
448,192,195482,1,0,0:0:0:0:
64,192,195566,1,0,0:0:0:0:
64,192,195650,1,0,0:0:0:0:
320,192,195734,1,0,0:0:0:0:
320,192,195818,1,0,0:0:0:0:
192,192,195901,1,0,0:0:0:0:
192,192,195985,1,0,0:0:0:0:
448,192,196069,1,0,0:0:0:0:
448,192,196153,1,0,0:0:0:0:
