osu file format v14

[General]
AudioFilename: audio 1.049x (pitch raised).mp3
AudioLeadIn: 0
PreviewTime: 60114
Countdown: 0
SampleSet: None
StackLeniency: 0.7
Mode: 3
LetterboxInBreaks: 0
SpecialStyle: 0
WidescreenStoryboard: 0

[Editor]
DistanceSpacing: 0.8
BeatDivisor: 8
GridSize: 8
TimelineZoom: 2.2

[Metadata]
Title:ON MY OWN 2006 (Sped Up Ver.)
TitleUnicode:ON MY OWN 2006 (Sped Up Ver.)
Artist:ANNERLEY GORDON
ArtistUnicode:ANNERLEY GORDON
Creator:Jole
Version:i showed you my car please respond 1.05x (163bpm)
Source:
Tags:4k 4 key dump stream speed stamina minijacks jumpstream initial d
BeatmapID:3107449
BeatmapSetID:844060

[Difficulty]
HPDrainRate:8
CircleSize:4
OverallDifficulty:8
ApproachRate:4.5
SliderMultiplier:1.4
SliderTickRate:1

[Events]
//Background and Video events
0,0,"remake.jpg",0,0
//Break Periods
//Storyboard Layer 0 (Background)
//Storyboard Layer 1 (Fail)
//Storyboard Layer 2 (Pass)
//Storyboard Layer 3 (Foreground)
//Storyboard Layer 4 (Overlay)
//Storyboard Sound Samples

[TimingPoints]
897,368.098159509202,4,1,0,25,1,0

[HitObjects]
64,192,1089,5,0,0:0:0:0:
64,192,1265,1,0,0:0:0:0:
320,192,1265,1,0,0:0:0:0:
448,192,1265,1,0,0:0:0:0:
192,192,1357,1,0,0:0:0:0:
192,192,1541,1,0,0:0:0:0:
64,192,1633,1,0,0:0:0:0:
320,192,1633,1,0,0:0:0:0:
448,192,1817,1,0,0:0:0:0:
192,192,1909,1,0,0:0:0:0:
320,192,1909,1,0,0:0:0:0:
64,192,2001,1,0,0:0:0:0:
448,192,2001,1,0,0:0:0:0:
192,192,2093,1,0,0:0:0:0:
320,192,2185,1,0,0:0:0:0:
448,192,2185,1,0,0:0:0:0:
448,192,2369,1,0,0:0:0:0:
192,192,2461,1,0,0:0:0:0:
320,192,2553,1,0,0:0:0:0:
320,192,2645,1,0,0:0:0:0:
64,192,2737,1,0,0:0:0:0:
448,192,2737,1,0,0:0:0:0:
192,192,2829,1,0,0:0:0:0:
320,192,2829,1,0,0:0:0:0:
64,192,2921,1,0,0:0:0:0:
448,192,3013,1,0,0:0:0:0:
64,192,3105,1,0,0:0:0:0:
192,192,3105,1,0,0:0:0:0:
320,192,3197,1,0,0:0:0:0:
448,192,3289,1,0,0:0:0:0:
64,192,3381,1,0,0:0:0:0:
320,192,3381,1,0,0:0:0:0:
192,192,3473,1,0,0:0:0:0:
448,192,3565,1,0,0:0:0:0:
192,192,3657,1,0,0:0:0:0:
320,192,3657,1,0,0:0:0:0:
192,192,3749,1,0,0:0:0:0:
448,192,3841,1,0,0:0:0:0:
320,192,4025,1,0,0:0:0:0:
192,192,4209,1,0,0:0:0:0:
320,192,4301,1,0,0:0:0:0:
448,192,4301,1,0,0:0:0:0:
64,192,4393,1,0,0:0:0:0:
192,192,4485,1,0,0:0:0:0:
320,192,4577,1,0,0:0:0:0:
448,192,4577,1,0,0:0:0:0:
192,192,4670,1,0,0:0:0:0:
64,192,4762,1,0,0:0:0:0:
320,192,4854,1,0,0:0:0:0:
448,192,4854,1,0,0:0:0:0:
64,192,4946,1,0,0:0:0:0:
192,192,5130,1,0,0:0:0:0:
448,192,5130,1,0,0:0:0:0:
448,192,5222,1,0,0:0:0:0:
64,192,5314,1,0,0:0:0:0:
320,192,5498,1,0,0:0:0:0:
192,192,5682,1,0,0:0:0:0:
64,192,5774,1,0,0:0:0:0:
448,192,5774,1,0,0:0:0:0:
320,192,5866,1,0,0:0:0:0:
320,192,5958,1,0,0:0:0:0:
64,192,6050,1,0,0:0:0:0:
192,192,6050,1,0,0:0:0:0:
448,192,6234,1,0,0:0:0:0:
64,192,6326,1,0,0:0:0:0:
192,192,6326,1,0,0:0:0:0:
320,192,6418,1,0,0:0:0:0:
64,192,6602,1,0,0:0:0:0:
320,192,6602,1,0,0:0:0:0:
448,192,6694,1,0,0:0:0:0:
192,192,6786,1,0,0:0:0:0:
192,192,6970,1,0,0:0:0:0:
448,192,6970,1,0,0:0:0:0:
320,192,7031,1,0,0:0:0:0:
64,192,7093,1,0,0:0:0:0:
192,192,7154,1,0,0:0:0:0:
320,192,7154,1,0,0:0:0:0:
192,192,7338,1,0,0:0:0:0:
320,192,7430,1,0,0:0:0:0:
64,192,7522,1,0,0:0:0:0:
192,192,7522,1,0,0:0:0:0:
320,192,7706,1,0,0:0:0:0:
448,192,7706,1,0,0:0:0:0:
64,192,7798,1,0,0:0:0:0:
192,192,7890,1,0,0:0:0:0:
448,192,7890,1,0,0:0:0:0:
448,192,8074,1,0,0:0:0:0:
320,192,8166,1,0,0:0:0:0:
64,192,8258,1,0,0:0:0:0:
192,192,8258,1,0,0:0:0:0:
320,192,8443,1,0,0:0:0:0:
64,192,8627,1,0,0:0:0:0:
320,192,8627,1,0,0:0:0:0:
192,192,8719,1,0,0:0:0:0:
448,192,8811,1,0,0:0:0:0:
448,192,8903,1,0,0:0:0:0:
64,192,8995,1,0,0:0:0:0:
192,192,8995,1,0,0:0:0:0:
320,192,9179,1,0,0:0:0:0:
448,192,9179,1,0,0:0:0:0:
64,192,9271,1,0,0:0:0:0:
448,192,9363,1,0,0:0:0:0:
192,192,9547,1,0,0:0:0:0:
64,192,9639,1,0,0:0:0:0:
192,192,9731,1,0,0:0:0:0:
448,192,9731,1,0,0:0:0:0:
320,192,9915,1,0,0:0:0:0:
192,192,10099,1,0,0:0:0:0:
320,192,10191,1,0,0:0:0:0:
448,192,10191,1,0,0:0:0:0:
64,192,10283,1,0,0:0:0:0:
64,192,10375,1,0,0:0:0:0:
192,192,10467,1,0,0:0:0:0:
320,192,10467,1,0,0:0:0:0:
448,192,10651,1,0,0:0:0:0:
64,192,10743,1,0,0:0:0:0:
192,192,10743,1,0,0:0:0:0:
448,192,10927,1,0,0:0:0:0:
64,192,11019,1,0,0:0:0:0:
320,192,11019,1,0,0:0:0:0:
192,192,11203,1,0,0:0:0:0:
320,192,11387,1,0,0:0:0:0:
320,192,11479,1,0,0:0:0:0:
64,192,11571,1,0,0:0:0:0:
192,192,11571,1,0,0:0:0:0:
320,192,11663,1,0,0:0:0:0:
448,192,11663,1,0,0:0:0:0:
64,192,11755,1,0,0:0:0:0:
192,192,11939,1,0,0:0:0:0:
320,192,11939,1,0,0:0:0:0:
448,192,12031,1,0,0:0:0:0:
64,192,12123,1,0,0:0:0:0:
192,192,12123,1,0,0:0:0:0:
320,192,12216,1,0,0:0:0:0:
448,192,12216,1,0,0:0:0:0:
192,192,12308,1,0,0:0:0:0:
320,192,12400,1,0,0:0:0:0:
448,192,12400,1,0,0:0:0:0:
64,192,12492,1,0,0:0:0:0:
192,192,12492,1,0,0:0:0:0:
320,192,12584,1,0,0:0:0:0:
448,192,12584,1,0,0:0:0:0:
64,192,12676,1,0,0:0:0:0:
192,192,12676,1,0,0:0:0:0:
320,192,12768,1,0,0:0:0:0:
448,192,12768,1,0,0:0:0:0:
64,192,12860,1,0,0:0:0:0:
192,192,12860,1,0,0:0:0:0:
320,192,12952,1,0,0:0:0:0:
64,192,13044,1,0,0:0:0:0:
192,192,13044,1,0,0:0:0:0:
448,192,13044,1,0,0:0:0:0:
320,192,13136,1,0,0:0:0:0:
192,192,13228,1,0,0:0:0:0:
192,192,13412,1,0,0:0:0:0:
448,192,13412,1,0,0:0:0:0:
320,192,13596,1,0,0:0:0:0:
448,192,13688,1,0,0:0:0:0:
64,192,13780,1,0,0:0:0:0:
192,192,13780,1,0,0:0:0:0:
448,192,13872,1,0,0:0:0:0:
320,192,13964,1,0,0:0:0:0:
64,192,14148,1,0,0:0:0:0:
448,192,14148,1,0,0:0:0:0:
320,192,14240,1,0,0:0:0:0:
64,192,14332,1,0,0:0:0:0:
192,192,14424,1,0,0:0:0:0:
320,192,14516,1,0,0:0:0:0:
448,192,14516,1,0,0:0:0:0:
64,192,14608,1,0,0:0:0:0:
64,192,14700,1,0,0:0:0:0:
448,192,14792,1,0,0:0:0:0:
192,192,14884,1,0,0:0:0:0:
320,192,14884,1,0,0:0:0:0:
448,192,15068,1,0,0:0:0:0:
192,192,15160,1,0,0:0:0:0:
64,192,15252,1,0,0:0:0:0:
320,192,15252,1,0,0:0:0:0:
448,192,15344,1,0,0:0:0:0:
192,192,15436,1,0,0:0:0:0:
192,192,15528,1,0,0:0:0:0:
320,192,15620,1,0,0:0:0:0:
448,192,15620,1,0,0:0:0:0:
192,192,15804,1,0,0:0:0:0:
448,192,15896,1,0,0:0:0:0:
64,192,15989,1,0,0:0:0:0:
192,192,15989,1,0,0:0:0:0:
320,192,16081,1,0,0:0:0:0:
64,192,16173,1,0,0:0:0:0:
64,192,16265,1,0,0:0:0:0:
320,192,16357,1,0,0:0:0:0:
448,192,16357,1,0,0:0:0:0:
192,192,16449,1,0,0:0:0:0:
448,192,16541,1,0,0:0:0:0:
448,192,16633,1,0,0:0:0:0:
64,192,16725,1,0,0:0:0:0:
320,192,16725,1,0,0:0:0:0:
192,192,16909,1,0,0:0:0:0:
448,192,16909,1,0,0:0:0:0:
320,192,17001,1,0,0:0:0:0:
64,192,17093,1,0,0:0:0:0:
192,192,17093,1,0,0:0:0:0:
320,192,17277,1,0,0:0:0:0:
320,192,17369,1,0,0:0:0:0:
64,192,17461,1,0,0:0:0:0:
192,192,17461,1,0,0:0:0:0:
448,192,17553,1,0,0:0:0:0:
192,192,17645,1,0,0:0:0:0:
192,192,17737,1,0,0:0:0:0:
320,192,17829,1,0,0:0:0:0:
448,192,17829,1,0,0:0:0:0:
64,192,18013,1,0,0:0:0:0:
64,192,18105,1,0,0:0:0:0:
192,192,18197,1,0,0:0:0:0:
448,192,18197,1,0,0:0:0:0:
192,192,18381,1,0,0:0:0:0:
320,192,18473,1,0,0:0:0:0:
64,192,18565,1,0,0:0:0:0:
192,192,18565,1,0,0:0:0:0:
448,192,18611,1,0,0:0:0:0:
320,192,18657,1,0,0:0:0:0:
64,192,18703,1,0,0:0:0:0:
192,192,18749,1,0,0:0:0:0:
320,192,18841,1,0,0:0:0:0:
64,192,18933,1,0,0:0:0:0:
448,192,18933,1,0,0:0:0:0:
192,192,19025,1,0,0:0:0:0:
448,192,19117,1,0,0:0:0:0:
320,192,19209,1,0,0:0:0:0:
64,192,19301,1,0,0:0:0:0:
192,192,19301,1,0,0:0:0:0:
320,192,19485,1,0,0:0:0:0:
320,192,19577,1,0,0:0:0:0:
192,192,19670,1,0,0:0:0:0:
448,192,19670,1,0,0:0:0:0:
64,192,19762,1,0,0:0:0:0:
448,192,19854,1,0,0:0:0:0:
192,192,19946,1,0,0:0:0:0:
320,192,20038,1,0,0:0:0:0:
448,192,20038,1,0,0:0:0:0:
192,192,20222,1,0,0:0:0:0:
448,192,20314,1,0,0:0:0:0:
64,192,20406,1,0,0:0:0:0:
320,192,20406,1,0,0:0:0:0:
192,192,20498,1,0,0:0:0:0:
320,192,20590,1,0,0:0:0:0:
448,192,20682,1,0,0:0:0:0:
64,192,20774,1,0,0:0:0:0:
192,192,20774,1,0,0:0:0:0:
320,192,20866,1,0,0:0:0:0:
448,192,20958,1,0,0:0:0:0:
192,192,21050,1,0,0:0:0:0:
320,192,21142,1,0,0:0:0:0:
448,192,21142,1,0,0:0:0:0:
448,192,21326,1,0,0:0:0:0:
448,192,21418,1,0,0:0:0:0:
64,192,21510,1,0,0:0:0:0:
192,192,21510,1,0,0:0:0:0:
320,192,21602,1,0,0:0:0:0:
192,192,21694,1,0,0:0:0:0:
64,192,21878,1,0,0:0:0:0:
448,192,21878,1,0,0:0:0:0:
192,192,21970,1,0,0:0:0:0:
320,192,22062,1,0,0:0:0:0:
320,192,22246,1,0,0:0:0:0:
448,192,22246,1,0,0:0:0:0:
192,192,22338,1,0,0:0:0:0:
64,192,22430,1,0,0:0:0:0:
448,192,22430,1,0,0:0:0:0:
192,192,22614,1,0,0:0:0:0:
448,192,22614,1,0,0:0:0:0:
320,192,22706,1,0,0:0:0:0:
64,192,22798,1,0,0:0:0:0:
320,192,22982,1,0,0:0:0:0:
448,192,22982,1,0,0:0:0:0:
64,192,23074,1,0,0:0:0:0:
192,192,23166,1,0,0:0:0:0:
448,192,23166,1,0,0:0:0:0:
320,192,23350,1,0,0:0:0:0:
192,192,23443,1,0,0:0:0:0:
320,192,23535,1,0,0:0:0:0:
192,192,23627,1,0,0:0:0:0:
320,192,23719,1,0,0:0:0:0:
192,192,23811,1,0,0:0:0:0:
320,192,23903,1,0,0:0:0:0:
192,192,23995,1,0,0:0:0:0:
448,192,24087,1,0,0:0:0:0:
64,192,24179,1,0,0:0:0:0:
192,192,24179,1,0,0:0:0:0:
64,192,24271,1,0,0:0:0:0:
320,192,24271,1,0,0:0:0:0:
192,192,24455,1,0,0:0:0:0:
448,192,24455,1,0,0:0:0:0:
64,192,24639,1,0,0:0:0:0:
320,192,24639,1,0,0:0:0:0:
448,192,24639,1,0,0:0:0:0:
64,192,24823,1,0,0:0:0:0:
448,192,24823,1,0,0:0:0:0:
192,192,24915,1,0,0:0:0:0:
320,192,24915,1,0,0:0:0:0:
64,192,25007,1,0,0:0:0:0:
448,192,25007,1,0,0:0:0:0:
192,192,25099,1,0,0:0:0:0:
320,192,25099,1,0,0:0:0:0:
64,192,25191,1,0,0:0:0:0:
448,192,25191,1,0,0:0:0:0:
192,192,25283,1,0,0:0:0:0:
320,192,25283,1,0,0:0:0:0:
448,192,25375,1,0,0:0:0:0:
64,192,25467,1,0,0:0:0:0:
192,192,25467,1,0,0:0:0:0:
448,192,25559,1,0,0:0:0:0:
320,192,25651,1,0,0:0:0:0:
192,192,25743,1,0,0:0:0:0:
320,192,25743,1,0,0:0:0:0:
64,192,25835,1,0,0:0:0:0:
192,192,25927,1,0,0:0:0:0:
448,192,25927,1,0,0:0:0:0:
320,192,26019,1,0,0:0:0:0:
64,192,26111,1,0,0:0:0:0:
192,192,26111,1,0,0:0:0:0:
320,192,26203,1,0,0:0:0:0:
448,192,26203,1,0,0:0:0:0:
64,192,26295,1,0,0:0:0:0:
192,192,26295,1,0,0:0:0:0:
448,192,26387,1,0,0:0:0:0:
64,192,26479,1,0,0:0:0:0:
320,192,26479,1,0,0:0:0:0:
192,192,26571,1,0,0:0:0:0:
320,192,26663,1,0,0:0:0:0:
448,192,26663,1,0,0:0:0:0:
64,192,26755,1,0,0:0:0:0:
320,192,26847,1,0,0:0:0:0:
192,192,26939,1,0,0:0:0:0:
448,192,26939,1,0,0:0:0:0:
64,192,27031,1,0,0:0:0:0:
448,192,27123,1,0,0:0:0:0:
320,192,27216,1,0,0:0:0:0:
448,192,27216,1,0,0:0:0:0:
64,192,27308,1,0,0:0:0:0:
192,192,27308,1,0,0:0:0:0:
192,192,27400,1,0,0:0:0:0:
320,192,27400,1,0,0:0:0:0:
320,192,27492,1,0,0:0:0:0:
64,192,27584,1,0,0:0:0:0:
192,192,27584,1,0,0:0:0:0:
64,192,27676,1,0,0:0:0:0:
320,192,27768,1,0,0:0:0:0:
448,192,27768,1,0,0:0:0:0:
64,192,27860,1,0,0:0:0:0:
192,192,27860,1,0,0:0:0:0:
320,192,27952,1,0,0:0:0:0:
448,192,27952,1,0,0:0:0:0:
64,192,28044,1,0,0:0:0:0:
192,192,28044,1,0,0:0:0:0:
320,192,28136,1,0,0:0:0:0:
448,192,28136,1,0,0:0:0:0:
64,192,28228,1,0,0:0:0:0:
192,192,28228,1,0,0:0:0:0:
448,192,28320,1,0,0:0:0:0:
192,192,28412,1,0,0:0:0:0:
320,192,28412,1,0,0:0:0:0:
64,192,28504,1,0,0:0:0:0:
448,192,28596,1,0,0:0:0:0:
192,192,28688,1,0,0:0:0:0:
448,192,28688,1,0,0:0:0:0:
64,192,28780,1,0,0:0:0:0:
320,192,28872,1,0,0:0:0:0:
448,192,28872,1,0,0:0:0:0:
192,192,28964,1,0,0:0:0:0:
64,192,29056,1,0,0:0:0:0:
320,192,29056,1,0,0:0:0:0:
192,192,29148,1,0,0:0:0:0:
448,192,29148,1,0,0:0:0:0:
64,192,29240,1,0,0:0:0:0:
320,192,29240,1,0,0:0:0:0:
448,192,29332,1,0,0:0:0:0:
64,192,29424,1,0,0:0:0:0:
192,192,29424,1,0,0:0:0:0:
320,192,29516,1,0,0:0:0:0:
448,192,29608,1,0,0:0:0:0:
192,192,29608,1,0,0:0:0:0:
64,192,29700,1,0,0:0:0:0:
320,192,29792,1,0,0:0:0:0:
448,192,29792,1,0,0:0:0:0:
64,192,29884,1,0,0:0:0:0:
192,192,29976,1,0,0:0:0:0:
448,192,29976,1,0,0:0:0:0:
448,192,30068,1,0,0:0:0:0:
64,192,30160,1,0,0:0:0:0:
192,192,30160,1,0,0:0:0:0:
64,192,30252,1,0,0:0:0:0:
192,192,30344,1,0,0:0:0:0:
320,192,30344,1,0,0:0:0:0:
320,192,30436,1,0,0:0:0:0:
448,192,30528,1,0,0:0:0:0:
192,192,30528,1,0,0:0:0:0:
192,192,30620,1,0,0:0:0:0:
448,192,30712,1,0,0:0:0:0:
320,192,30712,1,0,0:0:0:0:
192,192,30804,1,0,0:0:0:0:
64,192,30804,1,0,0:0:0:0:
448,192,30896,1,0,0:0:0:0:
320,192,30896,1,0,0:0:0:0:
192,192,30989,1,0,0:0:0:0:
64,192,30989,1,0,0:0:0:0:
448,192,31081,1,0,0:0:0:0:
320,192,31081,1,0,0:0:0:0:
192,192,31173,1,0,0:0:0:0:
64,192,31173,1,0,0:0:0:0:
320,192,31265,1,0,0:0:0:0:
192,192,31357,1,0,0:0:0:0:
448,192,31357,1,0,0:0:0:0:
320,192,31449,1,0,0:0:0:0:
64,192,31541,1,0,0:0:0:0:
64,192,31633,1,0,0:0:0:0:
320,192,31633,1,0,0:0:0:0:
448,192,31725,1,0,0:0:0:0:
192,192,31817,1,0,0:0:0:0:
320,192,31817,1,0,0:0:0:0:
64,192,31909,1,0,0:0:0:0:
192,192,32001,1,0,0:0:0:0:
320,192,32001,1,0,0:0:0:0:
64,192,32093,1,0,0:0:0:0:
448,192,32093,1,0,0:0:0:0:
192,192,32185,1,0,0:0:0:0:
320,192,32185,1,0,0:0:0:0:
448,192,32277,1,0,0:0:0:0:
64,192,32369,1,0,0:0:0:0:
192,192,32369,1,0,0:0:0:0:
320,192,32461,1,0,0:0:0:0:
64,192,32553,1,0,0:0:0:0:
448,192,32553,1,0,0:0:0:0:
192,192,32645,1,0,0:0:0:0:
448,192,32737,1,0,0:0:0:0:
64,192,32829,1,0,0:0:0:0:
320,192,32829,1,0,0:0:0:0:
192,192,32921,1,0,0:0:0:0:
320,192,33013,1,0,0:0:0:0:
320,192,33105,1,0,0:0:0:0:
448,192,33105,1,0,0:0:0:0:
64,192,33197,1,0,0:0:0:0:
192,192,33197,1,0,0:0:0:0:
64,192,33289,1,0,0:0:0:0:
448,192,33289,1,0,0:0:0:0:
320,192,33381,1,0,0:0:0:0:
192,192,33473,1,0,0:0:0:0:
448,192,33473,1,0,0:0:0:0:
192,192,33565,1,0,0:0:0:0:
64,192,33657,1,0,0:0:0:0:
448,192,33657,1,0,0:0:0:0:
192,192,33749,1,0,0:0:0:0:
320,192,33749,1,0,0:0:0:0:
64,192,33841,1,0,0:0:0:0:
448,192,33841,1,0,0:0:0:0:
192,192,33933,1,0,0:0:0:0:
320,192,33933,1,0,0:0:0:0:
64,192,34025,1,0,0:0:0:0:
448,192,34025,1,0,0:0:0:0:
192,192,34117,1,0,0:0:0:0:
320,192,34117,1,0,0:0:0:0:
64,192,34209,1,0,0:0:0:0:
320,192,34301,1,0,0:0:0:0:
448,192,34301,1,0,0:0:0:0:
192,192,34393,1,0,0:0:0:0:
448,192,34485,1,0,0:0:0:0:
64,192,34577,1,0,0:0:0:0:
448,192,34577,1,0,0:0:0:0:
192,192,34670,1,0,0:0:0:0:
320,192,34762,1,0,0:0:0:0:
448,192,34762,1,0,0:0:0:0:
64,192,34854,1,0,0:0:0:0:
192,192,34946,1,0,0:0:0:0:
448,192,34946,1,0,0:0:0:0:
64,192,35038,1,0,0:0:0:0:
320,192,35038,1,0,0:0:0:0:
192,192,35130,1,0,0:0:0:0:
448,192,35130,1,0,0:0:0:0:
320,192,35222,1,0,0:0:0:0:
64,192,35314,1,0,0:0:0:0:
448,192,35406,1,0,0:0:0:0:
64,192,35498,1,0,0:0:0:0:
192,192,35498,1,0,0:0:0:0:
320,192,35590,1,0,0:0:0:0:
64,192,35682,1,0,0:0:0:0:
192,192,35682,1,0,0:0:0:0:
448,192,35774,1,0,0:0:0:0:
64,192,35866,1,0,0:0:0:0:
192,192,35866,1,0,0:0:0:0:
64,192,35958,1,0,0:0:0:0:
320,192,36050,1,0,0:0:0:0:
320,192,36142,1,0,0:0:0:0:
192,192,36234,1,0,0:0:0:0:
192,192,36326,1,0,0:0:0:0:
448,192,36418,1,0,0:0:0:0:
448,192,36510,1,0,0:0:0:0:
64,192,36602,1,0,0:0:0:0:
192,192,36602,1,0,0:0:0:0:
320,192,36602,1,0,0:0:0:0:
448,192,36694,1,0,0:0:0:0:
64,192,36786,1,0,0:0:0:0:
192,192,36786,1,0,0:0:0:0:
448,192,36878,1,0,0:0:0:0:
192,192,36970,1,0,0:0:0:0:
320,192,36970,1,0,0:0:0:0:
64,192,37062,1,0,0:0:0:0:
192,192,37154,1,0,0:0:0:0:
448,192,37154,1,0,0:0:0:0:
64,192,37246,1,0,0:0:0:0:
320,192,37338,1,0,0:0:0:0:
448,192,37338,1,0,0:0:0:0:
192,192,37430,1,0,0:0:0:0:
64,192,37522,1,0,0:0:0:0:
320,192,37522,1,0,0:0:0:0:
448,192,37614,1,0,0:0:0:0:
64,192,37706,1,0,0:0:0:0:
192,192,37706,1,0,0:0:0:0:
448,192,37798,1,0,0:0:0:0:
64,192,37890,1,0,0:0:0:0:
320,192,37890,1,0,0:0:0:0:
192,192,37952,1,0,0:0:0:0:
448,192,38013,1,0,0:0:0:0:
320,192,38074,1,0,0:0:0:0:
192,192,38136,1,0,0:0:0:0:
64,192,38197,1,0,0:0:0:0:
320,192,38258,1,0,0:0:0:0:
448,192,38258,1,0,0:0:0:0:
192,192,38350,1,0,0:0:0:0:
64,192,38443,1,0,0:0:0:0:
320,192,38443,1,0,0:0:0:0:
192,192,38535,1,0,0:0:0:0:
64,192,38627,1,0,0:0:0:0:
448,192,38627,1,0,0:0:0:0:
320,192,38719,1,0,0:0:0:0:
192,192,38811,1,0,0:0:0:0:
448,192,38811,1,0,0:0:0:0:
64,192,38903,1,0,0:0:0:0:
192,192,38995,1,0,0:0:0:0:
320,192,38995,1,0,0:0:0:0:
448,192,39087,1,0,0:0:0:0:
64,192,39179,1,0,0:0:0:0:
320,192,39271,1,0,0:0:0:0:
192,192,39363,1,0,0:0:0:0:
448,192,39455,1,0,0:0:0:0:
64,192,39547,1,0,0:0:0:0:
320,192,39547,1,0,0:0:0:0:
192,192,39639,1,0,0:0:0:0:
320,192,39731,1,0,0:0:0:0:
448,192,39731,1,0,0:0:0:0:
64,192,39823,1,0,0:0:0:0:
192,192,39915,1,0,0:0:0:0:
448,192,39915,1,0,0:0:0:0:
320,192,40007,1,0,0:0:0:0:
64,192,40099,1,0,0:0:0:0:
448,192,40099,1,0,0:0:0:0:
192,192,40160,1,0,0:0:0:0:
320,192,40222,1,0,0:0:0:0:
64,192,40283,1,0,0:0:0:0:
448,192,40344,1,0,0:0:0:0:
320,192,40406,1,0,0:0:0:0:
192,192,40467,1,0,0:0:0:0:
64,192,40528,1,0,0:0:0:0:
320,192,40590,1,0,0:0:0:0:
192,192,40651,1,0,0:0:0:0:
448,192,40743,1,0,0:0:0:0:
64,192,40835,1,0,0:0:0:0:
192,192,40835,1,0,0:0:0:0:
320,192,40927,1,0,0:0:0:0:
64,192,41019,1,0,0:0:0:0:
448,192,41019,1,0,0:0:0:0:
192,192,41111,1,0,0:0:0:0:
64,192,41203,1,0,0:0:0:0:
448,192,41203,1,0,0:0:0:0:
320,192,41295,1,0,0:0:0:0:
64,192,41387,1,0,0:0:0:0:
192,192,41387,1,0,0:0:0:0:
320,192,41479,1,0,0:0:0:0:
192,192,41571,1,0,0:0:0:0:
448,192,41571,1,0,0:0:0:0:
64,192,41663,1,0,0:0:0:0:
320,192,41755,1,0,0:0:0:0:
448,192,41755,1,0,0:0:0:0:
64,192,41847,1,0,0:0:0:0:
192,192,41847,1,0,0:0:0:0:
320,192,41939,1,0,0:0:0:0:
448,192,41939,1,0,0:0:0:0:
64,192,42031,1,0,0:0:0:0:
192,192,42123,1,0,0:0:0:0:
448,192,42123,1,0,0:0:0:0:
320,192,42216,1,0,0:0:0:0:
64,192,42308,1,0,0:0:0:0:
192,192,42308,1,0,0:0:0:0:
320,192,42400,1,0,0:0:0:0:
448,192,42400,1,0,0:0:0:0:
64,192,42492,1,0,0:0:0:0:
192,192,42492,1,0,0:0:0:0:
448,192,42584,1,0,0:0:0:0:
64,192,42676,1,0,0:0:0:0:
320,192,42676,1,0,0:0:0:0:
192,192,42768,1,0,0:0:0:0:
320,192,42860,1,0,0:0:0:0:
448,192,42860,1,0,0:0:0:0:
64,192,42952,1,0,0:0:0:0:
192,192,43044,1,0,0:0:0:0:
320,192,43044,1,0,0:0:0:0:
448,192,43136,1,0,0:0:0:0:
64,192,43228,1,0,0:0:0:0:
320,192,43228,1,0,0:0:0:0:
192,192,43320,1,0,0:0:0:0:
320,192,43412,1,0,0:0:0:0:
448,192,43412,1,0,0:0:0:0:
64,192,43504,1,0,0:0:0:0:
192,192,43596,1,0,0:0:0:0:
320,192,43596,1,0,0:0:0:0:
448,192,43688,1,0,0:0:0:0:
64,192,43780,1,0,0:0:0:0:
192,192,43780,1,0,0:0:0:0:
320,192,43841,1,0,0:0:0:0:
448,192,43903,1,0,0:0:0:0:
64,192,43964,1,0,0:0:0:0:
192,192,44025,1,0,0:0:0:0:
320,192,44087,1,0,0:0:0:0:
64,192,44148,1,0,0:0:0:0:
192,192,44148,1,0,0:0:0:0:
448,192,44240,1,0,0:0:0:0:
64,192,44332,1,0,0:0:0:0:
320,192,44332,1,0,0:0:0:0:
192,192,44424,1,0,0:0:0:0:
320,192,44516,1,0,0:0:0:0:
448,192,44516,1,0,0:0:0:0:
64,192,44608,1,0,0:0:0:0:
192,192,44700,1,0,0:0:0:0:
448,192,44700,1,0,0:0:0:0:
320,192,44792,1,0,0:0:0:0:
64,192,44884,1,0,0:0:0:0:
192,192,44884,1,0,0:0:0:0:
448,192,44976,1,0,0:0:0:0:
64,192,45068,1,0,0:0:0:0:
320,192,45068,1,0,0:0:0:0:
192,192,45160,1,0,0:0:0:0:
448,192,45252,1,0,0:0:0:0:
64,192,45344,1,0,0:0:0:0:
192,192,45436,1,0,0:0:0:0:
448,192,45436,1,0,0:0:0:0:
320,192,45528,1,0,0:0:0:0:
64,192,45620,1,0,0:0:0:0:
448,192,45620,1,0,0:0:0:0:
320,192,45712,1,0,0:0:0:0:
64,192,45804,1,0,0:0:0:0:
192,192,45804,1,0,0:0:0:0:
448,192,45896,1,0,0:0:0:0:
64,192,45989,1,0,0:0:0:0:
320,192,45989,1,0,0:0:0:0:
192,192,46050,1,0,0:0:0:0:
448,192,46111,1,0,0:0:0:0:
320,192,46173,1,0,0:0:0:0:
192,192,46234,1,0,0:0:0:0:
64,192,46295,1,0,0:0:0:0:
320,192,46357,1,0,0:0:0:0:
192,192,46418,1,0,0:0:0:0:
448,192,46479,1,0,0:0:0:0:
64,192,46541,1,0,0:0:0:0:
192,192,46541,1,0,0:0:0:0:
320,192,46633,1,0,0:0:0:0:
192,192,46725,1,0,0:0:0:0:
448,192,46725,1,0,0:0:0:0:
64,192,46817,1,0,0:0:0:0:
320,192,46909,1,0,0:0:0:0:
448,192,46909,1,0,0:0:0:0:
192,192,47001,1,0,0:0:0:0:
64,192,47093,1,0,0:0:0:0:
320,192,47093,1,0,0:0:0:0:
448,192,47185,1,0,0:0:0:0:
64,192,47277,1,0,0:0:0:0:
192,192,47277,1,0,0:0:0:0:
320,192,47369,1,0,0:0:0:0:
64,192,47461,1,0,0:0:0:0:
448,192,47461,1,0,0:0:0:0:
192,192,47553,1,0,0:0:0:0:
448,192,47645,1,0,0:0:0:0:
320,192,47706,1,0,0:0:0:0:
192,192,47768,1,0,0:0:0:0:
64,192,47829,1,0,0:0:0:0:
448,192,47829,1,0,0:0:0:0:
320,192,47921,1,0,0:0:0:0:
64,192,48013,1,0,0:0:0:0:
192,192,48013,1,0,0:0:0:0:
448,192,48105,1,0,0:0:0:0:
192,192,48197,1,0,0:0:0:0:
448,192,48289,1,0,0:0:0:0:
64,192,48381,1,0,0:0:0:0:
320,192,48381,1,0,0:0:0:0:
192,192,48473,1,0,0:0:0:0:
320,192,48565,1,0,0:0:0:0:
448,192,48565,1,0,0:0:0:0:
64,192,48657,1,0,0:0:0:0:
192,192,48749,1,0,0:0:0:0:
448,192,48749,1,0,0:0:0:0:
320,192,48841,1,0,0:0:0:0:
64,192,48933,1,0,0:0:0:0:
448,192,48933,1,0,0:0:0:0:
192,192,48995,1,0,0:0:0:0:
320,192,49056,1,0,0:0:0:0:
64,192,49117,1,0,0:0:0:0:
448,192,49179,1,0,0:0:0:0:
320,192,49240,1,0,0:0:0:0:
192,192,49301,1,0,0:0:0:0:
448,192,49393,1,0,0:0:0:0:
64,192,49485,1,0,0:0:0:0:
192,192,49485,1,0,0:0:0:0:
320,192,49577,1,0,0:0:0:0:
64,192,49670,1,0,0:0:0:0:
448,192,49670,1,0,0:0:0:0:
192,192,49762,1,0,0:0:0:0:
448,192,49854,1,0,0:0:0:0:
64,192,49946,1,0,0:0:0:0:
192,192,50038,1,0,0:0:0:0:
320,192,50038,1,0,0:0:0:0:
448,192,50130,1,0,0:0:0:0:
64,192,50222,1,0,0:0:0:0:
320,192,50222,1,0,0:0:0:0:
192,192,50314,1,0,0:0:0:0:
320,192,50406,1,0,0:0:0:0:
448,192,50406,1,0,0:0:0:0:
64,192,50498,1,0,0:0:0:0:
320,192,50590,1,0,0:0:0:0:
448,192,50682,1,0,0:0:0:0:
64,192,50774,1,0,0:0:0:0:
192,192,50774,1,0,0:0:0:0:
320,192,50866,1,0,0:0:0:0:
448,192,50958,1,0,0:0:0:0:
192,192,51050,1,0,0:0:0:0:
64,192,51142,1,0,0:0:0:0:
320,192,51142,1,0,0:0:0:0:
448,192,51203,1,0,0:0:0:0:
192,192,51265,1,0,0:0:0:0:
320,192,51326,1,0,0:0:0:0:
64,192,51387,1,0,0:0:0:0:
448,192,51449,1,0,0:0:0:0:
192,192,51510,1,0,0:0:0:0:
320,192,51510,1,0,0:0:0:0:
64,192,51571,1,0,0:0:0:0:
448,192,51633,1,0,0:0:0:0:
192,192,51694,1,0,0:0:0:0:
320,192,51755,1,0,0:0:0:0:
192,192,51817,1,0,0:0:0:0:
320,192,51878,1,0,0:0:0:0:
448,192,51878,1,0,0:0:0:0:
64,192,51939,1,0,0:0:0:0:
448,192,52001,1,0,0:0:0:0:
192,192,52062,1,0,0:0:0:0:
320,192,52123,1,0,0:0:0:0:
64,192,52185,1,0,0:0:0:0:
320,192,52246,1,0,0:0:0:0:
448,192,52246,1,0,0:0:0:0:
192,192,52308,1,0,0:0:0:0:
448,192,52369,1,0,0:0:0:0:
64,192,52430,1,0,0:0:0:0:
320,192,52492,1,0,0:0:0:0:
192,192,52553,1,0,0:0:0:0:
448,192,52614,1,0,0:0:0:0:
320,192,52660,1,0,0:0:0:0:
192,192,52706,1,0,0:0:0:0:
64,192,52752,1,0,0:0:0:0:
448,192,52798,1,0,0:0:0:0:
320,192,52844,1,0,0:0:0:0:
192,192,52890,1,0,0:0:0:0:
64,192,52936,1,0,0:0:0:0:
448,192,52982,1,0,0:0:0:0:
320,192,53044,1,0,0:0:0:0:
448,192,53105,1,0,0:0:0:0:
64,192,53166,1,0,0:0:0:0:
192,192,53228,1,0,0:0:0:0:
64,192,53289,1,0,0:0:0:0:
448,192,53350,1,0,0:0:0:0:
320,192,53412,1,0,0:0:0:0:
448,192,53473,1,0,0:0:0:0:
64,192,53535,1,0,0:0:0:0:
192,192,53627,1,0,0:0:0:0:
320,192,53719,1,0,0:0:0:0:
448,192,53719,1,0,0:0:0:0:
64,192,53780,1,0,0:0:0:0:
192,192,53841,1,0,0:0:0:0:
320,192,53903,1,0,0:0:0:0:
448,192,53964,1,0,0:0:0:0:
64,192,54025,1,0,0:0:0:0:
192,192,54087,1,0,0:0:0:0:
320,192,54087,1,0,0:0:0:0:
64,192,54179,1,0,0:0:0:0:
448,192,54179,1,0,0:0:0:0:
192,192,54271,1,0,0:0:0:0:
320,192,54271,1,0,0:0:0:0:
448,192,54363,1,0,0:0:0:0:
64,192,54455,1,0,0:0:0:0:
320,192,54455,1,0,0:0:0:0:
192,192,54547,1,0,0:0:0:0:
320,192,54639,1,0,0:0:0:0:
448,192,54639,1,0,0:0:0:0:
64,192,54731,1,0,0:0:0:0:
192,192,54823,1,0,0:0:0:0:
448,192,54823,1,0,0:0:0:0:
320,192,54915,1,0,0:0:0:0:
64,192,55007,1,0,0:0:0:0:
448,192,55099,1,0,0:0:0:0:
192,192,55191,1,0,0:0:0:0:
320,192,55191,1,0,0:0:0:0:
64,192,55283,1,0,0:0:0:0:
192,192,55375,1,0,0:0:0:0:
448,192,55375,1,0,0:0:0:0:
320,192,55467,1,0,0:0:0:0:
64,192,55559,1,0,0:0:0:0:
192,192,55559,1,0,0:0:0:0:
448,192,55651,1,0,0:0:0:0:
192,192,55743,1,0,0:0:0:0:
64,192,55835,1,0,0:0:0:0:
320,192,55927,1,0,0:0:0:0:
448,192,55927,1,0,0:0:0:0:
192,192,56019,1,0,0:0:0:0:
64,192,56111,1,0,0:0:0:0:
320,192,56111,1,0,0:0:0:0:
192,192,56203,1,0,0:0:0:0:
64,192,56295,1,0,0:0:0:0:
448,192,56295,1,0,0:0:0:0:
320,192,56387,1,0,0:0:0:0:
64,192,56479,1,0,0:0:0:0:
448,192,56571,1,0,0:0:0:0:
64,192,56663,1,0,0:0:0:0:
192,192,56663,1,0,0:0:0:0:
320,192,56755,1,0,0:0:0:0:
448,192,56847,1,0,0:0:0:0:
192,192,56939,1,0,0:0:0:0:
64,192,57031,1,0,0:0:0:0:
320,192,57031,1,0,0:0:0:0:
448,192,57093,1,0,0:0:0:0:
192,192,57154,1,0,0:0:0:0:
320,192,57216,1,0,0:0:0:0:
64,192,57277,1,0,0:0:0:0:
448,192,57338,1,0,0:0:0:0:
64,192,57400,1,0,0:0:0:0:
192,192,57400,1,0,0:0:0:0:
320,192,57461,1,0,0:0:0:0:
64,192,57522,1,0,0:0:0:0:
448,192,57584,1,0,0:0:0:0:
192,192,57645,1,0,0:0:0:0:
320,192,57706,1,0,0:0:0:0:
64,192,57768,1,0,0:0:0:0:
192,192,57768,1,0,0:0:0:0:
448,192,57829,1,0,0:0:0:0:
192,192,57890,1,0,0:0:0:0:
320,192,57952,1,0,0:0:0:0:
64,192,58013,1,0,0:0:0:0:
192,192,58074,1,0,0:0:0:0:
320,192,58136,1,0,0:0:0:0:
448,192,58136,1,0,0:0:0:0:
64,192,58182,1,0,0:0:0:0:
192,192,58228,1,0,0:0:0:0:
448,192,58274,1,0,0:0:0:0:
64,192,58320,1,0,0:0:0:0:
192,192,58320,1,0,0:0:0:0:
64,192,58504,1,0,0:0:0:0:
448,192,58504,1,0,0:0:0:0:
64,192,58688,1,0,0:0:0:0:
320,192,58688,1,0,0:0:0:0:
448,192,58688,1,0,0:0:0:0:
192,192,58872,1,0,0:0:0:0:
448,192,58872,1,0,0:0:0:0:
192,192,59056,1,0,0:0:0:0:
320,192,59056,1,0,0:0:0:0:
64,192,59240,1,0,0:0:0:0:
448,192,59240,1,0,0:0:0:0:
320,192,59516,1,0,0:0:0:0:
448,192,59516,1,0,0:0:0:0:
64,192,59608,1,0,0:0:0:0:
448,192,59608,1,0,0:0:0:0:
64,192,59792,1,0,0:0:0:0:
320,192,59792,1,0,0:0:0:0:
320,192,59976,1,0,0:0:0:0:
448,192,59976,1,0,0:0:0:0:
448,192,60068,1,0,0:0:0:0:
64,192,60160,1,0,0:0:0:0:
192,192,60206,1,0,0:0:0:0:
320,192,60252,1,0,0:0:0:0:
448,192,60298,1,0,0:0:0:0:
64,192,60344,1,0,0:0:0:0:
192,192,60390,1,0,0:0:0:0:
448,192,60436,1,0,0:0:0:0:
320,192,60482,1,0,0:0:0:0:
64,192,60528,1,0,0:0:0:0:
448,192,60574,1,0,0:0:0:0:
320,192,60620,1,0,0:0:0:0:
192,192,60666,1,0,0:0:0:0:
64,192,60712,1,0,0:0:0:0:
448,192,60758,1,0,0:0:0:0:
192,192,60804,1,0,0:0:0:0:
320,192,60850,1,0,0:0:0:0:
448,192,60896,1,0,0:0:0:0:
64,192,60943,1,0,0:0:0:0:
192,192,60989,1,0,0:0:0:0:
320,192,61035,1,0,0:0:0:0:
448,192,61081,1,0,0:0:0:0:
64,192,61127,1,0,0:0:0:0:
192,192,61173,1,0,0:0:0:0:
448,192,61219,1,0,0:0:0:0:
320,192,61265,1,0,0:0:0:0:
64,192,61311,1,0,0:0:0:0:
192,192,61357,1,0,0:0:0:0:
448,192,61403,1,0,0:0:0:0:
64,192,61449,1,0,0:0:0:0:
192,192,61495,1,0,0:0:0:0:
320,192,61541,1,0,0:0:0:0:
448,192,61587,1,0,0:0:0:0:
64,192,61633,1,0,0:0:0:0:
192,192,61679,1,0,0:0:0:0:
320,192,61725,1,0,0:0:0:0:
448,192,61771,1,0,0:0:0:0:
192,192,61817,1,0,0:0:0:0:
320,192,61863,1,0,0:0:0:0:
192,192,61909,1,0,0:0:0:0:
64,192,61955,1,0,0:0:0:0:
448,192,62001,1,0,0:0:0:0:
320,192,62047,1,0,0:0:0:0:
192,192,62093,1,0,0:0:0:0:
64,192,62139,1,0,0:0:0:0:
448,192,62185,1,0,0:0:0:0:
320,192,62231,1,0,0:0:0:0:
192,192,62277,1,0,0:0:0:0:
448,192,62323,1,0,0:0:0:0:
64,192,62369,1,0,0:0:0:0:
192,192,62415,1,0,0:0:0:0:
320,192,62461,1,0,0:0:0:0:
448,192,62507,1,0,0:0:0:0:
64,192,62553,1,0,0:0:0:0:
192,192,62599,1,0,0:0:0:0:
320,192,62645,1,0,0:0:0:0:
64,192,62691,1,0,0:0:0:0:
192,192,62737,1,0,0:0:0:0:
448,192,62783,1,0,0:0:0:0:
320,192,62829,1,0,0:0:0:0:
192,192,62875,1,0,0:0:0:0:
448,192,62921,1,0,0:0:0:0:
64,192,62967,1,0,0:0:0:0:
320,192,63013,1,0,0:0:0:0:
448,192,63059,1,0,0:0:0:0:
64,192,63105,1,0,0:0:0:0:
192,192,63151,1,0,0:0:0:0:
320,192,63197,1,0,0:0:0:0:
448,192,63243,1,0,0:0:0:0:
64,192,63289,1,0,0:0:0:0:
192,192,63335,1,0,0:0:0:0:
320,192,63381,1,0,0:0:0:0:
448,192,63427,1,0,0:0:0:0:
64,192,63473,1,0,0:0:0:0:
320,192,63519,1,0,0:0:0:0:
192,192,63565,1,0,0:0:0:0:
64,192,63611,1,0,0:0:0:0:
448,192,63657,1,0,0:0:0:0:
320,192,63703,1,0,0:0:0:0:
64,192,63749,1,0,0:0:0:0:
448,192,63795,1,0,0:0:0:0:
320,192,63841,1,0,0:0:0:0:
192,192,63887,1,0,0:0:0:0:
64,192,63933,1,0,0:0:0:0:
448,192,63979,1,0,0:0:0:0:
192,192,64025,1,0,0:0:0:0:
320,192,64071,1,0,0:0:0:0:
192,192,64117,1,0,0:0:0:0:
64,192,64163,1,0,0:0:0:0:
448,192,64209,1,0,0:0:0:0:
192,192,64255,1,0,0:0:0:0:
320,192,64301,1,0,0:0:0:0:
64,192,64347,1,0,0:0:0:0:
448,192,64393,1,0,0:0:0:0:
320,192,64439,1,0,0:0:0:0:
192,192,64485,1,0,0:0:0:0:
448,192,64531,1,0,0:0:0:0:
64,192,64577,1,0,0:0:0:0:
192,192,64623,1,0,0:0:0:0:
320,192,64670,1,0,0:0:0:0:
64,192,64716,1,0,0:0:0:0:
192,192,64762,1,0,0:0:0:0:
448,192,64808,1,0,0:0:0:0:
192,192,64854,1,0,0:0:0:0:
320,192,64900,1,0,0:0:0:0:
448,192,64946,1,0,0:0:0:0:
64,192,64992,1,0,0:0:0:0:
320,192,65038,1,0,0:0:0:0:
448,192,65084,1,0,0:0:0:0:
192,192,65130,1,0,0:0:0:0:
320,192,65176,1,0,0:0:0:0:
448,192,65222,1,0,0:0:0:0:
64,192,65268,1,0,0:0:0:0:
192,192,65314,1,0,0:0:0:0:
448,192,65360,1,0,0:0:0:0:
64,192,65406,1,0,0:0:0:0:
192,192,65452,1,0,0:0:0:0:
320,192,65498,1,0,0:0:0:0:
64,192,65544,1,0,0:0:0:0:
320,192,65590,1,0,0:0:0:0:
448,192,65636,1,0,0:0:0:0:
64,192,65682,1,0,0:0:0:0:
192,192,65728,1,0,0:0:0:0:
448,192,65774,1,0,0:0:0:0:
64,192,65820,1,0,0:0:0:0:
192,192,65866,1,0,0:0:0:0:
320,192,65912,1,0,0:0:0:0:
64,192,65958,1,0,0:0:0:0:
192,192,66004,1,0,0:0:0:0:
320,192,66050,1,0,0:0:0:0:
448,192,66050,1,0,0:0:0:0:
64,192,66096,1,0,0:0:0:0:
192,192,66142,1,0,0:0:0:0:
320,192,66188,1,0,0:0:0:0:
448,192,66234,1,0,0:0:0:0:
192,192,66280,1,0,0:0:0:0:
320,192,66326,1,0,0:0:0:0:
64,192,66372,1,0,0:0:0:0:
192,192,66418,1,0,0:0:0:0:
448,192,66464,1,0,0:0:0:0:
320,192,66510,1,0,0:0:0:0:
192,192,66556,1,0,0:0:0:0:
448,192,66602,1,0,0:0:0:0:
64,192,66648,1,0,0:0:0:0:
192,192,66694,1,0,0:0:0:0:
320,192,66740,1,0,0:0:0:0:
448,192,66786,1,0,0:0:0:0:
64,192,66832,1,0,0:0:0:0:
192,192,66878,1,0,0:0:0:0:
448,192,66924,1,0,0:0:0:0:
320,192,66970,1,0,0:0:0:0:
64,192,67016,1,0,0:0:0:0:
192,192,67062,1,0,0:0:0:0:
448,192,67108,1,0,0:0:0:0:
320,192,67154,1,0,0:0:0:0:
64,192,67200,1,0,0:0:0:0:
448,192,67246,1,0,0:0:0:0:
320,192,67292,1,0,0:0:0:0:
192,192,67338,1,0,0:0:0:0:
448,192,67384,1,0,0:0:0:0:
320,192,67430,1,0,0:0:0:0:
192,192,67476,1,0,0:0:0:0:
64,192,67522,1,0,0:0:0:0:
448,192,67568,1,0,0:0:0:0:
192,192,67614,1,0,0:0:0:0:
64,192,67660,1,0,0:0:0:0:
320,192,67706,1,0,0:0:0:0:
448,192,67752,1,0,0:0:0:0:
320,192,67798,1,0,0:0:0:0:
192,192,67844,1,0,0:0:0:0:
64,192,67890,1,0,0:0:0:0:
320,192,67936,1,0,0:0:0:0:
448,192,67982,1,0,0:0:0:0:
64,192,68028,1,0,0:0:0:0:
192,192,68074,1,0,0:0:0:0:
448,192,68120,1,0,0:0:0:0:
64,192,68166,1,0,0:0:0:0:
192,192,68212,1,0,0:0:0:0:
320,192,68258,1,0,0:0:0:0:
448,192,68304,1,0,0:0:0:0:
64,192,68350,1,0,0:0:0:0:
320,192,68396,1,0,0:0:0:0:
192,192,68443,1,0,0:0:0:0:
448,192,68489,1,0,0:0:0:0:
320,192,68535,1,0,0:0:0:0:
64,192,68581,1,0,0:0:0:0:
448,192,68627,1,0,0:0:0:0:
320,192,68673,1,0,0:0:0:0:
192,192,68719,1,0,0:0:0:0:
448,192,68765,1,0,0:0:0:0:
64,192,68811,1,0,0:0:0:0:
192,192,68857,1,0,0:0:0:0:
320,192,68903,1,0,0:0:0:0:
448,192,68949,1,0,0:0:0:0:
64,192,68995,1,0,0:0:0:0:
320,192,69041,1,0,0:0:0:0:
192,192,69087,1,0,0:0:0:0:
448,192,69133,1,0,0:0:0:0:
64,192,69179,1,0,0:0:0:0:
192,192,69225,1,0,0:0:0:0:
320,192,69271,1,0,0:0:0:0:
448,192,69317,1,0,0:0:0:0:
64,192,69363,1,0,0:0:0:0:
192,192,69409,1,0,0:0:0:0:
448,192,69455,1,0,0:0:0:0:
64,192,69501,1,0,0:0:0:0:
320,192,69547,1,0,0:0:0:0:
192,192,69593,1,0,0:0:0:0:
448,192,69639,1,0,0:0:0:0:
320,192,69685,1,0,0:0:0:0:
64,192,69731,1,0,0:0:0:0:
192,192,69777,1,0,0:0:0:0:
448,192,69823,1,0,0:0:0:0:
64,192,69869,1,0,0:0:0:0:
192,192,69915,1,0,0:0:0:0:
320,192,69961,1,0,0:0:0:0:
64,192,70007,1,0,0:0:0:0:
448,192,70053,1,0,0:0:0:0:
320,192,70099,1,0,0:0:0:0:
192,192,70145,1,0,0:0:0:0:
64,192,70191,1,0,0:0:0:0:
448,192,70237,1,0,0:0:0:0:
192,192,70283,1,0,0:0:0:0:
320,192,70329,1,0,0:0:0:0:
64,192,70375,1,0,0:0:0:0:
192,192,70421,1,0,0:0:0:0:
448,192,70467,1,0,0:0:0:0:
320,192,70513,1,0,0:0:0:0:
192,192,70559,1,0,0:0:0:0:
64,192,70605,1,0,0:0:0:0:
448,192,70651,1,0,0:0:0:0:
192,192,70697,1,0,0:0:0:0:
320,192,70743,1,0,0:0:0:0:
448,192,70789,1,0,0:0:0:0:
64,192,70835,1,0,0:0:0:0:
192,192,70881,1,0,0:0:0:0:
320,192,70927,1,0,0:0:0:0:
448,192,70973,1,0,0:0:0:0:
192,192,71019,1,0,0:0:0:0:
64,192,71065,1,0,0:0:0:0:
320,192,71111,1,0,0:0:0:0:
192,192,71157,1,0,0:0:0:0:
448,192,71203,1,0,0:0:0:0:
320,192,71249,1,0,0:0:0:0:
192,192,71295,1,0,0:0:0:0:
64,192,71341,1,0,0:0:0:0:
448,192,71387,1,0,0:0:0:0:
320,192,71449,1,0,0:0:0:0:
192,192,71510,1,0,0:0:0:0:
448,192,71571,1,0,0:0:0:0:
320,192,71633,1,0,0:0:0:0:
64,192,71694,1,0,0:0:0:0:
320,192,71755,1,0,0:0:0:0:
192,192,71817,1,0,0:0:0:0:
64,192,71878,1,0,0:0:0:0:
320,192,71939,1,0,0:0:0:0:
448,192,71939,1,0,0:0:0:0:
64,192,72031,1,0,0:0:0:0:
192,192,72031,1,0,0:0:0:0:
320,192,72123,1,0,0:0:0:0:
448,192,72123,1,0,0:0:0:0:
64,192,72216,1,0,0:0:0:0:
192,192,72216,1,0,0:0:0:0:
320,192,72308,1,0,0:0:0:0:
448,192,72308,1,0,0:0:0:0:
64,192,72400,1,0,0:0:0:0:
192,192,72400,1,0,0:0:0:0:
448,192,72492,1,0,0:0:0:0:
192,192,72584,1,0,0:0:0:0:
320,192,72584,1,0,0:0:0:0:
64,192,72676,1,0,0:0:0:0:
448,192,72768,1,0,0:0:0:0:
192,192,72860,1,0,0:0:0:0:
448,192,72860,1,0,0:0:0:0:
64,192,72952,1,0,0:0:0:0:
320,192,73044,1,0,0:0:0:0:
448,192,73044,1,0,0:0:0:0:
192,192,73136,1,0,0:0:0:0:
64,192,73228,1,0,0:0:0:0:
320,192,73228,1,0,0:0:0:0:
192,192,73320,1,0,0:0:0:0:
448,192,73320,1,0,0:0:0:0:
64,192,73412,1,0,0:0:0:0:
320,192,73412,1,0,0:0:0:0:
448,192,73504,1,0,0:0:0:0:
64,192,73596,1,0,0:0:0:0:
192,192,73596,1,0,0:0:0:0:
320,192,73688,1,0,0:0:0:0:
192,192,73780,1,0,0:0:0:0:
448,192,73780,1,0,0:0:0:0:
64,192,73872,1,0,0:0:0:0:
320,192,73964,1,0,0:0:0:0:
448,192,73964,1,0,0:0:0:0:
64,192,74056,1,0,0:0:0:0:
192,192,74056,1,0,0:0:0:0:
448,192,74148,1,0,0:0:0:0:
320,192,74240,1,0,0:0:0:0:
448,192,74240,1,0,0:0:0:0:
64,192,74332,1,0,0:0:0:0:
192,192,74332,1,0,0:0:0:0:
64,192,74424,1,0,0:0:0:0:
192,192,74516,1,0,0:0:0:0:
320,192,74516,1,0,0:0:0:0:
320,192,74608,1,0,0:0:0:0:
448,192,74700,1,0,0:0:0:0:
192,192,74700,1,0,0:0:0:0:
192,192,74792,1,0,0:0:0:0:
448,192,74884,1,0,0:0:0:0:
320,192,74884,1,0,0:0:0:0:
192,192,74976,1,0,0:0:0:0:
64,192,74976,1,0,0:0:0:0:
448,192,75068,1,0,0:0:0:0:
320,192,75068,1,0,0:0:0:0:
192,192,75160,1,0,0:0:0:0:
64,192,75160,1,0,0:0:0:0:
448,192,75252,1,0,0:0:0:0:
320,192,75252,1,0,0:0:0:0:
192,192,75344,1,0,0:0:0:0:
64,192,75344,1,0,0:0:0:0:
320,192,75436,1,0,0:0:0:0:
192,192,75528,1,0,0:0:0:0:
448,192,75528,1,0,0:0:0:0:
320,192,75620,1,0,0:0:0:0:
64,192,75712,1,0,0:0:0:0:
64,192,75804,1,0,0:0:0:0:
320,192,75804,1,0,0:0:0:0:
448,192,75896,1,0,0:0:0:0:
192,192,75989,1,0,0:0:0:0:
320,192,75989,1,0,0:0:0:0:
64,192,76081,1,0,0:0:0:0:
192,192,76173,1,0,0:0:0:0:
320,192,76173,1,0,0:0:0:0:
64,192,76265,1,0,0:0:0:0:
448,192,76265,1,0,0:0:0:0:
192,192,76357,1,0,0:0:0:0:
320,192,76357,1,0,0:0:0:0:
448,192,76449,1,0,0:0:0:0:
64,192,76541,1,0,0:0:0:0:
192,192,76541,1,0,0:0:0:0:
320,192,76633,1,0,0:0:0:0:
64,192,76725,1,0,0:0:0:0:
448,192,76725,1,0,0:0:0:0:
192,192,76817,1,0,0:0:0:0:
448,192,76909,1,0,0:0:0:0:
64,192,77001,1,0,0:0:0:0:
192,192,77093,1,0,0:0:0:0:
448,192,77093,1,0,0:0:0:0:
192,192,77185,1,0,0:0:0:0:
64,192,77277,1,0,0:0:0:0:
448,192,77277,1,0,0:0:0:0:
448,192,77369,1,0,0:0:0:0:
64,192,77461,1,0,0:0:0:0:
192,192,77461,1,0,0:0:0:0:
64,192,77553,1,0,0:0:0:0:
192,192,77645,1,0,0:0:0:0:
320,192,77645,1,0,0:0:0:0:
320,192,77737,1,0,0:0:0:0:
64,192,77829,1,0,0:0:0:0:
448,192,77829,1,0,0:0:0:0:
192,192,77921,1,0,0:0:0:0:
320,192,77921,1,0,0:0:0:0:
64,192,78013,1,0,0:0:0:0:
448,192,78013,1,0,0:0:0:0:
192,192,78105,1,0,0:0:0:0:
320,192,78105,1,0,0:0:0:0:
64,192,78197,1,0,0:0:0:0:
448,192,78197,1,0,0:0:0:0:
192,192,78289,1,0,0:0:0:0:
320,192,78289,1,0,0:0:0:0:
64,192,78381,1,0,0:0:0:0:
320,192,78473,1,0,0:0:0:0:
448,192,78473,1,0,0:0:0:0:
192,192,78565,1,0,0:0:0:0:
448,192,78657,1,0,0:0:0:0:
64,192,78749,1,0,0:0:0:0:
448,192,78749,1,0,0:0:0:0:
192,192,78841,1,0,0:0:0:0:
320,192,78933,1,0,0:0:0:0:
448,192,78933,1,0,0:0:0:0:
64,192,79025,1,0,0:0:0:0:
192,192,79117,1,0,0:0:0:0:
448,192,79117,1,0,0:0:0:0:
64,192,79209,1,0,0:0:0:0:
320,192,79209,1,0,0:0:0:0:
192,192,79301,1,0,0:0:0:0:
448,192,79301,1,0,0:0:0:0:
320,192,79393,1,0,0:0:0:0:
64,192,79485,1,0,0:0:0:0:
448,192,79577,1,0,0:0:0:0:
64,192,79670,1,0,0:0:0:0:
192,192,79670,1,0,0:0:0:0:
320,192,79762,1,0,0:0:0:0:
192,192,79854,1,0,0:0:0:0:
320,192,79946,1,0,0:0:0:0:
448,192,79946,1,0,0:0:0:0:
64,192,80038,1,0,0:0:0:0:
448,192,80130,1,0,0:0:0:0:
320,192,80222,1,0,0:0:0:0:
448,192,80222,1,0,0:0:0:0:
64,192,80314,1,0,0:0:0:0:
192,192,80314,1,0,0:0:0:0:
192,192,80406,1,0,0:0:0:0:
320,192,80406,1,0,0:0:0:0:
320,192,80498,1,0,0:0:0:0:
64,192,80590,1,0,0:0:0:0:
192,192,80590,1,0,0:0:0:0:
64,192,80682,1,0,0:0:0:0:
320,192,80774,1,0,0:0:0:0:
448,192,80774,1,0,0:0:0:0:
64,192,80866,1,0,0:0:0:0:
192,192,80866,1,0,0:0:0:0:
320,192,80958,1,0,0:0:0:0:
448,192,80958,1,0,0:0:0:0:
64,192,81050,1,0,0:0:0:0:
192,192,81050,1,0,0:0:0:0:
320,192,81142,1,0,0:0:0:0:
448,192,81142,1,0,0:0:0:0:
64,192,81234,1,0,0:0:0:0:
192,192,81234,1,0,0:0:0:0:
448,192,81326,1,0,0:0:0:0:
192,192,81418,1,0,0:0:0:0:
320,192,81418,1,0,0:0:0:0:
64,192,81510,1,0,0:0:0:0:
448,192,81602,1,0,0:0:0:0:
192,192,81694,1,0,0:0:0:0:
448,192,81694,1,0,0:0:0:0:
64,192,81786,1,0,0:0:0:0:
320,192,81878,1,0,0:0:0:0:
448,192,81878,1,0,0:0:0:0:
192,192,81970,1,0,0:0:0:0:
64,192,82062,1,0,0:0:0:0:
320,192,82062,1,0,0:0:0:0:
192,192,82154,1,0,0:0:0:0:
448,192,82154,1,0,0:0:0:0:
64,192,82246,1,0,0:0:0:0:
320,192,82246,1,0,0:0:0:0:
448,192,82338,1,0,0:0:0:0:
64,192,82430,1,0,0:0:0:0:
192,192,82430,1,0,0:0:0:0:
320,192,82522,1,0,0:0:0:0:
192,192,82614,1,0,0:0:0:0:
448,192,82614,1,0,0:0:0:0:
64,192,82706,1,0,0:0:0:0:
320,192,82798,1,0,0:0:0:0:
448,192,82798,1,0,0:0:0:0:
64,192,82890,1,0,0:0:0:0:
448,192,82982,1,0,0:0:0:0:
448,192,83074,1,0,0:0:0:0:
64,192,83166,1,0,0:0:0:0:
64,192,83258,1,0,0:0:0:0:
320,192,83350,1,0,0:0:0:0:
320,192,83443,1,0,0:0:0:0:
192,192,83535,1,0,0:0:0:0:
192,192,83627,1,0,0:0:0:0:
64,192,83719,1,0,0:0:0:0:
448,192,83719,1,0,0:0:0:0:
320,192,83719,1,0,0:0:0:0:
192,192,83811,1,0,0:0:0:0:
64,192,83903,1,0,0:0:0:0:
320,192,83903,1,0,0:0:0:0:
192,192,83995,1,0,0:0:0:0:
320,192,84087,1,0,0:0:0:0:
448,192,84087,1,0,0:0:0:0:
64,192,84179,1,0,0:0:0:0:
192,192,84271,1,0,0:0:0:0:
448,192,84271,1,0,0:0:0:0:
320,192,84363,1,0,0:0:0:0:
64,192,84455,1,0,0:0:0:0:
448,192,84455,1,0,0:0:0:0:
192,192,84547,1,0,0:0:0:0:
320,192,84639,1,0,0:0:0:0:
448,192,84639,1,0,0:0:0:0:
64,192,84731,1,0,0:0:0:0:
192,192,84823,1,0,0:0:0:0:
320,192,84823,1,0,0:0:0:0:
448,192,84915,1,0,0:0:0:0:
64,192,85007,1,0,0:0:0:0:
320,192,85007,1,0,0:0:0:0:
192,192,85068,1,0,0:0:0:0:
448,192,85130,1,0,0:0:0:0:
320,192,85191,1,0,0:0:0:0:
192,192,85252,1,0,0:0:0:0:
448,192,85314,1,0,0:0:0:0:
64,192,85375,1,0,0:0:0:0:
192,192,85375,1,0,0:0:0:0:
320,192,85467,1,0,0:0:0:0:
192,192,85559,1,0,0:0:0:0:
448,192,85559,1,0,0:0:0:0:
64,192,85651,1,0,0:0:0:0:
320,192,85743,1,0,0:0:0:0:
448,192,85743,1,0,0:0:0:0:
192,192,85835,1,0,0:0:0:0:
64,192,85927,1,0,0:0:0:0:
320,192,85927,1,0,0:0:0:0:
448,192,86019,1,0,0:0:0:0:
64,192,86111,1,0,0:0:0:0:
192,192,86111,1,0,0:0:0:0:
320,192,86203,1,0,0:0:0:0:
448,192,86295,1,0,0:0:0:0:
192,192,86387,1,0,0:0:0:0:
64,192,86479,1,0,0:0:0:0:
320,192,86571,1,0,0:0:0:0:
192,192,86663,1,0,0:0:0:0:
448,192,86663,1,0,0:0:0:0:
320,192,86755,1,0,0:0:0:0:
64,192,86847,1,0,0:0:0:0:
448,192,86847,1,0,0:0:0:0:
192,192,86939,1,0,0:0:0:0:
320,192,87031,1,0,0:0:0:0:
448,192,87031,1,0,0:0:0:0:
64,192,87123,1,0,0:0:0:0:
192,192,87216,1,0,0:0:0:0:
448,192,87216,1,0,0:0:0:0:
320,192,87277,1,0,0:0:0:0:
64,192,87338,1,0,0:0:0:0:
448,192,87400,1,0,0:0:0:0:
320,192,87461,1,0,0:0:0:0:
192,192,87522,1,0,0:0:0:0:
448,192,87584,1,0,0:0:0:0:
64,192,87676,1,0,0:0:0:0:
320,192,87768,1,0,0:0:0:0:
448,192,87768,1,0,0:0:0:0:
192,192,87860,1,0,0:0:0:0:
64,192,87952,1,0,0:0:0:0:
448,192,87952,1,0,0:0:0:0:
320,192,88044,1,0,0:0:0:0:
64,192,88136,1,0,0:0:0:0:
192,192,88136,1,0,0:0:0:0:
448,192,88136,1,0,0:0:0:0:
320,192,88228,1,0,0:0:0:0:
192,192,88320,1,0,0:0:0:0:
320,192,88504,1,0,0:0:0:0:
448,192,88504,1,0,0:0:0:0:
192,192,88596,1,0,0:0:0:0:
64,192,88688,1,0,0:0:0:0:
320,192,88688,1,0,0:0:0:0:
192,192,88964,1,0,0:0:0:0:
64,192,89056,1,0,0:0:0:0:
448,192,89056,1,0,0:0:0:0:
320,192,89240,1,0,0:0:0:0:
448,192,89240,1,0,0:0:0:0:
192,192,89301,1,0,0:0:0:0:
64,192,89363,1,0,0:0:0:0:
320,192,89424,1,0,0:0:0:0:
448,192,89424,1,0,0:0:0:0:
192,192,89516,1,0,0:0:0:0:
64,192,89608,1,0,0:0:0:0:
320,192,89608,1,0,0:0:0:0:
448,192,89608,1,0,0:0:0:0:
192,192,89700,1,0,0:0:0:0:
64,192,89792,1,0,0:0:0:0:
448,192,89792,1,0,0:0:0:0:
320,192,89884,1,0,0:0:0:0:
64,192,89976,1,0,0:0:0:0:
192,192,89976,1,0,0:0:0:0:
448,192,90068,1,0,0:0:0:0:
192,192,90160,1,0,0:0:0:0:
320,192,90160,1,0,0:0:0:0:
64,192,90252,1,0,0:0:0:0:
192,192,90344,1,0,0:0:0:0:
448,192,90344,1,0,0:0:0:0:
320,192,90436,1,0,0:0:0:0:
64,192,90528,1,0,0:0:0:0:
192,192,90528,1,0,0:0:0:0:
448,192,90620,1,0,0:0:0:0:
192,192,90712,1,0,0:0:0:0:
320,192,90712,1,0,0:0:0:0:
64,192,90804,1,0,0:0:0:0:
320,192,90896,1,0,0:0:0:0:
448,192,90896,1,0,0:0:0:0:
192,192,90958,1,0,0:0:0:0:
64,192,91019,1,0,0:0:0:0:
448,192,91081,1,0,0:0:0:0:
320,192,91142,1,0,0:0:0:0:
64,192,91203,1,0,0:0:0:0:
320,192,91265,1,0,0:0:0:0:
448,192,91265,1,0,0:0:0:0:
192,192,91357,1,0,0:0:0:0:
64,192,91449,1,0,0:0:0:0:
320,192,91449,1,0,0:0:0:0:
192,192,91541,1,0,0:0:0:0:
320,192,91633,1,0,0:0:0:0:
448,192,91633,1,0,0:0:0:0:
64,192,91725,1,0,0:0:0:0:
192,192,91817,1,0,0:0:0:0:
448,192,91817,1,0,0:0:0:0:
320,192,91909,1,0,0:0:0:0:
64,192,92001,1,0,0:0:0:0:
192,192,92001,1,0,0:0:0:0:
448,192,92093,1,0,0:0:0:0:
192,192,92185,1,0,0:0:0:0:
320,192,92185,1,0,0:0:0:0:
64,192,92277,1,0,0:0:0:0:
448,192,92369,1,0,0:0:0:0:
192,192,92461,1,0,0:0:0:0:
320,192,92553,1,0,0:0:0:0:
448,192,92553,1,0,0:0:0:0:
64,192,92645,1,0,0:0:0:0:
192,192,92737,1,0,0:0:0:0:
448,192,92737,1,0,0:0:0:0:
320,192,92829,1,0,0:0:0:0:
64,192,92921,1,0,0:0:0:0:
192,192,92921,1,0,0:0:0:0:
448,192,93013,1,0,0:0:0:0:
320,192,93105,1,0,0:0:0:0:
64,192,93105,1,0,0:0:0:0:
192,192,93166,1,0,0:0:0:0:
448,192,93228,1,0,0:0:0:0:
64,192,93289,1,0,0:0:0:0:
192,192,93350,1,0,0:0:0:0:
448,192,93412,1,0,0:0:0:0:
64,192,93473,1,0,0:0:0:0:
320,192,93473,1,0,0:0:0:0:
192,192,93565,1,0,0:0:0:0:
320,192,93657,1,0,0:0:0:0:
448,192,93657,1,0,0:0:0:0:
64,192,93749,1,0,0:0:0:0:
448,192,93841,1,0,0:0:0:0:
192,192,93841,1,0,0:0:0:0:
320,192,93933,1,0,0:0:0:0:
64,192,94025,1,0,0:0:0:0:
448,192,94025,1,0,0:0:0:0:
320,192,94117,1,0,0:0:0:0:
64,192,94209,1,0,0:0:0:0:
192,192,94209,1,0,0:0:0:0:
448,192,94301,1,0,0:0:0:0:
192,192,94393,1,0,0:0:0:0:
320,192,94393,1,0,0:0:0:0:
64,192,94485,1,0,0:0:0:0:
192,192,94577,1,0,0:0:0:0:
448,192,94577,1,0,0:0:0:0:
320,192,94670,1,0,0:0:0:0:
64,192,94762,1,0,0:0:0:0:
192,192,94762,1,0,0:0:0:0:
320,192,94823,1,0,0:0:0:0:
448,192,94884,1,0,0:0:0:0:
64,192,94946,1,0,0:0:0:0:
192,192,94946,1,0,0:0:0:0:
320,192,95038,1,0,0:0:0:0:
192,192,95130,1,0,0:0:0:0:
448,192,95130,1,0,0:0:0:0:
64,192,95222,1,0,0:0:0:0:
320,192,95314,1,0,0:0:0:0:
64,192,95406,1,0,0:0:0:0:
320,192,95498,1,0,0:0:0:0:
448,192,95498,1,0,0:0:0:0:
192,192,95590,1,0,0:0:0:0:
64,192,95682,1,0,0:0:0:0:
448,192,95682,1,0,0:0:0:0:
320,192,95774,1,0,0:0:0:0:
64,192,95866,1,0,0:0:0:0:
192,192,95866,1,0,0:0:0:0:
320,192,95958,1,0,0:0:0:0:
192,192,96050,1,0,0:0:0:0:
448,192,96050,1,0,0:0:0:0:
64,192,96111,1,0,0:0:0:0:
448,192,96173,1,0,0:0:0:0:
320,192,96234,1,0,0:0:0:0:
192,192,96295,1,0,0:0:0:0:
64,192,96357,1,0,0:0:0:0:
320,192,96418,1,0,0:0:0:0:
448,192,96418,1,0,0:0:0:0:
192,192,96510,1,0,0:0:0:0:
448,192,96602,1,0,0:0:0:0:
64,192,96694,1,0,0:0:0:0:
320,192,96786,1,0,0:0:0:0:
448,192,96786,1,0,0:0:0:0:
192,192,96878,1,0,0:0:0:0:
64,192,96970,1,0,0:0:0:0:
448,192,97062,1,0,0:0:0:0:
64,192,97154,1,0,0:0:0:0:
192,192,97154,1,0,0:0:0:0:
320,192,97246,1,0,0:0:0:0:
192,192,97338,1,0,0:0:0:0:
448,192,97338,1,0,0:0:0:0:
64,192,97430,1,0,0:0:0:0:
320,192,97522,1,0,0:0:0:0:
448,192,97522,1,0,0:0:0:0:
192,192,97614,1,0,0:0:0:0:
64,192,97706,1,0,0:0:0:0:
448,192,97798,1,0,0:0:0:0:
192,192,97890,1,0,0:0:0:0:
320,192,97982,1,0,0:0:0:0:
64,192,98074,1,0,0:0:0:0:
448,192,98166,1,0,0:0:0:0:
64,192,98258,1,0,0:0:0:0:
192,192,98258,1,0,0:0:0:0:
448,192,98320,1,0,0:0:0:0:
192,192,98381,1,0,0:0:0:0:
320,192,98443,1,0,0:0:0:0:
64,192,98504,1,0,0:0:0:0:
448,192,98565,1,0,0:0:0:0:
64,192,98627,1,0,0:0:0:0:
192,192,98627,1,0,0:0:0:0:
320,192,98688,1,0,0:0:0:0:
64,192,98749,1,0,0:0:0:0:
448,192,98811,1,0,0:0:0:0:
192,192,98872,1,0,0:0:0:0:
64,192,98933,1,0,0:0:0:0:
320,192,98995,1,0,0:0:0:0:
448,192,98995,1,0,0:0:0:0:
192,192,99056,1,0,0:0:0:0:
448,192,99117,1,0,0:0:0:0:
64,192,99179,1,0,0:0:0:0:
320,192,99240,1,0,0:0:0:0:
192,192,99301,1,0,0:0:0:0:
320,192,99363,1,0,0:0:0:0:
448,192,99363,1,0,0:0:0:0:
64,192,99424,1,0,0:0:0:0:
320,192,99485,1,0,0:0:0:0:
192,192,99547,1,0,0:0:0:0:
448,192,99608,1,0,0:0:0:0:
320,192,99670,1,0,0:0:0:0:
64,192,99731,1,0,0:0:0:0:
192,192,99731,1,0,0:0:0:0:
448,192,99792,1,0,0:0:0:0:
192,192,99854,1,0,0:0:0:0:
320,192,99915,1,0,0:0:0:0:
64,192,99976,1,0,0:0:0:0:
448,192,100038,1,0,0:0:0:0:
320,192,100099,1,0,0:0:0:0:
192,192,100160,1,0,0:0:0:0:
64,192,100222,1,0,0:0:0:0:
448,192,100283,1,0,0:0:0:0:
320,192,100344,1,0,0:0:0:0:
64,192,100406,1,0,0:0:0:0:
320,192,100467,1,0,0:0:0:0:
448,192,100467,1,0,0:0:0:0:
192,192,100528,1,0,0:0:0:0:
64,192,100590,1,0,0:0:0:0:
320,192,100651,1,0,0:0:0:0:
448,192,100651,1,0,0:0:0:0:
64,192,100743,1,0,0:0:0:0:
192,192,100743,1,0,0:0:0:0:
320,192,100835,1,0,0:0:0:0:
448,192,100835,1,0,0:0:0:0:
64,192,100927,1,0,0:0:0:0:
320,192,101019,1,0,0:0:0:0:
448,192,101111,1,0,0:0:0:0:
192,192,101203,1,0,0:0:0:0:
64,192,101295,1,0,0:0:0:0:
320,192,101387,1,0,0:0:0:0:
448,192,101387,1,0,0:0:0:0:
192,192,101479,1,0,0:0:0:0:
64,192,101571,1,0,0:0:0:0:
320,192,101571,1,0,0:0:0:0:
448,192,101663,1,0,0:0:0:0:
64,192,101755,1,0,0:0:0:0:
192,192,101755,1,0,0:0:0:0:
320,192,101847,1,0,0:0:0:0:
64,192,101939,1,0,0:0:0:0:
448,192,101939,1,0,0:0:0:0:
192,192,102031,1,0,0:0:0:0:
448,192,102123,1,0,0:0:0:0:
64,192,102216,1,0,0:0:0:0:
320,192,102308,1,0,0:0:0:0:
448,192,102308,1,0,0:0:0:0:
192,192,102400,1,0,0:0:0:0:
64,192,102492,1,0,0:0:0:0:
320,192,102492,1,0,0:0:0:0:
448,192,102584,1,0,0:0:0:0:
192,192,102676,1,0,0:0:0:0:
320,192,102676,1,0,0:0:0:0:
64,192,102768,1,0,0:0:0:0:
448,192,102860,1,0,0:0:0:0:
192,192,102952,1,0,0:0:0:0:
64,192,103044,1,0,0:0:0:0:
320,192,103044,1,0,0:0:0:0:
448,192,103136,1,0,0:0:0:0:
64,192,103228,1,0,0:0:0:0:
192,192,103228,1,0,0:0:0:0:
320,192,103320,1,0,0:0:0:0:
64,192,103412,1,0,0:0:0:0:
448,192,103412,1,0,0:0:0:0:
192,192,103504,1,0,0:0:0:0:
320,192,103596,1,0,0:0:0:0:
448,192,103688,1,0,0:0:0:0:
64,192,103780,1,0,0:0:0:0:
192,192,103780,1,0,0:0:0:0:
320,192,103872,1,0,0:0:0:0:
448,192,103964,1,0,0:0:0:0:
192,192,104056,1,0,0:0:0:0:
320,192,104148,1,0,0:0:0:0:
448,192,104148,1,0,0:0:0:0:
64,192,104209,1,0,0:0:0:0:
320,192,104271,1,0,0:0:0:0:
192,192,104332,1,0,0:0:0:0:
448,192,104393,1,0,0:0:0:0:
64,192,104455,1,0,0:0:0:0:
320,192,104516,1,0,0:0:0:0:
448,192,104516,1,0,0:0:0:0:
192,192,104577,1,0,0:0:0:0:
64,192,104639,1,0,0:0:0:0:
448,192,104700,1,0,0:0:0:0:
192,192,104762,1,0,0:0:0:0:
320,192,104823,1,0,0:0:0:0:
64,192,104884,1,0,0:0:0:0:
192,192,104884,1,0,0:0:0:0:
448,192,104946,1,0,0:0:0:0:
64,192,105007,1,0,0:0:0:0:
320,192,105068,1,0,0:0:0:0:
192,192,105130,1,0,0:0:0:0:
448,192,105191,1,0,0:0:0:0:
64,192,105252,1,0,0:0:0:0:
192,192,105252,1,0,0:0:0:0:
320,192,105314,1,0,0:0:0:0:
448,192,105375,1,0,0:0:0:0:
64,192,105436,1,0,0:0:0:0:
192,192,105436,1,0,0:0:0:0:
64,192,105620,1,0,0:0:0:0:
192,192,105620,1,0,0:0:0:0:
320,192,105620,1,0,0:0:0:0:
64,192,105804,1,0,0:0:0:0:
448,192,105804,1,0,0:0:0:0:
64,192,105989,1,0,0:0:0:0:
192,192,105989,1,0,0:0:0:0:
320,192,106173,1,0,0:0:0:0:
448,192,106173,1,0,0:0:0:0:
192,192,106357,1,0,0:0:0:0:
448,192,106357,1,0,0:0:0:0:
320,192,106633,1,0,0:0:0:0:
448,192,106633,1,0,0:0:0:0:
64,192,106725,1,0,0:0:0:0:
448,192,106725,1,0,0:0:0:0:
192,192,106909,1,0,0:0:0:0:
320,192,106909,1,0,0:0:0:0:
64,192,107093,1,0,0:0:0:0:
192,192,107093,1,0,0:0:0:0:
192,192,107185,1,0,0:0:0:0:
448,192,107277,1,0,0:0:0:0:
320,192,107323,1,0,0:0:0:0:
192,192,107369,1,0,0:0:0:0:
64,192,107415,1,0,0:0:0:0:
448,192,107461,1,0,0:0:0:0:
320,192,107507,1,0,0:0:0:0:
64,192,107553,1,0,0:0:0:0:
192,192,107599,1,0,0:0:0:0:
448,192,107645,1,0,0:0:0:0:
64,192,107691,1,0,0:0:0:0:
192,192,107737,1,0,0:0:0:0:
320,192,107783,1,0,0:0:0:0:
448,192,107829,1,0,0:0:0:0:
64,192,107875,1,0,0:0:0:0:
320,192,107921,1,0,0:0:0:0:
192,192,107967,1,0,0:0:0:0:
64,192,108013,1,0,0:0:0:0:
448,192,108059,1,0,0:0:0:0:
320,192,108105,1,0,0:0:0:0:
192,192,108151,1,0,0:0:0:0:
64,192,108197,1,0,0:0:0:0:
448,192,108243,1,0,0:0:0:0:
320,192,108289,1,0,0:0:0:0:
64,192,108335,1,0,0:0:0:0:
192,192,108381,1,0,0:0:0:0:
448,192,108427,1,0,0:0:0:0:
320,192,108473,1,0,0:0:0:0:
64,192,108519,1,0,0:0:0:0:
448,192,108565,1,0,0:0:0:0:
320,192,108611,1,0,0:0:0:0:
192,192,108657,1,0,0:0:0:0:
64,192,108703,1,0,0:0:0:0:
448,192,108749,1,0,0:0:0:0:
320,192,108795,1,0,0:0:0:0:
192,192,108841,1,0,0:0:0:0:
64,192,108887,1,0,0:0:0:0:
320,192,108933,1,0,0:0:0:0:
192,192,108979,1,0,0:0:0:0:
320,192,109025,1,0,0:0:0:0:
448,192,109071,1,0,0:0:0:0:
64,192,109117,1,0,0:0:0:0:
192,192,109163,1,0,0:0:0:0:
320,192,109209,1,0,0:0:0:0:
448,192,109255,1,0,0:0:0:0:
64,192,109301,1,0,0:0:0:0:
192,192,109347,1,0,0:0:0:0:
320,192,109393,1,0,0:0:0:0:
64,192,109439,1,0,0:0:0:0:
448,192,109485,1,0,0:0:0:0:
320,192,109531,1,0,0:0:0:0:
192,192,109577,1,0,0:0:0:0:
64,192,109623,1,0,0:0:0:0:
448,192,109670,1,0,0:0:0:0:
320,192,109716,1,0,0:0:0:0:
192,192,109762,1,0,0:0:0:0:
448,192,109808,1,0,0:0:0:0:
320,192,109854,1,0,0:0:0:0:
64,192,109900,1,0,0:0:0:0:
192,192,109946,1,0,0:0:0:0:
320,192,109992,1,0,0:0:0:0:
64,192,110038,1,0,0:0:0:0:
448,192,110084,1,0,0:0:0:0:
192,192,110130,1,0,0:0:0:0:
64,192,110176,1,0,0:0:0:0:
448,192,110222,1,0,0:0:0:0:
320,192,110268,1,0,0:0:0:0:
192,192,110314,1,0,0:0:0:0:
64,192,110360,1,0,0:0:0:0:
448,192,110406,1,0,0:0:0:0:
320,192,110452,1,0,0:0:0:0:
192,192,110498,1,0,0:0:0:0:
64,192,110544,1,0,0:0:0:0:
448,192,110590,1,0,0:0:0:0:
192,192,110636,1,0,0:0:0:0:
320,192,110682,1,0,0:0:0:0:
448,192,110728,1,0,0:0:0:0:
64,192,110774,1,0,0:0:0:0:
192,192,110820,1,0,0:0:0:0:
448,192,110866,1,0,0:0:0:0:
64,192,110912,1,0,0:0:0:0:
192,192,110958,1,0,0:0:0:0:
320,192,111004,1,0,0:0:0:0:
448,192,111050,1,0,0:0:0:0:
64,192,111096,1,0,0:0:0:0:
320,192,111142,1,0,0:0:0:0:
192,192,111188,1,0,0:0:0:0:
320,192,111234,1,0,0:0:0:0:
448,192,111280,1,0,0:0:0:0:
64,192,111326,1,0,0:0:0:0:
320,192,111372,1,0,0:0:0:0:
192,192,111418,1,0,0:0:0:0:
448,192,111464,1,0,0:0:0:0:
64,192,111510,1,0,0:0:0:0:
192,192,111556,1,0,0:0:0:0:
320,192,111602,1,0,0:0:0:0:
64,192,111648,1,0,0:0:0:0:
448,192,111694,1,0,0:0:0:0:
320,192,111740,1,0,0:0:0:0:
192,192,111786,1,0,0:0:0:0:
448,192,111832,1,0,0:0:0:0:
320,192,111878,1,0,0:0:0:0:
64,192,111924,1,0,0:0:0:0:
320,192,111970,1,0,0:0:0:0:
192,192,112016,1,0,0:0:0:0:
64,192,112062,1,0,0:0:0:0:
448,192,112108,1,0,0:0:0:0:
192,192,112154,1,0,0:0:0:0:
64,192,112200,1,0,0:0:0:0:
320,192,112246,1,0,0:0:0:0:
192,192,112292,1,0,0:0:0:0:
64,192,112338,1,0,0:0:0:0:
448,192,112384,1,0,0:0:0:0:
320,192,112430,1,0,0:0:0:0:
64,192,112476,1,0,0:0:0:0:
448,192,112522,1,0,0:0:0:0:
320,192,112568,1,0,0:0:0:0:
192,192,112614,1,0,0:0:0:0:
448,192,112660,1,0,0:0:0:0:
192,192,112706,1,0,0:0:0:0:
64,192,112752,1,0,0:0:0:0:
448,192,112798,1,0,0:0:0:0:
320,192,112844,1,0,0:0:0:0:
64,192,112890,1,0,0:0:0:0:
448,192,112936,1,0,0:0:0:0:
320,192,112982,1,0,0:0:0:0:
192,192,113028,1,0,0:0:0:0:
448,192,113074,1,0,0:0:0:0:
320,192,113120,1,0,0:0:0:0:
64,192,113166,1,0,0:0:0:0:
192,192,113166,1,0,0:0:0:0:
448,192,113212,1,0,0:0:0:0:
320,192,113258,1,0,0:0:0:0:
192,192,113304,1,0,0:0:0:0:
64,192,113350,1,0,0:0:0:0:
320,192,113396,1,0,0:0:0:0:
192,192,113443,1,0,0:0:0:0:
448,192,113489,1,0,0:0:0:0:
320,192,113535,1,0,0:0:0:0:
64,192,113581,1,0,0:0:0:0:
192,192,113627,1,0,0:0:0:0:
320,192,113673,1,0,0:0:0:0:
64,192,113719,1,0,0:0:0:0:
448,192,113765,1,0,0:0:0:0:
320,192,113811,1,0,0:0:0:0:
192,192,113857,1,0,0:0:0:0:
64,192,113903,1,0,0:0:0:0:
448,192,113949,1,0,0:0:0:0:
320,192,113995,1,0,0:0:0:0:
64,192,114041,1,0,0:0:0:0:
192,192,114087,1,0,0:0:0:0:
448,192,114133,1,0,0:0:0:0:
320,192,114179,1,0,0:0:0:0:
64,192,114225,1,0,0:0:0:0:
192,192,114271,1,0,0:0:0:0:
448,192,114317,1,0,0:0:0:0:
64,192,114363,1,0,0:0:0:0:
192,192,114409,1,0,0:0:0:0:
320,192,114455,1,0,0:0:0:0:
64,192,114501,1,0,0:0:0:0:
192,192,114547,1,0,0:0:0:0:
320,192,114593,1,0,0:0:0:0:
448,192,114639,1,0,0:0:0:0:
64,192,114685,1,0,0:0:0:0:
320,192,114731,1,0,0:0:0:0:
448,192,114777,1,0,0:0:0:0:
192,192,114823,1,0,0:0:0:0:
64,192,114869,1,0,0:0:0:0:
192,192,114915,1,0,0:0:0:0:
320,192,114961,1,0,0:0:0:0:
448,192,115007,1,0,0:0:0:0:
192,192,115053,1,0,0:0:0:0:
64,192,115099,1,0,0:0:0:0:
448,192,115145,1,0,0:0:0:0:
320,192,115191,1,0,0:0:0:0:
64,192,115237,1,0,0:0:0:0:
448,192,115283,1,0,0:0:0:0:
320,192,115329,1,0,0:0:0:0:
192,192,115375,1,0,0:0:0:0:
64,192,115421,1,0,0:0:0:0:
448,192,115467,1,0,0:0:0:0:
192,192,115513,1,0,0:0:0:0:
320,192,115559,1,0,0:0:0:0:
64,192,115605,1,0,0:0:0:0:
192,192,115651,1,0,0:0:0:0:
448,192,115697,1,0,0:0:0:0:
64,192,115743,1,0,0:0:0:0:
192,192,115789,1,0,0:0:0:0:
320,192,115835,1,0,0:0:0:0:
64,192,115881,1,0,0:0:0:0:
448,192,115927,1,0,0:0:0:0:
320,192,115973,1,0,0:0:0:0:
192,192,116019,1,0,0:0:0:0:
64,192,116065,1,0,0:0:0:0:
448,192,116111,1,0,0:0:0:0:
192,192,116157,1,0,0:0:0:0:
320,192,116203,1,0,0:0:0:0:
64,192,116249,1,0,0:0:0:0:
448,192,116295,1,0,0:0:0:0:
320,192,116341,1,0,0:0:0:0:
192,192,116387,1,0,0:0:0:0:
64,192,116433,1,0,0:0:0:0:
448,192,116479,1,0,0:0:0:0:
320,192,116525,1,0,0:0:0:0:
64,192,116571,1,0,0:0:0:0:
448,192,116617,1,0,0:0:0:0:
192,192,116663,1,0,0:0:0:0:
320,192,116709,1,0,0:0:0:0:
64,192,116755,1,0,0:0:0:0:
192,192,116801,1,0,0:0:0:0:
448,192,116847,1,0,0:0:0:0:
320,192,116893,1,0,0:0:0:0:
64,192,116939,1,0,0:0:0:0:
448,192,116985,1,0,0:0:0:0:
320,192,117031,1,0,0:0:0:0:
192,192,117077,1,0,0:0:0:0:
448,192,117123,1,0,0:0:0:0:
64,192,117170,1,0,0:0:0:0:
192,192,117216,1,0,0:0:0:0:
320,192,117262,1,0,0:0:0:0:
448,192,117308,1,0,0:0:0:0:
64,192,117354,1,0,0:0:0:0:
320,192,117400,1,0,0:0:0:0:
192,192,117446,1,0,0:0:0:0:
448,192,117492,1,0,0:0:0:0:
320,192,117538,1,0,0:0:0:0:
64,192,117584,1,0,0:0:0:0:
192,192,117630,1,0,0:0:0:0:
320,192,117676,1,0,0:0:0:0:
448,192,117722,1,0,0:0:0:0:
64,192,117768,1,0,0:0:0:0:
320,192,117814,1,0,0:0:0:0:
192,192,117860,1,0,0:0:0:0:
64,192,117906,1,0,0:0:0:0:
448,192,117952,1,0,0:0:0:0:
320,192,117998,1,0,0:0:0:0:
192,192,118044,1,0,0:0:0:0:
64,192,118090,1,0,0:0:0:0:
320,192,118136,1,0,0:0:0:0:
448,192,118182,1,0,0:0:0:0:
192,192,118228,1,0,0:0:0:0:
320,192,118274,1,0,0:0:0:0:
64,192,118320,1,0,0:0:0:0:
192,192,118366,1,0,0:0:0:0:
320,192,118412,1,0,0:0:0:0:
448,192,118458,1,0,0:0:0:0:
64,192,118504,1,0,0:0:0:0:
192,192,118565,1,0,0:0:0:0:
320,192,118627,1,0,0:0:0:0:
64,192,118688,1,0,0:0:0:0:
192,192,118749,1,0,0:0:0:0:
448,192,118811,1,0,0:0:0:0:
192,192,118872,1,0,0:0:0:0:
320,192,118933,1,0,0:0:0:0:
448,192,118995,1,0,0:0:0:0:
64,192,119056,1,0,0:0:0:0:
192,192,119102,1,0,0:0:0:0:
320,192,119148,1,0,0:0:0:0:
448,192,119194,1,0,0:0:0:0:
64,192,119240,1,0,0:0:0:0:
192,192,119286,1,0,0:0:0:0:
448,192,119332,1,0,0:0:0:0:
320,192,119378,1,0,0:0:0:0:
64,192,119424,1,0,0:0:0:0:
448,192,119470,1,0,0:0:0:0:
320,192,119516,1,0,0:0:0:0:
192,192,119562,1,0,0:0:0:0:
64,192,119608,1,0,0:0:0:0:
448,192,119654,1,0,0:0:0:0:
192,192,119700,1,0,0:0:0:0:
320,192,119746,1,0,0:0:0:0:
448,192,119792,1,0,0:0:0:0:
64,192,119838,1,0,0:0:0:0:
192,192,119884,1,0,0:0:0:0:
320,192,119930,1,0,0:0:0:0:
448,192,119976,1,0,0:0:0:0:
64,192,120022,1,0,0:0:0:0:
192,192,120068,1,0,0:0:0:0:
448,192,120114,1,0,0:0:0:0:
320,192,120160,1,0,0:0:0:0:
64,192,120206,1,0,0:0:0:0:
192,192,120252,1,0,0:0:0:0:
448,192,120298,1,0,0:0:0:0:
64,192,120344,1,0,0:0:0:0:
192,192,120390,1,0,0:0:0:0:
320,192,120436,1,0,0:0:0:0:
448,192,120482,1,0,0:0:0:0:
64,192,120528,1,0,0:0:0:0:
192,192,120574,1,0,0:0:0:0:
320,192,120620,1,0,0:0:0:0:
448,192,120666,1,0,0:0:0:0:
192,192,120712,1,0,0:0:0:0:
320,192,120758,1,0,0:0:0:0:
192,192,120804,1,0,0:0:0:0:
64,192,120850,1,0,0:0:0:0:
448,192,120896,1,0,0:0:0:0:
320,192,120943,1,0,0:0:0:0:
192,192,120989,1,0,0:0:0:0:
64,192,121035,1,0,0:0:0:0:
448,192,121081,1,0,0:0:0:0:
320,192,121127,1,0,0:0:0:0:
192,192,121173,1,0,0:0:0:0:
448,192,121219,1,0,0:0:0:0:
64,192,121265,1,0,0:0:0:0:
192,192,121311,1,0,0:0:0:0:
320,192,121357,1,0,0:0:0:0:
448,192,121403,1,0,0:0:0:0:
64,192,121449,1,0,0:0:0:0:
192,192,121495,1,0,0:0:0:0:
320,192,121541,1,0,0:0:0:0:
64,192,121587,1,0,0:0:0:0:
192,192,121633,1,0,0:0:0:0:
448,192,121679,1,0,0:0:0:0:
320,192,121725,1,0,0:0:0:0:
192,192,121771,1,0,0:0:0:0:
448,192,121817,1,0,0:0:0:0:
64,192,121863,1,0,0:0:0:0:
320,192,121909,1,0,0:0:0:0:
448,192,121955,1,0,0:0:0:0:
64,192,122001,1,0,0:0:0:0:
192,192,122047,1,0,0:0:0:0:
320,192,122093,1,0,0:0:0:0:
448,192,122139,1,0,0:0:0:0:
64,192,122185,1,0,0:0:0:0:
192,192,122231,1,0,0:0:0:0:
320,192,122277,1,0,0:0:0:0:
448,192,122323,1,0,0:0:0:0:
64,192,122369,1,0,0:0:0:0:
320,192,122415,1,0,0:0:0:0:
192,192,122461,1,0,0:0:0:0:
64,192,122507,1,0,0:0:0:0:
448,192,122553,1,0,0:0:0:0:
320,192,122599,1,0,0:0:0:0:
64,192,122645,1,0,0:0:0:0:
448,192,122691,1,0,0:0:0:0:
320,192,122737,1,0,0:0:0:0:
192,192,122783,1,0,0:0:0:0:
64,192,122829,1,0,0:0:0:0:
448,192,122875,1,0,0:0:0:0:
192,192,122921,1,0,0:0:0:0:
320,192,122967,1,0,0:0:0:0:
192,192,123013,1,0,0:0:0:0:
64,192,123059,1,0,0:0:0:0:
448,192,123105,1,0,0:0:0:0:
192,192,123151,1,0,0:0:0:0:
320,192,123197,1,0,0:0:0:0:
64,192,123243,1,0,0:0:0:0:
448,192,123289,1,0,0:0:0:0:
320,192,123335,1,0,0:0:0:0:
192,192,123381,1,0,0:0:0:0:
448,192,123427,1,0,0:0:0:0:
64,192,123473,1,0,0:0:0:0:
192,192,123519,1,0,0:0:0:0:
320,192,123565,1,0,0:0:0:0:
64,192,123611,1,0,0:0:0:0:
192,192,123657,1,0,0:0:0:0:
448,192,123703,1,0,0:0:0:0:
192,192,123749,1,0,0:0:0:0:
320,192,123795,1,0,0:0:0:0:
448,192,123841,1,0,0:0:0:0:
64,192,123887,1,0,0:0:0:0:
320,192,123933,1,0,0:0:0:0:
448,192,123979,1,0,0:0:0:0:
192,192,124025,1,0,0:0:0:0:
320,192,124071,1,0,0:0:0:0:
448,192,124117,1,0,0:0:0:0:
64,192,124163,1,0,0:0:0:0:
192,192,124209,1,0,0:0:0:0:
448,192,124255,1,0,0:0:0:0:
64,192,124301,1,0,0:0:0:0:
192,192,124347,1,0,0:0:0:0:
320,192,124393,1,0,0:0:0:0:
64,192,124439,1,0,0:0:0:0:
320,192,124485,1,0,0:0:0:0:
448,192,124531,1,0,0:0:0:0:
64,192,124577,1,0,0:0:0:0:
192,192,124623,1,0,0:0:0:0:
448,192,124670,1,0,0:0:0:0:
64,192,124716,1,0,0:0:0:0:
192,192,124762,1,0,0:0:0:0:
320,192,124808,1,0,0:0:0:0:
64,192,124854,1,0,0:0:0:0:
192,192,124900,1,0,0:0:0:0:
320,192,124946,1,0,0:0:0:0:
448,192,124946,1,0,0:0:0:0:
64,192,124992,1,0,0:0:0:0:
192,192,125038,1,0,0:0:0:0:
320,192,125084,1,0,0:0:0:0:
448,192,125130,1,0,0:0:0:0:
192,192,125176,1,0,0:0:0:0:
320,192,125222,1,0,0:0:0:0:
64,192,125268,1,0,0:0:0:0:
192,192,125314,1,0,0:0:0:0:
448,192,125360,1,0,0:0:0:0:
320,192,125406,1,0,0:0:0:0:
192,192,125452,1,0,0:0:0:0:
448,192,125498,1,0,0:0:0:0:
64,192,125544,1,0,0:0:0:0:
192,192,125590,1,0,0:0:0:0:
320,192,125636,1,0,0:0:0:0:
448,192,125682,1,0,0:0:0:0:
64,192,125728,1,0,0:0:0:0:
192,192,125774,1,0,0:0:0:0:
448,192,125820,1,0,0:0:0:0:
320,192,125866,1,0,0:0:0:0:
64,192,125912,1,0,0:0:0:0:
192,192,125958,1,0,0:0:0:0:
448,192,126004,1,0,0:0:0:0:
320,192,126050,1,0,0:0:0:0:
64,192,126096,1,0,0:0:0:0:
448,192,126142,1,0,0:0:0:0:
320,192,126188,1,0,0:0:0:0:
192,192,126234,1,0,0:0:0:0:
448,192,126280,1,0,0:0:0:0:
320,192,126326,1,0,0:0:0:0:
192,192,126372,1,0,0:0:0:0:
64,192,126418,1,0,0:0:0:0:
448,192,126464,1,0,0:0:0:0:
192,192,126510,1,0,0:0:0:0:
64,192,126556,1,0,0:0:0:0:
320,192,126602,1,0,0:0:0:0:
448,192,126648,1,0,0:0:0:0:
320,192,126694,1,0,0:0:0:0:
192,192,126740,1,0,0:0:0:0:
64,192,126786,1,0,0:0:0:0:
320,192,126832,1,0,0:0:0:0:
448,192,126878,1,0,0:0:0:0:
64,192,126924,1,0,0:0:0:0:
192,192,126970,1,0,0:0:0:0:
448,192,127016,1,0,0:0:0:0:
64,192,127062,1,0,0:0:0:0:
192,192,127108,1,0,0:0:0:0:
320,192,127154,1,0,0:0:0:0:
448,192,127200,1,0,0:0:0:0:
64,192,127246,1,0,0:0:0:0:
320,192,127292,1,0,0:0:0:0:
192,192,127338,1,0,0:0:0:0:
448,192,127384,1,0,0:0:0:0:
320,192,127430,1,0,0:0:0:0:
64,192,127476,1,0,0:0:0:0:
448,192,127522,1,0,0:0:0:0:
320,192,127568,1,0,0:0:0:0:
192,192,127614,1,0,0:0:0:0:
448,192,127660,1,0,0:0:0:0:
64,192,127706,1,0,0:0:0:0:
192,192,127752,1,0,0:0:0:0:
320,192,127798,1,0,0:0:0:0:
448,192,127844,1,0,0:0:0:0:
64,192,127890,1,0,0:0:0:0:
320,192,127936,1,0,0:0:0:0:
192,192,127982,1,0,0:0:0:0:
448,192,128028,1,0,0:0:0:0:
64,192,128074,1,0,0:0:0:0:
192,192,128120,1,0,0:0:0:0:
320,192,128166,1,0,0:0:0:0:
448,192,128212,1,0,0:0:0:0:
64,192,128258,1,0,0:0:0:0:
192,192,128304,1,0,0:0:0:0:
448,192,128350,1,0,0:0:0:0:
64,192,128396,1,0,0:0:0:0:
320,192,128443,1,0,0:0:0:0:
192,192,128489,1,0,0:0:0:0:
448,192,128535,1,0,0:0:0:0:
320,192,128581,1,0,0:0:0:0:
64,192,128627,1,0,0:0:0:0:
192,192,128673,1,0,0:0:0:0:
448,192,128719,1,0,0:0:0:0:
64,192,128765,1,0,0:0:0:0:
192,192,128811,1,0,0:0:0:0:
320,192,128857,1,0,0:0:0:0:
64,192,128903,1,0,0:0:0:0:
448,192,128949,1,0,0:0:0:0:
320,192,128995,1,0,0:0:0:0:
192,192,129041,1,0,0:0:0:0:
64,192,129087,1,0,0:0:0:0:
448,192,129133,1,0,0:0:0:0:
192,192,129179,1,0,0:0:0:0:
320,192,129225,1,0,0:0:0:0:
64,192,129271,1,0,0:0:0:0:
192,192,129317,1,0,0:0:0:0:
448,192,129363,1,0,0:0:0:0:
320,192,129409,1,0,0:0:0:0:
192,192,129455,1,0,0:0:0:0:
64,192,129501,1,0,0:0:0:0:
448,192,129547,1,0,0:0:0:0:
192,192,129593,1,0,0:0:0:0:
320,192,129639,1,0,0:0:0:0:
448,192,129685,1,0,0:0:0:0:
64,192,129731,1,0,0:0:0:0:
192,192,129777,1,0,0:0:0:0:
320,192,129823,1,0,0:0:0:0:
448,192,129869,1,0,0:0:0:0:
192,192,129915,1,0,0:0:0:0:
64,192,129961,1,0,0:0:0:0:
320,192,130007,1,0,0:0:0:0:
192,192,130053,1,0,0:0:0:0:
448,192,130099,1,0,0:0:0:0:
320,192,130145,1,0,0:0:0:0:
192,192,130191,1,0,0:0:0:0:
64,192,130237,1,0,0:0:0:0:
448,192,130283,1,0,0:0:0:0:
320,192,130344,1,0,0:0:0:0:
192,192,130406,1,0,0:0:0:0:
448,192,130467,1,0,0:0:0:0:
320,192,130528,1,0,0:0:0:0:
64,192,130590,1,0,0:0:0:0:
320,192,130651,1,0,0:0:0:0:
192,192,130712,1,0,0:0:0:0:
64,192,130774,1,0,0:0:0:0:
320,192,130835,1,0,0:0:0:0:
448,192,130835,1,0,0:0:0:0:
64,192,130927,1,0,0:0:0:0:
192,192,130927,1,0,0:0:0:0:
320,192,131019,1,0,0:0:0:0:
448,192,131019,1,0,0:0:0:0:
64,192,131111,1,0,0:0:0:0:
192,192,131111,1,0,0:0:0:0:
320,192,131203,1,0,0:0:0:0:
448,192,131203,1,0,0:0:0:0:
64,192,131295,1,0,0:0:0:0:
192,192,131295,1,0,0:0:0:0:
448,192,131387,1,0,0:0:0:0:
192,192,131479,1,0,0:0:0:0:
320,192,131479,1,0,0:0:0:0:
64,192,131571,1,0,0:0:0:0:
448,192,131663,1,0,0:0:0:0:
192,192,131755,1,0,0:0:0:0:
448,192,131755,1,0,0:0:0:0:
64,192,131847,1,0,0:0:0:0:
320,192,131939,1,0,0:0:0:0:
448,192,131939,1,0,0:0:0:0:
192,192,132031,1,0,0:0:0:0:
64,192,132123,1,0,0:0:0:0:
320,192,132123,1,0,0:0:0:0:
192,192,132216,1,0,0:0:0:0:
448,192,132216,1,0,0:0:0:0:
64,192,132308,1,0,0:0:0:0:
320,192,132308,1,0,0:0:0:0:
448,192,132400,1,0,0:0:0:0:
64,192,132492,1,0,0:0:0:0:
192,192,132492,1,0,0:0:0:0:
320,192,132584,1,0,0:0:0:0:
192,192,132676,1,0,0:0:0:0:
448,192,132676,1,0,0:0:0:0:
64,192,132768,1,0,0:0:0:0:
320,192,132860,1,0,0:0:0:0:
448,192,132860,1,0,0:0:0:0:
64,192,132952,1,0,0:0:0:0:
192,192,132952,1,0,0:0:0:0:
448,192,133044,1,0,0:0:0:0:
320,192,133136,1,0,0:0:0:0:
448,192,133136,1,0,0:0:0:0:
64,192,133228,1,0,0:0:0:0:
192,192,133228,1,0,0:0:0:0:
64,192,133320,1,0,0:0:0:0:
192,192,133412,1,0,0:0:0:0:
320,192,133412,1,0,0:0:0:0:
320,192,133504,1,0,0:0:0:0:
192,192,133596,1,0,0:0:0:0:
448,192,133596,1,0,0:0:0:0:
192,192,133688,1,0,0:0:0:0:
448,192,133780,1,0,0:0:0:0:
320,192,133780,1,0,0:0:0:0:
192,192,133872,1,0,0:0:0:0:
64,192,133872,1,0,0:0:0:0:
448,192,133964,1,0,0:0:0:0:
320,192,133964,1,0,0:0:0:0:
192,192,134056,1,0,0:0:0:0:
64,192,134056,1,0,0:0:0:0:
448,192,134148,1,0,0:0:0:0:
320,192,134148,1,0,0:0:0:0:
192,192,134240,1,0,0:0:0:0:
64,192,134240,1,0,0:0:0:0:
320,192,134332,1,0,0:0:0:0:
192,192,134424,1,0,0:0:0:0:
448,192,134424,1,0,0:0:0:0:
320,192,134516,1,0,0:0:0:0:
64,192,134608,1,0,0:0:0:0:
64,192,134700,1,0,0:0:0:0:
320,192,134700,1,0,0:0:0:0:
448,192,134792,1,0,0:0:0:0:
192,192,134884,1,0,0:0:0:0:
320,192,134884,1,0,0:0:0:0:
64,192,134976,1,0,0:0:0:0:
192,192,135068,1,0,0:0:0:0:
320,192,135068,1,0,0:0:0:0:
64,192,135160,1,0,0:0:0:0:
448,192,135160,1,0,0:0:0:0:
192,192,135252,1,0,0:0:0:0:
320,192,135252,1,0,0:0:0:0:
448,192,135344,1,0,0:0:0:0:
64,192,135436,1,0,0:0:0:0:
192,192,135436,1,0,0:0:0:0:
320,192,135528,1,0,0:0:0:0:
64,192,135620,1,0,0:0:0:0:
448,192,135620,1,0,0:0:0:0:
192,192,135712,1,0,0:0:0:0:
448,192,135804,1,0,0:0:0:0:
64,192,135896,1,0,0:0:0:0:
192,192,135989,1,0,0:0:0:0:
448,192,135989,1,0,0:0:0:0:
192,192,136081,1,0,0:0:0:0:
64,192,136173,1,0,0:0:0:0:
448,192,136173,1,0,0:0:0:0:
448,192,136265,1,0,0:0:0:0:
64,192,136357,1,0,0:0:0:0:
192,192,136357,1,0,0:0:0:0:
64,192,136449,1,0,0:0:0:0:
192,192,136541,1,0,0:0:0:0:
320,192,136541,1,0,0:0:0:0:
320,192,136633,1,0,0:0:0:0:
64,192,136725,1,0,0:0:0:0:
448,192,136725,1,0,0:0:0:0:
192,192,136817,1,0,0:0:0:0:
320,192,136817,1,0,0:0:0:0:
64,192,136909,1,0,0:0:0:0:
448,192,136909,1,0,0:0:0:0:
192,192,137001,1,0,0:0:0:0:
320,192,137001,1,0,0:0:0:0:
64,192,137093,1,0,0:0:0:0:
448,192,137093,1,0,0:0:0:0:
192,192,137185,1,0,0:0:0:0:
320,192,137185,1,0,0:0:0:0:
64,192,137277,1,0,0:0:0:0:
320,192,137369,1,0,0:0:0:0:
448,192,137369,1,0,0:0:0:0:
192,192,137461,1,0,0:0:0:0:
448,192,137553,1,0,0:0:0:0:
64,192,137645,1,0,0:0:0:0:
448,192,137645,1,0,0:0:0:0:
192,192,137737,1,0,0:0:0:0:
320,192,137829,1,0,0:0:0:0:
448,192,137829,1,0,0:0:0:0:
64,192,137921,1,0,0:0:0:0:
192,192,138013,1,0,0:0:0:0:
448,192,138013,1,0,0:0:0:0:
64,192,138105,1,0,0:0:0:0:
320,192,138105,1,0,0:0:0:0:
192,192,138197,1,0,0:0:0:0:
448,192,138197,1,0,0:0:0:0:
320,192,138289,1,0,0:0:0:0:
64,192,138381,1,0,0:0:0:0:
448,192,138473,1,0,0:0:0:0:
64,192,138565,1,0,0:0:0:0:
192,192,138565,1,0,0:0:0:0:
320,192,138657,1,0,0:0:0:0:
192,192,138749,1,0,0:0:0:0:
320,192,138841,1,0,0:0:0:0:
448,192,138841,1,0,0:0:0:0:
64,192,138933,1,0,0:0:0:0:
448,192,139025,1,0,0:0:0:0:
320,192,139117,1,0,0:0:0:0:
448,192,139117,1,0,0:0:0:0:
64,192,139209,1,0,0:0:0:0:
192,192,139209,1,0,0:0:0:0:
192,192,139301,1,0,0:0:0:0:
320,192,139301,1,0,0:0:0:0:
320,192,139393,1,0,0:0:0:0:
64,192,139485,1,0,0:0:0:0:
192,192,139485,1,0,0:0:0:0:
64,192,139577,1,0,0:0:0:0:
320,192,139670,1,0,0:0:0:0:
448,192,139670,1,0,0:0:0:0:
64,192,139762,1,0,0:0:0:0:
192,192,139762,1,0,0:0:0:0:
320,192,139854,1,0,0:0:0:0:
448,192,139854,1,0,0:0:0:0:
64,192,139946,1,0,0:0:0:0:
192,192,139946,1,0,0:0:0:0:
320,192,140038,1,0,0:0:0:0:
448,192,140038,1,0,0:0:0:0:
64,192,140130,1,0,0:0:0:0:
192,192,140130,1,0,0:0:0:0:
448,192,140222,1,0,0:0:0:0:
192,192,140314,1,0,0:0:0:0:
320,192,140314,1,0,0:0:0:0:
64,192,140406,1,0,0:0:0:0:
448,192,140498,1,0,0:0:0:0:
192,192,140590,1,0,0:0:0:0:
448,192,140590,1,0,0:0:0:0:
64,192,140682,1,0,0:0:0:0:
320,192,140774,1,0,0:0:0:0:
448,192,140774,1,0,0:0:0:0:
192,192,140866,1,0,0:0:0:0:
64,192,140958,1,0,0:0:0:0:
320,192,140958,1,0,0:0:0:0:
192,192,141050,1,0,0:0:0:0:
448,192,141050,1,0,0:0:0:0:
64,192,141142,1,0,0:0:0:0:
320,192,141142,1,0,0:0:0:0:
448,192,141234,1,0,0:0:0:0:
64,192,141326,1,0,0:0:0:0:
192,192,141326,1,0,0:0:0:0:
320,192,141418,1,0,0:0:0:0:
192,192,141510,1,0,0:0:0:0:
448,192,141510,1,0,0:0:0:0:
64,192,141602,1,0,0:0:0:0:
320,192,141694,1,0,0:0:0:0:
448,192,141694,1,0,0:0:0:0:
64,192,141786,1,0,0:0:0:0:
448,192,141878,1,0,0:0:0:0:
448,192,141970,1,0,0:0:0:0:
64,192,142062,1,0,0:0:0:0:
64,192,142154,1,0,0:0:0:0:
320,192,142246,1,0,0:0:0:0:
320,192,142338,1,0,0:0:0:0:
192,192,142430,1,0,0:0:0:0:
448,192,142430,1,0,0:0:0:0:
192,192,142522,1,0,0:0:0:0:
64,192,142614,1,0,0:0:0:0:
448,192,142614,1,0,0:0:0:0:
320,192,142614,1,0,0:0:0:0:
192,192,142798,1,0,0:0:0:0:
320,192,142798,1,0,0:0:0:0:
192,192,142982,1,0,0:0:0:0:
448,192,142982,1,0,0:0:0:0:
64,192,143166,1,0,0:0:0:0:
320,192,143166,1,0,0:0:0:0:
64,192,143350,1,0,0:0:0:0:
448,192,143350,1,0,0:0:0:0:
64,192,143535,1,0,0:0:0:0:
192,192,143535,1,0,0:0:0:0:
448,192,143719,1,0,0:0:0:0:
320,192,143719,1,0,0:0:0:0:
64,192,143903,1,0,0:0:0:0:
192,192,143964,1,0,0:0:0:0:
320,192,144025,1,0,0:0:0:0:
448,192,144087,1,0,0:0:0:0:
64,192,144148,1,0,0:0:0:0:
192,192,144209,1,0,0:0:0:0:
320,192,144271,1,0,0:0:0:0:
448,192,144271,1,0,0:0:0:0:
192,192,144455,1,0,0:0:0:0:
448,192,144455,1,0,0:0:0:0:
192,192,144639,1,0,0:0:0:0:
448,192,144639,1,0,0:0:0:0:
64,192,144823,1,0,0:0:0:0:
192,192,144823,1,0,0:0:0:0:
64,192,145007,1,0,0:0:0:0:
320,192,145007,1,0,0:0:0:0:
448,192,145191,1,0,0:0:0:0:
320,192,145283,1,0,0:0:0:0:
448,192,145375,1,0,0:0:0:0:
320,192,145467,1,0,0:0:0:0:
64,192,145559,1,0,0:0:0:0:
192,192,145559,1,0,0:0:0:0:
192,192,145743,1,0,0:0:0:0:
448,192,145743,1,0,0:0:0:0:
192,192,145927,1,0,0:0:0:0:
320,192,145927,1,0,0:0:0:0:
320,192,146111,1,0,0:0:0:0:
448,192,146111,1,0,0:0:0:0:
192,192,146203,1,0,0:0:0:0:
320,192,146295,1,0,0:0:0:0:
448,192,146387,1,0,0:0:0:0:
320,192,146479,1,0,0:0:0:0:
448,192,146571,1,0,0:0:0:0:
320,192,146663,1,0,0:0:0:0:
64,192,146847,1,0,0:0:0:0:
192,192,146847,1,0,0:0:0:0:
64,192,147031,1,0,0:0:0:0:
448,192,147031,1,0,0:0:0:0:
64,192,147216,1,0,0:0:0:0:
448,192,147216,1,0,0:0:0:0:
192,192,147400,1,0,0:0:0:0:
320,192,147400,1,0,0:0:0:0:
192,192,147584,1,0,0:0:0:0:
448,192,147584,1,0,0:0:0:0:
64,192,147952,1,0,0:0:0:0:
192,192,147952,1,0,0:0:0:0:
64,192,148136,1,0,0:0:0:0:
448,192,148136,1,0,0:0:0:0:
320,192,148197,1,0,0:0:0:0:
192,192,148258,1,0,0:0:0:0:
320,192,148320,1,0,0:0:0:0:
448,192,148320,1,0,0:0:0:0:
192,192,148504,1,0,0:0:0:0:
320,192,148504,1,0,0:0:0:0:
448,192,148504,1,0,0:0:0:0:
64,192,148688,1,0,0:0:0:0:
192,192,148688,1,0,0:0:0:0:
64,192,148872,1,0,0:0:0:0:
320,192,148872,1,0,0:0:0:0:
192,192,149056,1,0,0:0:0:0:
320,192,149056,1,0,0:0:0:0:
64,192,149240,1,0,0:0:0:0:
448,192,149240,1,0,0:0:0:0:
64,192,149424,1,0,0:0:0:0:
192,192,149424,1,0,0:0:0:0:
320,192,149608,1,0,0:0:0:0:
448,192,149608,1,0,0:0:0:0:
192,192,149792,1,0,0:0:0:0:
448,192,149792,1,0,0:0:0:0:
320,192,149854,1,0,0:0:0:0:
64,192,149915,1,0,0:0:0:0:
448,192,149976,1,0,0:0:0:0:
192,192,150038,1,0,0:0:0:0:
64,192,150099,1,0,0:0:0:0:
320,192,150160,1,0,0:0:0:0:
448,192,150160,1,0,0:0:0:0:
192,192,150344,1,0,0:0:0:0:
448,192,150344,1,0,0:0:0:0:
64,192,150528,1,0,0:0:0:0:
192,192,150528,1,0,0:0:0:0:
320,192,150712,1,0,0:0:0:0:
448,192,150712,1,0,0:0:0:0:
64,192,150896,1,0,0:0:0:0:
320,192,150896,1,0,0:0:0:0:
64,192,151081,1,0,0:0:0:0:
192,192,151081,1,0,0:0:0:0:
320,192,151265,1,0,0:0:0:0:
448,192,151357,1,0,0:0:0:0:
64,192,151449,1,0,0:0:0:0:
320,192,151449,1,0,0:0:0:0:
192,192,151633,1,0,0:0:0:0:
448,192,151633,1,0,0:0:0:0:
192,192,151817,1,0,0:0:0:0:
320,192,151817,1,0,0:0:0:0:
64,192,152001,1,0,0:0:0:0:
448,192,152001,1,0,0:0:0:0:
192,192,152093,1,0,0:0:0:0:
64,192,152185,1,0,0:0:0:0:
448,192,152369,1,0,0:0:0:0:
320,192,152461,1,0,0:0:0:0:
448,192,152553,1,0,0:0:0:0:
192,192,152737,1,0,0:0:0:0:
320,192,152829,1,0,0:0:0:0:
64,192,152921,1,0,0:0:0:0:
192,192,152921,1,0,0:0:0:0:
192,192,153105,1,0,0:0:0:0:
448,192,153105,1,0,0:0:0:0:
64,192,153289,1,0,0:0:0:0:
320,192,153289,1,0,0:0:0:0:
320,192,153473,1,0,0:0:0:0:
448,192,153473,1,0,0:0:0:0:
192,192,153535,1,0,0:0:0:0:
64,192,153596,1,0,0:0:0:0:
448,192,153657,1,0,0:0:0:0:
320,192,153780,1,0,0:0:0:0:
192,192,153903,1,0,0:0:0:0:
64,192,154025,1,0,0:0:0:0:
448,192,154148,1,0,0:0:0:0:
320,192,154271,1,0,0:0:0:0:
64,192,154393,1,0,0:0:0:0:
192,192,154393,1,0,0:0:0:0:
320,192,154485,1,0,0:0:0:0:
192,192,154577,1,0,0:0:0:0:
448,192,154577,1,0,0:0:0:0:
64,192,154670,1,0,0:0:0:0:
320,192,154762,1,0,0:0:0:0:
448,192,154762,1,0,0:0:0:0:
192,192,154854,1,0,0:0:0:0:
320,192,154946,1,0,0:0:0:0:
448,192,154946,1,0,0:0:0:0:
192,192,155007,1,0,0:0:0:0:
64,192,155068,1,0,0:0:0:0:
448,192,155130,1,0,0:0:0:0:
320,192,155191,1,0,0:0:0:0:
192,192,155252,1,0,0:0:0:0:
320,192,155314,1,0,0:0:0:0:
448,192,155314,1,0,0:0:0:0:
64,192,155406,1,0,0:0:0:0:
192,192,155498,1,0,0:0:0:0:
448,192,155498,1,0,0:0:0:0:
64,192,155590,1,0,0:0:0:0:
192,192,155682,1,0,0:0:0:0:
320,192,155682,1,0,0:0:0:0:
448,192,155774,1,0,0:0:0:0:
64,192,155866,1,0,0:0:0:0:
320,192,155958,1,0,0:0:0:0:
192,192,156050,1,0,0:0:0:0:
448,192,156050,1,0,0:0:0:0:
64,192,156142,1,0,0:0:0:0:
320,192,156234,1,0,0:0:0:0:
448,192,156234,1,0,0:0:0:0:
192,192,156326,1,0,0:0:0:0:
64,192,156418,1,0,0:0:0:0:
448,192,156418,1,0,0:0:0:0:
320,192,156510,1,0,0:0:0:0:
192,192,156602,1,0,0:0:0:0:
64,192,156694,1,0,0:0:0:0:
320,192,156786,1,0,0:0:0:0:
448,192,156786,1,0,0:0:0:0:
192,192,156878,1,0,0:0:0:0:
64,192,156970,1,0,0:0:0:0:
320,192,157062,1,0,0:0:0:0:
64,192,157154,1,0,0:0:0:0:
192,192,157154,1,0,0:0:0:0:
448,192,157154,1,0,0:0:0:0:
192,192,157522,1,0,0:0:0:0:
320,192,157522,1,0,0:0:0:0:
448,192,157522,1,0,0:0:0:0:
64,192,157890,1,0,0:0:0:0:
320,192,157890,1,0,0:0:0:0:
448,192,157890,1,0,0:0:0:0:
192,192,158074,1,0,0:0:0:0:
64,192,158258,1,0,0:0:0:0:
192,192,158258,1,0,0:0:0:0:
320,192,158258,1,0,0:0:0:0:
320,192,158443,1,0,0:0:0:0:
64,192,158535,1,0,0:0:0:0:
192,192,158627,1,0,0:0:0:0:
320,192,158627,1,0,0:0:0:0:
448,192,158627,1,0,0:0:0:0:
64,192,158719,1,0,0:0:0:0:
320,192,158811,1,0,0:0:0:0:
448,192,158811,1,0,0:0:0:0:
192,192,158903,1,0,0:0:0:0:
64,192,158995,1,0,0:0:0:0:
320,192,158995,1,0,0:0:0:0:
448,192,159087,1,0,0:0:0:0:
64,192,159179,1,0,0:0:0:0:
192,192,159179,1,0,0:0:0:0:
448,192,159271,1,0,0:0:0:0:
64,192,159363,1,0,0:0:0:0:
320,192,159363,1,0,0:0:0:0:
192,192,159455,1,0,0:0:0:0:
320,192,159547,1,0,0:0:0:0:
448,192,159547,1,0,0:0:0:0:
64,192,159639,1,0,0:0:0:0:
192,192,159731,1,0,0:0:0:0:
448,192,159731,1,0,0:0:0:0:
320,192,159823,1,0,0:0:0:0:
64,192,159915,1,0,0:0:0:0:
192,192,159915,1,0,0:0:0:0:
448,192,160007,1,0,0:0:0:0:
64,192,160099,1,0,0:0:0:0:
320,192,160099,1,0,0:0:0:0:
448,192,160191,1,0,0:0:0:0:
64,192,160283,1,0,0:0:0:0:
192,192,160283,1,0,0:0:0:0:
320,192,160375,1,0,0:0:0:0:
64,192,160467,1,0,0:0:0:0:
448,192,160467,1,0,0:0:0:0:
192,192,160559,1,0,0:0:0:0:
320,192,160651,1,0,0:0:0:0:
448,192,160651,1,0,0:0:0:0:
192,192,160743,1,0,0:0:0:0:
64,192,160835,1,0,0:0:0:0:
320,192,160835,1,0,0:0:0:0:
448,192,160896,1,0,0:0:0:0:
64,192,160958,1,0,0:0:0:0:
192,192,161019,1,0,0:0:0:0:
320,192,161081,1,0,0:0:0:0:
448,192,161142,1,0,0:0:0:0:
64,192,161203,1,0,0:0:0:0:
192,192,161203,1,0,0:0:0:0:
320,192,161295,1,0,0:0:0:0:
64,192,161387,1,0,0:0:0:0:
448,192,161479,1,0,0:0:0:0:
64,192,161571,1,0,0:0:0:0:
192,192,161571,1,0,0:0:0:0:
320,192,161663,1,0,0:0:0:0:
448,192,161755,1,0,0:0:0:0:
64,192,161847,1,0,0:0:0:0:
320,192,161939,1,0,0:0:0:0:
448,192,161939,1,0,0:0:0:0:
192,192,162031,1,0,0:0:0:0:
64,192,162123,1,0,0:0:0:0:
320,192,162123,1,0,0:0:0:0:
448,192,162216,1,0,0:0:0:0:
64,192,162308,1,0,0:0:0:0:
192,192,162308,1,0,0:0:0:0:
320,192,162400,1,0,0:0:0:0:
448,192,162492,1,0,0:0:0:0:
64,192,162584,1,0,0:0:0:0:
320,192,162676,1,0,0:0:0:0:
192,192,162768,1,0,0:0:0:0:
448,192,162860,1,0,0:0:0:0:
320,192,162952,1,0,0:0:0:0:
64,192,163044,1,0,0:0:0:0:
192,192,163044,1,0,0:0:0:0:
448,192,163105,1,0,0:0:0:0:
192,192,163166,1,0,0:0:0:0:
320,192,163228,1,0,0:0:0:0:
64,192,163289,1,0,0:0:0:0:
448,192,163350,1,0,0:0:0:0:
64,192,163412,1,0,0:0:0:0:
192,192,163412,1,0,0:0:0:0:
320,192,163473,1,0,0:0:0:0:
448,192,163535,1,0,0:0:0:0:
64,192,163596,1,0,0:0:0:0:
320,192,163657,1,0,0:0:0:0:
192,192,163719,1,0,0:0:0:0:
320,192,163780,1,0,0:0:0:0:
448,192,163780,1,0,0:0:0:0:
64,192,163841,1,0,0:0:0:0:
448,192,163903,1,0,0:0:0:0:
192,192,163964,1,0,0:0:0:0:
320,192,164025,1,0,0:0:0:0:
64,192,164087,1,0,0:0:0:0:
320,192,164148,1,0,0:0:0:0:
448,192,164148,1,0,0:0:0:0:
192,192,164209,1,0,0:0:0:0:
64,192,164271,1,0,0:0:0:0:
320,192,164332,1,0,0:0:0:0:
448,192,164332,1,0,0:0:0:0:
192,192,164516,1,0,0:0:0:0:
320,192,164516,1,0,0:0:0:0:
448,192,164516,1,0,0:0:0:0:
64,192,164700,1,0,0:0:0:0:
448,192,164700,1,0,0:0:0:0:
320,192,164884,1,0,0:0:0:0:
448,192,164884,1,0,0:0:0:0:
64,192,165068,1,0,0:0:0:0:
192,192,165068,1,0,0:0:0:0:
64,192,165252,1,0,0:0:0:0:
320,192,165252,1,0,0:0:0:0:
64,192,165528,1,0,0:0:0:0:
192,192,165528,1,0,0:0:0:0:
64,192,165620,1,0,0:0:0:0:
448,192,165620,1,0,0:0:0:0:
192,192,165804,1,0,0:0:0:0:
320,192,165804,1,0,0:0:0:0:
320,192,165989,1,0,0:0:0:0:
448,192,165989,1,0,0:0:0:0:
320,192,166081,1,0,0:0:0:0:
64,192,166173,1,0,0:0:0:0:
192,192,166219,1,0,0:0:0:0:
320,192,166265,1,0,0:0:0:0:
448,192,166311,1,0,0:0:0:0:
64,192,166357,1,0,0:0:0:0:
192,192,166403,1,0,0:0:0:0:
448,192,166449,1,0,0:0:0:0:
320,192,166495,1,0,0:0:0:0:
64,192,166541,1,0,0:0:0:0:
448,192,166587,1,0,0:0:0:0:
320,192,166633,1,0,0:0:0:0:
192,192,166679,1,0,0:0:0:0:
64,192,166725,1,0,0:0:0:0:
448,192,166771,1,0,0:0:0:0:
192,192,166817,1,0,0:0:0:0:
320,192,166863,1,0,0:0:0:0:
448,192,166909,1,0,0:0:0:0:
64,192,166955,1,0,0:0:0:0:
192,192,167001,1,0,0:0:0:0:
320,192,167047,1,0,0:0:0:0:
448,192,167093,1,0,0:0:0:0:
64,192,167139,1,0,0:0:0:0:
192,192,167185,1,0,0:0:0:0:
448,192,167231,1,0,0:0:0:0:
320,192,167277,1,0,0:0:0:0:
64,192,167323,1,0,0:0:0:0:
192,192,167369,1,0,0:0:0:0:
448,192,167415,1,0,0:0:0:0:
64,192,167461,1,0,0:0:0:0:
192,192,167507,1,0,0:0:0:0:
320,192,167553,1,0,0:0:0:0:
448,192,167599,1,0,0:0:0:0:
64,192,167645,1,0,0:0:0:0:
192,192,167691,1,0,0:0:0:0:
320,192,167737,1,0,0:0:0:0:
448,192,167783,1,0,0:0:0:0:
192,192,167829,1,0,0:0:0:0:
320,192,167875,1,0,0:0:0:0:
192,192,167921,1,0,0:0:0:0:
64,192,167967,1,0,0:0:0:0:
448,192,168013,1,0,0:0:0:0:
320,192,168059,1,0,0:0:0:0:
192,192,168105,1,0,0:0:0:0:
64,192,168151,1,0,0:0:0:0:
448,192,168197,1,0,0:0:0:0:
320,192,168243,1,0,0:0:0:0:
192,192,168289,1,0,0:0:0:0:
448,192,168335,1,0,0:0:0:0:
64,192,168381,1,0,0:0:0:0:
192,192,168427,1,0,0:0:0:0:
320,192,168473,1,0,0:0:0:0:
448,192,168519,1,0,0:0:0:0:
64,192,168565,1,0,0:0:0:0:
192,192,168611,1,0,0:0:0:0:
320,192,168657,1,0,0:0:0:0:
64,192,168703,1,0,0:0:0:0:
192,192,168749,1,0,0:0:0:0:
448,192,168795,1,0,0:0:0:0:
320,192,168841,1,0,0:0:0:0:
192,192,168887,1,0,0:0:0:0:
448,192,168933,1,0,0:0:0:0:
64,192,168979,1,0,0:0:0:0:
320,192,169025,1,0,0:0:0:0:
448,192,169071,1,0,0:0:0:0:
64,192,169117,1,0,0:0:0:0:
192,192,169163,1,0,0:0:0:0:
320,192,169209,1,0,0:0:0:0:
448,192,169255,1,0,0:0:0:0:
64,192,169301,1,0,0:0:0:0:
192,192,169347,1,0,0:0:0:0:
320,192,169393,1,0,0:0:0:0:
448,192,169439,1,0,0:0:0:0:
64,192,169485,1,0,0:0:0:0:
320,192,169531,1,0,0:0:0:0:
192,192,169577,1,0,0:0:0:0:
64,192,169623,1,0,0:0:0:0:
448,192,169670,1,0,0:0:0:0:
320,192,169716,1,0,0:0:0:0:
64,192,169762,1,0,0:0:0:0:
448,192,169808,1,0,0:0:0:0:
320,192,169854,1,0,0:0:0:0:
192,192,169900,1,0,0:0:0:0:
64,192,169946,1,0,0:0:0:0:
448,192,169992,1,0,0:0:0:0:
192,192,170038,1,0,0:0:0:0:
320,192,170084,1,0,0:0:0:0:
192,192,170130,1,0,0:0:0:0:
64,192,170176,1,0,0:0:0:0:
448,192,170222,1,0,0:0:0:0:
192,192,170268,1,0,0:0:0:0:
320,192,170314,1,0,0:0:0:0:
64,192,170360,1,0,0:0:0:0:
448,192,170406,1,0,0:0:0:0:
320,192,170452,1,0,0:0:0:0:
192,192,170498,1,0,0:0:0:0:
448,192,170544,1,0,0:0:0:0:
64,192,170590,1,0,0:0:0:0:
192,192,170636,1,0,0:0:0:0:
320,192,170682,1,0,0:0:0:0:
64,192,170728,1,0,0:0:0:0:
192,192,170774,1,0,0:0:0:0:
448,192,170820,1,0,0:0:0:0:
192,192,170866,1,0,0:0:0:0:
320,192,170912,1,0,0:0:0:0:
448,192,170958,1,0,0:0:0:0:
64,192,171004,1,0,0:0:0:0:
320,192,171050,1,0,0:0:0:0:
448,192,171096,1,0,0:0:0:0:
192,192,171142,1,0,0:0:0:0:
320,192,171188,1,0,0:0:0:0:
448,192,171234,1,0,0:0:0:0:
64,192,171280,1,0,0:0:0:0:
192,192,171326,1,0,0:0:0:0:
448,192,171372,1,0,0:0:0:0:
64,192,171418,1,0,0:0:0:0:
192,192,171464,1,0,0:0:0:0:
320,192,171510,1,0,0:0:0:0:
64,192,171556,1,0,0:0:0:0:
320,192,171602,1,0,0:0:0:0:
448,192,171648,1,0,0:0:0:0:
64,192,171694,1,0,0:0:0:0:
192,192,171740,1,0,0:0:0:0:
448,192,171786,1,0,0:0:0:0:
64,192,171832,1,0,0:0:0:0:
192,192,171878,1,0,0:0:0:0:
320,192,171924,1,0,0:0:0:0:
64,192,171970,1,0,0:0:0:0:
192,192,172016,1,0,0:0:0:0:
320,192,172062,1,0,0:0:0:0:
448,192,172062,1,0,0:0:0:0:
64,192,172108,1,0,0:0:0:0:
192,192,172154,1,0,0:0:0:0:
320,192,172200,1,0,0:0:0:0:
448,192,172246,1,0,0:0:0:0:
192,192,172292,1,0,0:0:0:0:
320,192,172338,1,0,0:0:0:0:
64,192,172384,1,0,0:0:0:0:
192,192,172430,1,0,0:0:0:0:
448,192,172476,1,0,0:0:0:0:
320,192,172522,1,0,0:0:0:0:
192,192,172568,1,0,0:0:0:0:
448,192,172614,1,0,0:0:0:0:
64,192,172660,1,0,0:0:0:0:
192,192,172706,1,0,0:0:0:0:
320,192,172752,1,0,0:0:0:0:
448,192,172798,1,0,0:0:0:0:
64,192,172844,1,0,0:0:0:0:
192,192,172890,1,0,0:0:0:0:
448,192,172936,1,0,0:0:0:0:
320,192,172982,1,0,0:0:0:0:
64,192,173028,1,0,0:0:0:0:
192,192,173074,1,0,0:0:0:0:
448,192,173120,1,0,0:0:0:0:
320,192,173166,1,0,0:0:0:0:
64,192,173212,1,0,0:0:0:0:
448,192,173258,1,0,0:0:0:0:
320,192,173304,1,0,0:0:0:0:
192,192,173350,1,0,0:0:0:0:
448,192,173396,1,0,0:0:0:0:
320,192,173443,1,0,0:0:0:0:
192,192,173489,1,0,0:0:0:0:
64,192,173535,1,0,0:0:0:0:
448,192,173581,1,0,0:0:0:0:
192,192,173627,1,0,0:0:0:0:
64,192,173673,1,0,0:0:0:0:
320,192,173719,1,0,0:0:0:0:
448,192,173765,1,0,0:0:0:0:
320,192,173811,1,0,0:0:0:0:
192,192,173857,1,0,0:0:0:0:
64,192,173903,1,0,0:0:0:0:
320,192,173949,1,0,0:0:0:0:
448,192,173995,1,0,0:0:0:0:
64,192,174041,1,0,0:0:0:0:
192,192,174087,1,0,0:0:0:0:
448,192,174133,1,0,0:0:0:0:
64,192,174179,1,0,0:0:0:0:
192,192,174225,1,0,0:0:0:0:
320,192,174271,1,0,0:0:0:0:
448,192,174317,1,0,0:0:0:0:
64,192,174363,1,0,0:0:0:0:
320,192,174409,1,0,0:0:0:0:
192,192,174455,1,0,0:0:0:0:
448,192,174501,1,0,0:0:0:0:
320,192,174547,1,0,0:0:0:0:
64,192,174593,1,0,0:0:0:0:
448,192,174639,1,0,0:0:0:0:
320,192,174685,1,0,0:0:0:0:
192,192,174731,1,0,0:0:0:0:
448,192,174777,1,0,0:0:0:0:
64,192,174823,1,0,0:0:0:0:
192,192,174869,1,0,0:0:0:0:
320,192,174915,1,0,0:0:0:0:
448,192,174961,1,0,0:0:0:0:
64,192,175007,1,0,0:0:0:0:
320,192,175053,1,0,0:0:0:0:
192,192,175099,1,0,0:0:0:0:
448,192,175145,1,0,0:0:0:0:
64,192,175191,1,0,0:0:0:0:
192,192,175237,1,0,0:0:0:0:
320,192,175283,1,0,0:0:0:0:
448,192,175329,1,0,0:0:0:0:
64,192,175375,1,0,0:0:0:0:
192,192,175421,1,0,0:0:0:0:
448,192,175467,1,0,0:0:0:0:
64,192,175513,1,0,0:0:0:0:
320,192,175559,1,0,0:0:0:0:
192,192,175605,1,0,0:0:0:0:
448,192,175651,1,0,0:0:0:0:
320,192,175697,1,0,0:0:0:0:
64,192,175743,1,0,0:0:0:0:
192,192,175789,1,0,0:0:0:0:
448,192,175835,1,0,0:0:0:0:
64,192,175881,1,0,0:0:0:0:
192,192,175927,1,0,0:0:0:0:
320,192,175973,1,0,0:0:0:0:
64,192,176019,1,0,0:0:0:0:
448,192,176065,1,0,0:0:0:0:
320,192,176111,1,0,0:0:0:0:
192,192,176157,1,0,0:0:0:0:
64,192,176203,1,0,0:0:0:0:
448,192,176249,1,0,0:0:0:0:
192,192,176295,1,0,0:0:0:0:
320,192,176341,1,0,0:0:0:0:
64,192,176387,1,0,0:0:0:0:
192,192,176433,1,0,0:0:0:0:
448,192,176479,1,0,0:0:0:0:
320,192,176525,1,0,0:0:0:0:
192,192,176571,1,0,0:0:0:0:
64,192,176617,1,0,0:0:0:0:
448,192,176663,1,0,0:0:0:0:
192,192,176709,1,0,0:0:0:0:
320,192,176755,1,0,0:0:0:0:
448,192,176801,1,0,0:0:0:0:
64,192,176847,1,0,0:0:0:0:
192,192,176893,1,0,0:0:0:0:
320,192,176939,1,0,0:0:0:0:
448,192,176985,1,0,0:0:0:0:
192,192,177031,1,0,0:0:0:0:
64,192,177077,1,0,0:0:0:0:
320,192,177123,1,0,0:0:0:0:
192,192,177170,1,0,0:0:0:0:
448,192,177216,1,0,0:0:0:0:
320,192,177262,1,0,0:0:0:0:
192,192,177308,1,0,0:0:0:0:
64,192,177354,1,0,0:0:0:0:
448,192,177400,1,0,0:0:0:0:
320,192,177461,1,0,0:0:0:0:
192,192,177522,1,0,0:0:0:0:
448,192,177584,1,0,0:0:0:0:
320,192,177645,1,0,0:0:0:0:
64,192,177706,1,0,0:0:0:0:
320,192,177768,1,0,0:0:0:0:
192,192,177829,1,0,0:0:0:0:
64,192,177890,1,0,0:0:0:0:
448,192,177952,1,0,0:0:0:0:
320,192,177998,1,0,0:0:0:0:
192,192,178044,1,0,0:0:0:0:
64,192,178090,1,0,0:0:0:0:
448,192,178136,1,0,0:0:0:0:
320,192,178182,1,0,0:0:0:0:
64,192,178228,1,0,0:0:0:0:
192,192,178274,1,0,0:0:0:0:
448,192,178320,1,0,0:0:0:0:
64,192,178366,1,0,0:0:0:0:
192,192,178412,1,0,0:0:0:0:
320,192,178458,1,0,0:0:0:0:
448,192,178504,1,0,0:0:0:0:
64,192,178550,1,0,0:0:0:0:
320,192,178596,1,0,0:0:0:0:
192,192,178642,1,0,0:0:0:0:
64,192,178688,1,0,0:0:0:0:
448,192,178734,1,0,0:0:0:0:
320,192,178780,1,0,0:0:0:0:
192,192,178826,1,0,0:0:0:0:
64,192,178872,1,0,0:0:0:0:
448,192,178918,1,0,0:0:0:0:
320,192,178964,1,0,0:0:0:0:
64,192,179010,1,0,0:0:0:0:
192,192,179056,1,0,0:0:0:0:
448,192,179102,1,0,0:0:0:0:
320,192,179148,1,0,0:0:0:0:
64,192,179194,1,0,0:0:0:0:
448,192,179240,1,0,0:0:0:0:
320,192,179286,1,0,0:0:0:0:
192,192,179332,1,0,0:0:0:0:
64,192,179378,1,0,0:0:0:0:
448,192,179424,1,0,0:0:0:0:
320,192,179470,1,0,0:0:0:0:
192,192,179516,1,0,0:0:0:0:
64,192,179562,1,0,0:0:0:0:
320,192,179608,1,0,0:0:0:0:
192,192,179654,1,0,0:0:0:0:
320,192,179700,1,0,0:0:0:0:
448,192,179746,1,0,0:0:0:0:
64,192,179792,1,0,0:0:0:0:
192,192,179838,1,0,0:0:0:0:
320,192,179884,1,0,0:0:0:0:
448,192,179930,1,0,0:0:0:0:
64,192,179976,1,0,0:0:0:0:
192,192,180022,1,0,0:0:0:0:
320,192,180068,1,0,0:0:0:0:
64,192,180114,1,0,0:0:0:0:
448,192,180160,1,0,0:0:0:0:
320,192,180206,1,0,0:0:0:0:
192,192,180252,1,0,0:0:0:0:
64,192,180298,1,0,0:0:0:0:
448,192,180344,1,0,0:0:0:0:
320,192,180390,1,0,0:0:0:0:
192,192,180436,1,0,0:0:0:0:
448,192,180482,1,0,0:0:0:0:
320,192,180528,1,0,0:0:0:0:
64,192,180574,1,0,0:0:0:0:
192,192,180620,1,0,0:0:0:0:
320,192,180666,1,0,0:0:0:0:
64,192,180712,1,0,0:0:0:0:
448,192,180758,1,0,0:0:0:0:
192,192,180804,1,0,0:0:0:0:
64,192,180850,1,0,0:0:0:0:
448,192,180896,1,0,0:0:0:0:
320,192,180943,1,0,0:0:0:0:
192,192,180989,1,0,0:0:0:0:
64,192,181035,1,0,0:0:0:0:
448,192,181081,1,0,0:0:0:0:
320,192,181127,1,0,0:0:0:0:
192,192,181173,1,0,0:0:0:0:
64,192,181219,1,0,0:0:0:0:
448,192,181265,1,0,0:0:0:0:
192,192,181311,1,0,0:0:0:0:
320,192,181357,1,0,0:0:0:0:
448,192,181403,1,0,0:0:0:0:
64,192,181449,1,0,0:0:0:0:
192,192,181495,1,0,0:0:0:0:
448,192,181541,1,0,0:0:0:0:
64,192,181587,1,0,0:0:0:0:
192,192,181633,1,0,0:0:0:0:
320,192,181679,1,0,0:0:0:0:
448,192,181725,1,0,0:0:0:0:
64,192,181771,1,0,0:0:0:0:
320,192,181817,1,0,0:0:0:0:
192,192,181863,1,0,0:0:0:0:
320,192,181909,1,0,0:0:0:0:
448,192,181955,1,0,0:0:0:0:
64,192,182001,1,0,0:0:0:0:
320,192,182047,1,0,0:0:0:0:
192,192,182093,1,0,0:0:0:0:
448,192,182139,1,0,0:0:0:0:
64,192,182185,1,0,0:0:0:0:
192,192,182231,1,0,0:0:0:0:
320,192,182277,1,0,0:0:0:0:
64,192,182323,1,0,0:0:0:0:
448,192,182369,1,0,0:0:0:0:
320,192,182415,1,0,0:0:0:0:
192,192,182461,1,0,0:0:0:0:
448,192,182507,1,0,0:0:0:0:
320,192,182553,1,0,0:0:0:0:
64,192,182599,1,0,0:0:0:0:
320,192,182645,1,0,0:0:0:0:
192,192,182691,1,0,0:0:0:0:
64,192,182737,1,0,0:0:0:0:
448,192,182783,1,0,0:0:0:0:
192,192,182829,1,0,0:0:0:0:
64,192,182875,1,0,0:0:0:0:
320,192,182921,1,0,0:0:0:0:
192,192,182967,1,0,0:0:0:0:
64,192,183013,1,0,0:0:0:0:
448,192,183059,1,0,0:0:0:0:
320,192,183105,1,0,0:0:0:0:
64,192,183151,1,0,0:0:0:0:
448,192,183197,1,0,0:0:0:0:
320,192,183243,1,0,0:0:0:0:
192,192,183289,1,0,0:0:0:0:
448,192,183335,1,0,0:0:0:0:
192,192,183381,1,0,0:0:0:0:
64,192,183427,1,0,0:0:0:0:
448,192,183473,1,0,0:0:0:0:
320,192,183519,1,0,0:0:0:0:
64,192,183565,1,0,0:0:0:0:
448,192,183611,1,0,0:0:0:0:
320,192,183657,1,0,0:0:0:0:
192,192,183703,1,0,0:0:0:0:
448,192,183749,1,0,0:0:0:0:
320,192,183795,1,0,0:0:0:0:
64,192,183841,1,0,0:0:0:0:
192,192,183841,1,0,0:0:0:0:
448,192,183887,1,0,0:0:0:0:
320,192,183933,1,0,0:0:0:0:
192,192,183979,1,0,0:0:0:0:
64,192,184025,1,0,0:0:0:0:
320,192,184071,1,0,0:0:0:0:
192,192,184117,1,0,0:0:0:0:
448,192,184163,1,0,0:0:0:0:
320,192,184209,1,0,0:0:0:0:
64,192,184255,1,0,0:0:0:0:
192,192,184301,1,0,0:0:0:0:
320,192,184347,1,0,0:0:0:0:
64,192,184393,1,0,0:0:0:0:
448,192,184439,1,0,0:0:0:0:
320,192,184485,1,0,0:0:0:0:
192,192,184531,1,0,0:0:0:0:
64,192,184577,1,0,0:0:0:0:
448,192,184623,1,0,0:0:0:0:
320,192,184670,1,0,0:0:0:0:
64,192,184716,1,0,0:0:0:0:
192,192,184762,1,0,0:0:0:0:
448,192,184808,1,0,0:0:0:0:
320,192,184854,1,0,0:0:0:0:
64,192,184900,1,0,0:0:0:0:
192,192,184946,1,0,0:0:0:0:
448,192,184992,1,0,0:0:0:0:
64,192,185038,1,0,0:0:0:0:
192,192,185084,1,0,0:0:0:0:
320,192,185130,1,0,0:0:0:0:
64,192,185176,1,0,0:0:0:0:
192,192,185222,1,0,0:0:0:0:
320,192,185268,1,0,0:0:0:0:
448,192,185314,1,0,0:0:0:0:
64,192,185360,1,0,0:0:0:0:
320,192,185406,1,0,0:0:0:0:
448,192,185452,1,0,0:0:0:0:
192,192,185498,1,0,0:0:0:0:
64,192,185544,1,0,0:0:0:0:
192,192,185590,1,0,0:0:0:0:
320,192,185636,1,0,0:0:0:0:
448,192,185682,1,0,0:0:0:0:
192,192,185728,1,0,0:0:0:0:
64,192,185774,1,0,0:0:0:0:
448,192,185820,1,0,0:0:0:0:
320,192,185866,1,0,0:0:0:0:
64,192,185912,1,0,0:0:0:0:
448,192,185958,1,0,0:0:0:0:
320,192,186004,1,0,0:0:0:0:
192,192,186050,1,0,0:0:0:0:
64,192,186096,1,0,0:0:0:0:
448,192,186142,1,0,0:0:0:0:
192,192,186188,1,0,0:0:0:0:
320,192,186234,1,0,0:0:0:0:
64,192,186280,1,0,0:0:0:0:
192,192,186326,1,0,0:0:0:0:
448,192,186372,1,0,0:0:0:0:
64,192,186418,1,0,0:0:0:0:
192,192,186464,1,0,0:0:0:0:
320,192,186510,1,0,0:0:0:0:
64,192,186556,1,0,0:0:0:0:
448,192,186602,1,0,0:0:0:0:
320,192,186648,1,0,0:0:0:0:
192,192,186694,1,0,0:0:0:0:
64,192,186740,1,0,0:0:0:0:
448,192,186786,1,0,0:0:0:0:
192,192,186832,1,0,0:0:0:0:
320,192,186878,1,0,0:0:0:0:
64,192,186924,1,0,0:0:0:0:
448,192,186970,1,0,0:0:0:0:
320,192,187016,1,0,0:0:0:0:
192,192,187062,1,0,0:0:0:0:
64,192,187108,1,0,0:0:0:0:
448,192,187154,1,0,0:0:0:0:
320,192,187200,1,0,0:0:0:0:
64,192,187246,1,0,0:0:0:0:
448,192,187292,1,0,0:0:0:0:
192,192,187338,1,0,0:0:0:0:
320,192,187384,1,0,0:0:0:0:
64,192,187430,1,0,0:0:0:0:
192,192,187476,1,0,0:0:0:0:
448,192,187522,1,0,0:0:0:0:
320,192,187568,1,0,0:0:0:0:
64,192,187614,1,0,0:0:0:0:
448,192,187660,1,0,0:0:0:0:
320,192,187706,1,0,0:0:0:0:
192,192,187752,1,0,0:0:0:0:
448,192,187798,1,0,0:0:0:0:
64,192,187844,1,0,0:0:0:0:
192,192,187890,1,0,0:0:0:0:
320,192,187936,1,0,0:0:0:0:
448,192,187982,1,0,0:0:0:0:
64,192,188028,1,0,0:0:0:0:
320,192,188074,1,0,0:0:0:0:
192,192,188120,1,0,0:0:0:0:
448,192,188166,1,0,0:0:0:0:
320,192,188212,1,0,0:0:0:0:
64,192,188258,1,0,0:0:0:0:
192,192,188304,1,0,0:0:0:0:
320,192,188350,1,0,0:0:0:0:
448,192,188396,1,0,0:0:0:0:
64,192,188443,1,0,0:0:0:0:
320,192,188489,1,0,0:0:0:0:
192,192,188535,1,0,0:0:0:0:
64,192,188581,1,0,0:0:0:0:
448,192,188627,1,0,0:0:0:0:
320,192,188673,1,0,0:0:0:0:
192,192,188719,1,0,0:0:0:0:
64,192,188765,1,0,0:0:0:0:
320,192,188811,1,0,0:0:0:0:
448,192,188857,1,0,0:0:0:0:
192,192,188903,1,0,0:0:0:0:
320,192,188949,1,0,0:0:0:0:
64,192,188995,1,0,0:0:0:0:
192,192,189041,1,0,0:0:0:0:
320,192,189087,1,0,0:0:0:0:
448,192,189133,1,0,0:0:0:0:
64,192,189179,1,0,0:0:0:0:
192,192,189240,1,0,0:0:0:0:
320,192,189301,1,0,0:0:0:0:
64,192,189363,1,0,0:0:0:0:
192,192,189363,1,0,0:0:0:0:
320,192,189455,1,0,0:0:0:0:
448,192,189455,1,0,0:0:0:0:
64,192,189547,1,0,0:0:0:0:
192,192,189547,1,0,0:0:0:0:
320,192,189639,1,0,0:0:0:0:
448,192,189639,1,0,0:0:0:0:
64,192,189731,1,0,0:0:0:0:
192,192,189731,1,0,0:0:0:0:
448,192,189777,1,0,0:0:0:0:
320,192,189823,1,0,0:0:0:0:
192,192,189869,1,0,0:0:0:0:
64,192,189915,1,0,0:0:0:0:
448,192,189961,1,0,0:0:0:0:
320,192,190007,1,0,0:0:0:0:
192,192,190053,1,0,0:0:0:0:
448,192,190099,1,0,0:0:0:0:
64,192,190145,1,0,0:0:0:0:
192,192,190191,1,0,0:0:0:0:
320,192,190237,1,0,0:0:0:0:
64,192,190283,1,0,0:0:0:0:
448,192,190329,1,0,0:0:0:0:
320,192,190375,1,0,0:0:0:0:
192,192,190421,1,0,0:0:0:0:
448,192,190467,1,0,0:0:0:0:
320,192,190513,1,0,0:0:0:0:
192,192,190559,1,0,0:0:0:0:
64,192,190605,1,0,0:0:0:0:
448,192,190651,1,0,0:0:0:0:
320,192,190697,1,0,0:0:0:0:
192,192,190743,1,0,0:0:0:0:
448,192,190789,1,0,0:0:0:0:
64,192,190835,1,0,0:0:0:0:
192,192,190881,1,0,0:0:0:0:
320,192,190927,1,0,0:0:0:0:
64,192,190973,1,0,0:0:0:0:
448,192,191019,1,0,0:0:0:0:
320,192,191065,1,0,0:0:0:0:
192,192,191111,1,0,0:0:0:0:
448,192,191157,1,0,0:0:0:0:
320,192,191203,1,0,0:0:0:0:
192,192,191249,1,0,0:0:0:0:
64,192,191295,1,0,0:0:0:0:
448,192,191341,1,0,0:0:0:0:
320,192,191387,1,0,0:0:0:0:
192,192,191433,1,0,0:0:0:0:
448,192,191479,1,0,0:0:0:0:
64,192,191525,1,0,0:0:0:0:
192,192,191571,1,0,0:0:0:0:
320,192,191617,1,0,0:0:0:0:
448,192,191663,1,0,0:0:0:0:
64,192,191709,1,0,0:0:0:0:
320,192,191755,1,0,0:0:0:0:
192,192,191801,1,0,0:0:0:0:
64,192,191847,1,0,0:0:0:0:
448,192,191893,1,0,0:0:0:0:
192,192,191939,1,0,0:0:0:0:
320,192,191985,1,0,0:0:0:0:
64,192,192031,1,0,0:0:0:0:
448,192,192077,1,0,0:0:0:0:
320,192,192123,1,0,0:0:0:0:
192,192,192170,1,0,0:0:0:0:
64,192,192216,1,0,0:0:0:0:
320,192,192262,1,0,0:0:0:0:
448,192,192308,1,0,0:0:0:0:
192,192,192354,1,0,0:0:0:0:
320,192,192400,1,0,0:0:0:0:
64,192,192446,1,0,0:0:0:0:
192,192,192492,1,0,0:0:0:0:
320,192,192538,1,0,0:0:0:0:
448,192,192584,1,0,0:0:0:0:
64,192,192630,1,0,0:0:0:0:
320,192,192676,1,0,0:0:0:0:
192,192,192722,1,0,0:0:0:0:
448,192,192768,1,0,0:0:0:0:
64,192,192814,1,0,0:0:0:0:
192,192,192860,1,0,0:0:0:0:
320,192,192906,1,0,0:0:0:0:
448,192,192952,1,0,0:0:0:0:
192,192,192998,1,0,0:0:0:0:
64,192,193044,1,0,0:0:0:0:
320,192,193090,1,0,0:0:0:0:
192,192,193136,1,0,0:0:0:0:
448,192,193182,1,0,0:0:0:0:
320,192,193228,1,0,0:0:0:0:
192,192,193274,1,0,0:0:0:0:
64,192,193320,1,0,0:0:0:0:
448,192,193366,1,0,0:0:0:0:
192,192,193412,1,0,0:0:0:0:
320,192,193458,1,0,0:0:0:0:
64,192,193504,1,0,0:0:0:0:
448,192,193550,1,0,0:0:0:0:
320,192,193596,1,0,0:0:0:0:
192,192,193642,1,0,0:0:0:0:
64,192,193688,1,0,0:0:0:0:
320,192,193734,1,0,0:0:0:0:
448,192,193780,1,0,0:0:0:0:
192,192,193826,1,0,0:0:0:0:
320,192,193872,1,0,0:0:0:0:
64,192,193918,1,0,0:0:0:0:
192,192,193964,1,0,0:0:0:0:
320,192,194010,1,0,0:0:0:0:
448,192,194056,1,0,0:0:0:0:
64,192,194102,1,0,0:0:0:0:
320,192,194148,1,0,0:0:0:0:
192,192,194194,1,0,0:0:0:0:
64,192,194240,1,0,0:0:0:0:
448,192,194286,1,0,0:0:0:0:
320,192,194332,1,0,0:0:0:0:
64,192,194378,1,0,0:0:0:0:
448,192,194424,1,0,0:0:0:0:
320,192,194470,1,0,0:0:0:0:
192,192,194516,1,0,0:0:0:0:
448,192,194562,1,0,0:0:0:0:
192,192,194608,1,0,0:0:0:0:
64,192,194654,1,0,0:0:0:0:
320,192,194700,1,0,0:0:0:0:
192,192,194746,1,0,0:0:0:0:
64,192,194792,1,0,0:0:0:0:
448,192,194838,1,0,0:0:0:0:
320,192,194884,1,0,0:0:0:0:
192,192,194930,1,0,0:0:0:0:
320,192,194976,1,0,0:0:0:0:
192,192,195022,1,0,0:0:0:0:
64,192,195068,1,0,0:0:0:0:
448,192,195114,1,0,0:0:0:0:
192,192,195206,1,0,0:0:0:0:
64,192,195252,1,0,0:0:0:0:
448,192,195298,1,0,0:0:0:0:
320,192,195344,1,0,0:0:0:0:
192,192,195390,1,0,0:0:0:0:
448,192,195436,1,0,0:0:0:0:
64,192,195482,1,0,0:0:0:0:
192,192,195528,1,0,0:0:0:0:
320,192,195574,1,0,0:0:0:0:
64,192,195620,1,0,0:0:0:0:
192,192,195620,1,0,0:0:0:0:
448,192,195666,1,0,0:0:0:0:
320,192,195712,1,0,0:0:0:0:
192,192,195758,1,0,0:0:0:0:
64,192,195804,1,0,0:0:0:0:
448,192,195850,1,0,0:0:0:0:
320,192,195896,1,0,0:0:0:0:
192,192,195943,1,0,0:0:0:0:
448,192,195989,1,0,0:0:0:0:
64,192,196035,1,0,0:0:0:0:
192,192,196081,1,0,0:0:0:0:
320,192,196127,1,0,0:0:0:0:
64,192,196173,1,0,0:0:0:0:
448,192,196219,1,0,0:0:0:0:
320,192,196265,1,0,0:0:0:0:
192,192,196311,1,0,0:0:0:0:
448,192,196357,1,0,0:0:0:0:
320,192,196403,1,0,0:0:0:0:
192,192,196449,1,0,0:0:0:0:
64,192,196495,1,0,0:0:0:0:
448,192,196541,1,0,0:0:0:0:
320,192,196587,1,0,0:0:0:0:
192,192,196633,1,0,0:0:0:0:
448,192,196679,1,0,0:0:0:0:
64,192,196725,1,0,0:0:0:0:
192,192,196771,1,0,0:0:0:0:
320,192,196817,1,0,0:0:0:0:
64,192,196863,1,0,0:0:0:0:
448,192,196909,1,0,0:0:0:0:
320,192,196955,1,0,0:0:0:0:
192,192,197001,1,0,0:0:0:0:
448,192,197047,1,0,0:0:0:0:
320,192,197093,1,0,0:0:0:0:
192,192,197139,1,0,0:0:0:0:
64,192,197185,1,0,0:0:0:0:
448,192,197231,1,0,0:0:0:0:
320,192,197277,1,0,0:0:0:0:
192,192,197323,1,0,0:0:0:0:
448,192,197369,1,0,0:0:0:0:
64,192,197415,1,0,0:0:0:0:
192,192,197461,1,0,0:0:0:0:
320,192,197507,1,0,0:0:0:0:
448,192,197553,1,0,0:0:0:0:
64,192,197599,1,0,0:0:0:0:
320,192,197645,1,0,0:0:0:0:
192,192,197691,1,0,0:0:0:0:
64,192,197737,1,0,0:0:0:0:
448,192,197783,1,0,0:0:0:0:
192,192,197829,1,0,0:0:0:0:
320,192,197875,1,0,0:0:0:0:
64,192,197921,1,0,0:0:0:0:
448,192,197967,1,0,0:0:0:0:
320,192,198013,1,0,0:0:0:0:
192,192,198059,1,0,0:0:0:0:
64,192,198105,1,0,0:0:0:0:
320,192,198151,1,0,0:0:0:0:
448,192,198197,1,0,0:0:0:0:
192,192,198243,1,0,0:0:0:0:
320,192,198289,1,0,0:0:0:0:
64,192,198335,1,0,0:0:0:0:
192,192,198381,1,0,0:0:0:0:
320,192,198427,1,0,0:0:0:0:
448,192,198473,1,0,0:0:0:0:
64,192,198519,1,0,0:0:0:0:
320,192,198565,1,0,0:0:0:0:
192,192,198611,1,0,0:0:0:0:
448,192,198657,1,0,0:0:0:0:
64,192,198703,1,0,0:0:0:0:
192,192,198749,1,0,0:0:0:0:
320,192,198795,1,0,0:0:0:0:
448,192,198841,1,0,0:0:0:0:
192,192,198887,1,0,0:0:0:0:
64,192,198933,1,0,0:0:0:0:
320,192,198979,1,0,0:0:0:0:
192,192,199025,1,0,0:0:0:0:
448,192,199071,1,0,0:0:0:0:
320,192,199117,1,0,0:0:0:0:
192,192,199163,1,0,0:0:0:0:
64,192,199209,1,0,0:0:0:0:
448,192,199255,1,0,0:0:0:0:
192,192,199301,1,0,0:0:0:0:
320,192,199347,1,0,0:0:0:0:
64,192,199393,1,0,0:0:0:0:
448,192,199439,1,0,0:0:0:0:
320,192,199485,1,0,0:0:0:0:
192,192,199531,1,0,0:0:0:0:
64,192,199577,1,0,0:0:0:0:
320,192,199623,1,0,0:0:0:0:
448,192,199670,1,0,0:0:0:0:
192,192,199716,1,0,0:0:0:0:
320,192,199762,1,0,0:0:0:0:
64,192,199808,1,0,0:0:0:0:
192,192,199854,1,0,0:0:0:0:
320,192,199900,1,0,0:0:0:0:
448,192,199946,1,0,0:0:0:0:
64,192,199992,1,0,0:0:0:0:
320,192,200038,1,0,0:0:0:0:
192,192,200099,1,0,0:0:0:0:
64,192,200160,1,0,0:0:0:0:
448,192,200222,1,0,0:0:0:0:
320,192,200283,1,0,0:0:0:0:
64,192,200344,1,0,0:0:0:0:
320,192,200406,1,0,0:0:0:0:
192,192,200467,1,0,0:0:0:0:
64,192,200528,1,0,0:0:0:0:
448,192,200590,1,0,0:0:0:0:
192,192,200651,1,0,0:0:0:0:
64,192,200712,1,0,0:0:0:0:
448,192,200774,1,0,0:0:0:0:
320,192,200835,1,0,0:0:0:0:
192,192,200896,1,0,0:0:0:0:
320,192,200958,1,0,0:0:0:0:
192,192,201019,1,0,0:0:0:0:
64,192,201081,1,0,0:0:0:0:
448,192,201142,1,0,0:0:0:0:
192,192,201203,1,0,0:0:0:0:
64,192,201265,1,0,0:0:0:0:
448,192,201326,1,0,0:0:0:0:
320,192,201387,1,0,0:0:0:0:
192,192,201449,1,0,0:0:0:0:
64,192,201510,1,0,0:0:0:0:
448,192,201510,1,0,0:0:0:0:
192,192,201602,1,0,0:0:0:0:
320,192,201602,1,0,0:0:0:0:
64,192,201694,1,0,0:0:0:0:
448,192,201694,1,0,0:0:0:0:
192,192,201786,1,0,0:0:0:0:
320,192,201786,1,0,0:0:0:0:
64,192,201878,1,0,0:0:0:0:
448,192,201878,1,0,0:0:0:0:
192,192,201970,1,0,0:0:0:0:
320,192,201970,1,0,0:0:0:0:
448,192,202062,1,0,0:0:0:0:
64,192,202154,1,0,0:0:0:0:
192,192,202154,1,0,0:0:0:0:
448,192,202246,1,0,0:0:0:0:
320,192,202338,1,0,0:0:0:0:
192,192,202430,1,0,0:0:0:0:
320,192,202430,1,0,0:0:0:0:
64,192,202522,1,0,0:0:0:0:
192,192,202614,1,0,0:0:0:0:
448,192,202614,1,0,0:0:0:0:
320,192,202706,1,0,0:0:0:0:
64,192,202798,1,0,0:0:0:0:
192,192,202798,1,0,0:0:0:0:
320,192,202890,1,0,0:0:0:0:
448,192,202890,1,0,0:0:0:0:
64,192,202982,1,0,0:0:0:0:
192,192,202982,1,0,0:0:0:0:
448,192,203074,1,0,0:0:0:0:
64,192,203166,1,0,0:0:0:0:
320,192,203166,1,0,0:0:0:0:
192,192,203258,1,0,0:0:0:0:
320,192,203350,1,0,0:0:0:0:
448,192,203350,1,0,0:0:0:0:
64,192,203443,1,0,0:0:0:0:
320,192,203535,1,0,0:0:0:0:
192,192,203627,1,0,0:0:0:0:
448,192,203627,1,0,0:0:0:0:
64,192,203719,1,0,0:0:0:0:
448,192,203811,1,0,0:0:0:0:
320,192,203903,1,0,0:0:0:0:
448,192,203903,1,0,0:0:0:0:
64,192,203995,1,0,0:0:0:0:
192,192,203995,1,0,0:0:0:0:
192,192,204087,1,0,0:0:0:0:
320,192,204087,1,0,0:0:0:0:
320,192,204179,1,0,0:0:0:0:
64,192,204271,1,0,0:0:0:0:
192,192,204271,1,0,0:0:0:0:
64,192,204363,1,0,0:0:0:0:
320,192,204455,1,0,0:0:0:0:
448,192,204455,1,0,0:0:0:0:
64,192,204547,1,0,0:0:0:0:
192,192,204547,1,0,0:0:0:0:
320,192,204639,1,0,0:0:0:0:
448,192,204639,1,0,0:0:0:0:
64,192,204731,1,0,0:0:0:0:
192,192,204731,1,0,0:0:0:0:
320,192,204823,1,0,0:0:0:0:
448,192,204823,1,0,0:0:0:0:
64,192,204915,1,0,0:0:0:0:
192,192,204915,1,0,0:0:0:0:
448,192,205007,1,0,0:0:0:0:
192,192,205099,1,0,0:0:0:0:
320,192,205099,1,0,0:0:0:0:
64,192,205191,1,0,0:0:0:0:
448,192,205283,1,0,0:0:0:0:
192,192,205375,1,0,0:0:0:0:
448,192,205375,1,0,0:0:0:0:
64,192,205467,1,0,0:0:0:0:
320,192,205559,1,0,0:0:0:0:
448,192,205559,1,0,0:0:0:0:
192,192,205651,1,0,0:0:0:0:
64,192,205743,1,0,0:0:0:0:
320,192,205743,1,0,0:0:0:0:
192,192,205835,1,0,0:0:0:0:
448,192,205835,1,0,0:0:0:0:
64,192,205927,1,0,0:0:0:0:
320,192,205927,1,0,0:0:0:0:
448,192,206019,1,0,0:0:0:0:
64,192,206111,1,0,0:0:0:0:
192,192,206111,1,0,0:0:0:0:
320,192,206203,1,0,0:0:0:0:
192,192,206295,1,0,0:0:0:0:
448,192,206295,1,0,0:0:0:0:
64,192,206387,1,0,0:0:0:0:
320,192,206479,1,0,0:0:0:0:
448,192,206479,1,0,0:0:0:0:
64,192,206571,1,0,0:0:0:0:
192,192,206663,1,0,0:0:0:0:
448,192,206663,1,0,0:0:0:0:
448,192,206755,1,0,0:0:0:0:
64,192,206847,1,0,0:0:0:0:
192,192,206847,1,0,0:0:0:0:
64,192,206939,1,0,0:0:0:0:
192,192,207031,1,0,0:0:0:0:
320,192,207031,1,0,0:0:0:0:
320,192,207123,1,0,0:0:0:0:
64,192,207216,1,0,0:0:0:0:
448,192,207216,1,0,0:0:0:0:
192,192,207308,1,0,0:0:0:0:
448,192,207400,1,0,0:0:0:0:
320,192,207400,1,0,0:0:0:0:
192,192,207492,1,0,0:0:0:0:
64,192,207492,1,0,0:0:0:0:
448,192,207584,1,0,0:0:0:0:
320,192,207584,1,0,0:0:0:0:
192,192,207676,1,0,0:0:0:0:
64,192,207676,1,0,0:0:0:0:
448,192,207768,1,0,0:0:0:0:
320,192,207768,1,0,0:0:0:0:
192,192,207860,1,0,0:0:0:0:
64,192,207860,1,0,0:0:0:0:
320,192,207952,1,0,0:0:0:0:
192,192,208044,1,0,0:0:0:0:
448,192,208044,1,0,0:0:0:0:
320,192,208136,1,0,0:0:0:0:
64,192,208228,1,0,0:0:0:0:
64,192,208320,1,0,0:0:0:0:
320,192,208320,1,0,0:0:0:0:
448,192,208412,1,0,0:0:0:0:
192,192,208504,1,0,0:0:0:0:
320,192,208504,1,0,0:0:0:0:
64,192,208596,1,0,0:0:0:0:
192,192,208688,1,0,0:0:0:0:
320,192,208688,1,0,0:0:0:0:
64,192,208780,1,0,0:0:0:0:
448,192,208780,1,0,0:0:0:0:
192,192,208872,1,0,0:0:0:0:
320,192,208872,1,0,0:0:0:0:
448,192,208964,1,0,0:0:0:0:
64,192,209056,1,0,0:0:0:0:
192,192,209056,1,0,0:0:0:0:
320,192,209148,1,0,0:0:0:0:
64,192,209240,1,0,0:0:0:0:
448,192,209240,1,0,0:0:0:0:
192,192,209332,1,0,0:0:0:0:
448,192,209424,1,0,0:0:0:0:
64,192,209516,1,0,0:0:0:0:
320,192,209516,1,0,0:0:0:0:
192,192,209608,1,0,0:0:0:0:
320,192,209700,1,0,0:0:0:0:
320,192,209792,1,0,0:0:0:0:
448,192,209792,1,0,0:0:0:0:
64,192,209884,1,0,0:0:0:0:
192,192,209884,1,0,0:0:0:0:
64,192,209976,1,0,0:0:0:0:
448,192,209976,1,0,0:0:0:0:
320,192,210068,1,0,0:0:0:0:
192,192,210160,1,0,0:0:0:0:
448,192,210160,1,0,0:0:0:0:
192,192,210252,1,0,0:0:0:0:
64,192,210344,1,0,0:0:0:0:
448,192,210344,1,0,0:0:0:0:
192,192,210436,1,0,0:0:0:0:
320,192,210436,1,0,0:0:0:0:
64,192,210528,1,0,0:0:0:0:
448,192,210528,1,0,0:0:0:0:
192,192,210620,1,0,0:0:0:0:
320,192,210620,1,0,0:0:0:0:
64,192,210712,1,0,0:0:0:0:
448,192,210712,1,0,0:0:0:0:
192,192,210804,1,0,0:0:0:0:
320,192,210804,1,0,0:0:0:0:
64,192,210896,1,0,0:0:0:0:
320,192,210989,1,0,0:0:0:0:
448,192,210989,1,0,0:0:0:0:
192,192,211081,1,0,0:0:0:0:
448,192,211173,1,0,0:0:0:0:
64,192,211265,1,0,0:0:0:0:
448,192,211265,1,0,0:0:0:0:
192,192,211357,1,0,0:0:0:0:
320,192,211449,1,0,0:0:0:0:
448,192,211449,1,0,0:0:0:0:
64,192,211541,1,0,0:0:0:0:
192,192,211633,1,0,0:0:0:0:
448,192,211633,1,0,0:0:0:0:
64,192,211725,1,0,0:0:0:0:
320,192,211725,1,0,0:0:0:0:
192,192,211817,1,0,0:0:0:0:
448,192,211817,1,0,0:0:0:0:
320,192,211909,1,0,0:0:0:0:
64,192,212001,1,0,0:0:0:0:
448,192,212093,1,0,0:0:0:0:
64,192,212185,1,0,0:0:0:0:
192,192,212185,1,0,0:0:0:0:
320,192,212277,1,0,0:0:0:0:
64,192,212369,1,0,0:0:0:0:
192,192,212369,1,0,0:0:0:0:
448,192,212461,1,0,0:0:0:0:
64,192,212553,1,0,0:0:0:0:
320,192,212553,1,0,0:0:0:0:
64,192,212645,1,0,0:0:0:0:
320,192,212737,1,0,0:0:0:0:
320,192,212829,1,0,0:0:0:0:
192,192,212921,1,0,0:0:0:0:
192,192,213013,1,0,0:0:0:0:
448,192,213105,1,0,0:0:0:0:
448,192,213197,1,0,0:0:0:0:
64,192,213289,1,0,0:0:0:0:
64,192,213381,1,0,0:0:0:0:
320,192,213473,1,0,0:0:0:0:
320,192,213565,1,0,0:0:0:0:
192,192,213657,1,0,0:0:0:0:
192,192,213749,1,0,0:0:0:0:
448,192,213841,1,0,0:0:0:0:
448,192,213933,1,0,0:0:0:0:
64,192,214025,1,0,0:0:0:0:
64,192,214117,1,0,0:0:0:0:
320,192,214209,1,0,0:0:0:0:
320,192,214301,1,0,0:0:0:0:
192,192,214393,1,0,0:0:0:0:
192,192,214485,1,0,0:0:0:0:
448,192,214577,1,0,0:0:0:0:
448,192,214670,1,0,0:0:0:0:
64,192,214762,1,0,0:0:0:0:
64,192,214854,1,0,0:0:0:0:
320,192,214946,1,0,0:0:0:0:
320,192,215038,1,0,0:0:0:0:
192,192,215130,1,0,0:0:0:0:
192,192,215222,1,0,0:0:0:0:
448,192,215314,1,0,0:0:0:0:
448,192,215406,1,0,0:0:0:0:
