osu file format v14

[General]
AudioFilename: audio.mp3
AudioLeadIn: 0
PreviewTime: 480
Countdown: 0
SampleSet: Normal
StackLeniency: 0.7
Mode: 0
LetterboxInBreaks: 0
WidescreenStoryboard: 0

[Editor]
DistanceSpacing: 0.8
BeatDivisor: 4
GridSize: 4
TimelineZoom: 1.5

[Metadata]
Title:rose
TitleUnicode:rose
Artist:ANNA TSUCHIYA inspi' NANA(BLACK STONES)
ArtistUnicode:ANNA TSUCHIYA inspi' NANA(BLACK STONES)
Creator:Some Hero
Version:PandaHero's Insane
Source:NANA―ナナ―
Tags:PandaHero anime opening op full version ver japanese english rock j-rock jrock ayumi miyazaki mad pray records i need your love
BeatmapID:3025347
BeatmapSetID:1474104

[Difficulty]
HPDrainRate:6
CircleSize:4
OverallDifficulty:8
ApproachRate:9
SliderMultiplier:1.6
SliderTickRate:1

[Events]
//Background and Video events
0,0,"bg.jpg",0,0
//Break Periods
//Storyboard Layer 0 (Background)
//Storyboard Layer 1 (Fail)
//Storyboard Layer 2 (Pass)
//Storyboard Layer 3 (Foreground)
//Storyboard Layer 4 (Overlay)
//Storyboard Sound Samples

[TimingPoints]
567,346.820809248555,4,2,1,30,1,0
567,-133.333333333333,4,2,1,30,0,0
7503,352.941176470589,4,2,1,30,1,0
7503,-133.333333333333,4,2,1,30,0,0
10326,348.837209302326,4,2,1,30,1,0
10326,-133.333333333333,4,2,1,30,0,0
11372,-285.714285714284,4,1,1,35,0,0
11729,344.827586206897,4,1,1,65,1,0
11729,-100,4,1,1,65,0,0
17246,346.820809248555,4,1,1,65,1,0
20020,350.877192982457,4,1,1,65,1,0
22827,352.941176470589,4,1,1,65,1,0
22827,-285.714285714286,4,2,1,50,0,0
27062,348.837209302326,4,2,1,50,1,0
27062,-285.714285714286,4,2,1,50,0,0
33689,-133.333333333333,4,1,1,45,0,0
34038,-100,4,1,1,55,0,0
45200,350.877192982456,4,2,1,50,1,0
45200,-133.333333333333,4,2,1,50,0,0
48007,346.820809248555,4,2,1,50,1,0
48007,-133.333333333333,4,2,1,50,0,0
50781,348.837209302326,4,2,1,50,1,0
50781,-133.333333333333,4,2,1,50,0,0
56013,-285.714285714284,4,2,1,40,0,0
56362,-83.3333333333333,4,1,1,70,0,0
70317,348.837209302326,4,1,1,70,1,0
70317,-83.3333333333333,4,1,1,70,0,0
78689,-83.3333333333333,4,1,1,75,0,0
88282,-166.666666666667,4,2,1,55,0,0
100142,-166.666666666667,4,2,1,35,0,0
101014,-100,4,1,1,55,0,0
112177,-133.333333333333,4,2,1,50,0,0
123340,-83.3333333333333,4,1,1,75,0,0
145665,-133.333333333333,4,2,1,55,0,0
147061,350.877192982457,4,2,1,55,1,0
147061,-133.333333333333,4,2,1,55,0,0
155482,-133.333333333333,4,1,1,60,0,0
156885,344.827586206897,4,1,1,65,1,0
162402,348.837209302326,4,1,1,65,1,0
165192,350.877192982457,4,1,1,65,1,0
168013,352.941176470589,4,2,1,40,1,0
168013,-333.333333333333,4,2,1,40,0,0
173660,344.827586206897,4,2,1,40,1,0
173660,-333.333333333333,4,2,1,40,0,0
176418,-333.333333333333,4,2,1,50,0,0
179177,348.837209302326,4,1,1,75,1,0
179177,-83.3333333333333,4,1,1,75,0,0
190339,346.820809248555,4,1,1,75,1,0
190339,-83.3333333333333,4,1,1,75,0,0
193113,348.837209302326,4,1,1,75,1,0
193113,-83.3333333333333,4,1,1,75,0,0
194508,350.877192982457,4,1,1,75,1,0
194508,-83.3333333333333,4,1,1,75,0,0
201525,333.333333333334,4,1,1,75,1,0
201525,-71.4285714285714,4,1,1,75,0,0
202858,350.877192982457,4,1,1,80,1,0
202858,-71.4285714285714,4,1,1,80,0,0
209875,352.941176470589,4,1,1,80,1,0
209875,-71.4285714285714,4,1,1,80,0,0
210404,-70.4225352112676,4,1,1,80,0,0
210580,333.333333333334,4,1,1,80,1,0
210580,-71.4285714285714,4,1,1,80,0,0
211746,-73.5294117647059,4,1,1,80,0,0
211913,363.636363636365,4,1,1,80,1,0
211913,-71.4285714285714,4,1,1,80,0,0
212640,-100,4,1,1,80,0,0
212731,-100,4,1,1,50,0,0
219094,-100,4,1,1,40,0,0
220276,-100,4,1,1,30,0,0
220640,-100,4,1,1,20,0,0
221003,-100,4,1,1,30,0,0

[Colours]
Combo1 : 80,141,156
Combo2 : 158,160,75
Combo3 : 156,80,80
Combo4 : 85,156,80

[HitObjects]
16,319,567,5,0,1:0:0:0:
16,319,913,2,0,L|21:275,1,30.0000011444092,0|0,3:0|0:0,0:0:0:0:
85,254,1087,2,0,L|90:210,1,30.0000011444092,0|0,3:0|0:0,0:0:0:0:
128,157,1434,1,0,3:0:0:0:
210,171,1607,1,0,3:0:0:0:
210,171,1694,1,0,3:0:0:0:
210,171,1780,1,0,3:0:0:0:
267,229,1954,6,0,B|237:258|237:258|220:299|238:349,1,120.000004577637,0|0,3:0|3:0,0:0:0:0:
233,334,2387,1,0,3:0:0:0:
233,334,2474,1,0,3:0:0:0:
315,310,2821,1,0,0:0:0:0:
393,327,2994,1,0,3:0:0:0:
332,278,3168,1,0,3:0:0:0:
459,289,3341,6,0,P|400:246|408:179,1,120.000004577637,0|0,3:0|0:0,0:0:0:0:
424,128,3861,1,0,3:0:0:0:
372,69,4208,1,0,3:0:0:0:
372,69,4295,1,0,3:0:0:0:
372,69,4382,1,0,3:0:0:0:
294,90,4555,1,0,3:0:0:0:
273,167,4728,6,0,L|295:232,2,60.0000022888184,0|0|0,3:0|0:0|0:0,0:0:0:0:
206,122,5249,2,0,P|203:80|225:-1,1,120.000004577637,0|0,3:0|0:0,0:0:0:0:
221,5,5769,2,0,L|172:23,1,30.0000011444092,0|0,3:0|0:0,0:0:0:0:
127,54,5942,2,0,L|88:49,1,30.0000011444092,0|0,3:0|0:0,0:0:0:0:
2,135,6116,6,0,P|66:145|129:169,1,120.000004577637,0|0,1:0|0:0,0:0:0:0:
165,229,6636,1,0,3:0:0:0:
165,229,6723,1,0,0:0:0:0:
114,288,6896,1,0,3:0:0:0:
114,288,6983,1,0,3:0:0:0:
180,333,7156,1,0,3:0:0:0:
122,378,7330,1,0,3:0:0:0:
76,309,7503,6,0,B|55:240|112:257|73:167,1,120.000004577637,0|0,3:0|0:0,0:0:0:0:
54,119,8032,1,0,3:0:0:0:
54,119,8120,1,0,3:0:0:0:
54,119,8208,1,0,3:0:0:0:
115,65,8385,1,0,0:0:0:0:
186,95,8561,1,0,3:0:0:0:
118,46,8738,1,0,3:0:0:0:
236,169,8914,6,0,P|308:164|336:105,1,120.000004577637,0|0,3:0|3:0,0:0:0:0:
333,128,9355,1,0,3:0:0:0:
333,128,9444,1,0,3:0:0:0:
365,60,9797,1,0,0:0:0:0:
441,79,9973,1,0,3:0:0:0:
377,32,10150,1,0,3:0:0:0:
468,178,10326,6,0,L|457:239,1,60.0000022888184,0|0,3:0|0:0,0:0:0:0:
387,203,10674,2,0,L|398:142,1,60.0000022888184,0|0,3:0|0:0,0:0:0:0:
305,257,11023,1,0,3:0:0:0:
379,360,11198,1,0,3:0:0:0:
296,338,11372,6,0,L|245:333,1,41.9999987182618,0|0,0:0|2:0,0:0:0:0:
201,262,11729,6,2,P|150:330|64:354,1,160,4|8,0:0|0:0,0:0:0:0:
81,353,12246,1,2,0:0:0:0:
33,273,12418,2,0,P|43:234|57:197,1,80,0|2,0:0|0:3,0:0:0:0:
119,126,12763,2,2,P|133:163|143:201,1,80,10|2,0:0|3:0,0:0:0:0:
98,35,13108,6,0,P|46:69|-2:84,2,80,2|0|8,0:0|0:0|0:0,0:0:0:0:
190,48,13625,2,2,B|274:28|248:93|355:74,1,160,2|2,0:0|0:3,0:0:0:0:
421,150,14142,2,2,P|364:165|326:191,1,80,10|2,0:0|3:0,0:0:0:0:
241,240,14487,5,2,0:0:0:0:
310,308,14660,1,0,0:0:0:0:
222,258,14832,1,8,0:0:0:0:
267,356,15004,2,2,L|314:267,1,80,2|0,0:0|0:0,0:0:0:0:
432,243,15349,1,2,0:3:0:0:
432,243,15522,2,2,P|442:304|449:370,1,120,10|0,0:0|2:0,0:0:0:0:
448,361,15866,6,2,P|397:357|354:359,1,80,2|0,0:0|0:0,0:0:0:0:
247,258,16211,2,0,P|297:261|340:259,1,80,8|2,0:0|0:0,0:0:0:0:
222,155,16556,1,0,0:0:0:0:
130,198,16729,1,2,0:3:0:0:
110,103,16901,5,10,0:0:0:0:
158,291,17073,1,8,0:0:0:0:
145,192,17246,6,2,P|158:118|173:26,1,160,4|8,0:0|0:0,0:0:0:0:
171,34,17766,1,2,0:0:0:0:
37,62,17939,2,0,P|59:111|61:150,1,80,0|2,0:0|0:3,0:0:0:0:
67,270,18286,2,2,P|97:217|151:175,1,120,10|0,0:0|2:0,0:0:0:0:
173,172,18633,1,2,0:0:0:0:
258,220,18806,1,0,0:0:0:0:
192,141,18980,1,8,0:0:0:0:
339,205,19153,2,2,L|430:213,1,80,2|0,0:0|0:0,0:0:0:0:
493,148,19500,1,2,0:3:0:0:
354,78,19673,2,2,L|263:70,1,80,10|0,0:0|0:0,0:0:0:0:
154,40,20020,5,2,0:0:0:0:
154,40,20195,1,0,0:0:0:0:
154,40,20370,2,0,L|137:123,1,80,8|2,0:0|0:0,0:0:0:0:
26,242,20721,5,0,0:0:0:0:
26,242,20897,1,0,0:0:0:0:
26,242,21072,2,0,L|43:159,1,80,10|2,0:0|0:3,0:0:0:0:
179,212,21423,5,2,0:0:0:0:
136,289,21598,1,2,0:0:0:0:
267,358,21774,1,8,0:0:0:0:
289,266,21949,2,0,B|253:265|253:265|217:304,1,80,2|0,0:0|0:0,0:0:0:0:
367,211,22300,1,0,0:0:0:0:
484,246,22476,1,10,0:0:0:0:
451,360,22651,1,8,0:0:0:0:
359,346,22827,6,0,L|376:286,1,55.9999982910157,4|0,1:3|3:0,0:0:0:0:
398,219,23356,1,0,3:0:0:0:
398,219,23709,1,0,3:0:0:0:
330,180,23885,1,0,3:0:0:0:
221,127,24238,6,0,L|238:187,1,55.9999982910157,0|0,3:0|3:0,0:0:0:0:
260,254,24768,1,0,3:0:0:0:
260,254,25121,1,0,3:0:0:0:
192,293,25297,1,0,3:0:0:0:
99,225,25650,6,0,L|113:127,2,83.9999974365235,2|0|0,0:0|3:0|3:0,0:0:0:0:
31,272,26885,1,2,0:0:0:0:
31,272,27062,2,0,L|21:201,1,55.9999982910157,0|0,1:0|3:0,0:0:0:0:
11,142,27585,1,0,3:0:0:0:
11,142,27934,1,0,3:0:0:0:
71,97,28108,1,0,3:0:0:0:
170,30,28457,6,0,P|208:34|252:83,1,83.9999974365235,4|0,0:0|3:0,0:0:0:0:
242,62,29503,1,0,3:0:0:0:
316,96,29852,2,0,L|327:53,2,27.9999991455078,2|0|0,0:0|3:0|3:0,0:0:0:0:
248,172,30375,2,0,L|237:126,2,27.9999991455078,2|0|0,0:0|3:0|3:0,0:0:0:0:
305,226,30899,2,0,L|340:222,1,27.9999991455078,2|0,0:0|3:0,0:0:0:0:
411,237,31248,5,0,1:0:0:0:
411,237,31596,1,0,3:0:0:0:
474,286,31771,1,0,3:0:0:0:
474,286,32120,1,0,3:0:0:0:
433,347,32294,2,0,L|381:350,1,27.9999991455078,0|0,3:0|0:0,0:0:0:0:
318,349,32643,5,0,1:0:0:0:
318,349,32817,1,0,1:0:0:0:
154,248,33341,5,4,1:3:0:0:
327,190,33515,1,8,1:3:0:0:
237,199,33689,6,0,B|230:186|230:186|257:92,1,90.0000034332277,4|0,0:2|2:0,0:0:0:0:
229,241,34038,6,0,B|181:207|181:207|49:227,1,160,4|8,0:0|0:0,0:0:0:0:
28,119,34561,1,2,0:2:0:0:
28,119,34735,2,0,L|136:124,1,80,0|2,0:0|2:3,0:0:0:0:
211,28,35084,2,0,L|103:33,1,80,8|2,0:0|2:2,0:0:0:0:
0,30,35433,6,0,B|39:71|39:71|9:207,1,160,4|8,0:0|0:0,0:0:0:0:
97,274,35956,1,2,0:2:0:0:
97,274,36131,2,0,L|129:186,1,80,2|2,0:3|2:3,0:0:0:0:
238,131,36480,2,0,L|247:221,1,80,8|2,0:0|2:2,0:0:0:0:
318,331,36829,6,0,B|360:299|360:299|472:322,1,160,0|8,0:0|0:0,0:0:0:0:
421,206,37351,1,2,0:2:0:0:
421,206,37526,2,0,L|326:222,1,80,0|2,0:0|2:3,0:0:0:0:
251,185,37875,1,8,0:0:0:0:
250,88,38049,1,2,0:2:0:0:
336,38,38224,5,4,0:3:0:0:
336,38,38398,1,6,0:3:0:0:
161,113,38573,2,0,L|66:102,1,80,8|0,0:0|2:0,0:0:0:0:
256,188,38921,5,4,0:3:0:0:
256,188,39096,1,6,0:3:0:0:
431,263,39270,2,0,L|510:253,1,80,8|4,0:0|2:2,0:0:0:0:
358,211,39619,6,0,B|319:260|319:260|343:383,1,160,4|8,0:0|0:0,0:0:0:0:
220,275,40143,2,0,L|211:185,2,80,2|0|2,0:2|0:0|0:3,0:0:0:0:
150,348,40666,2,0,L|52:349,1,80,8|2,0:0|2:2,0:0:0:0:
23,251,41014,5,0,0:0:0:0:
118,238,41189,1,2,0:2:0:0:
100,143,41363,1,8,0:0:0:0:
11,148,41538,2,0,L|46:232,1,80,4|0,0:2|2:0,0:0:0:0:
115,115,41887,2,0,L|99:26,1,80,4|8,0:2|0:0,0:0:0:0:
180,202,42235,6,0,L|296:189,1,80,4|0,0:0|2:0,0:0:0:0:
333,254,42584,2,0,L|449:241,1,80,2|8,0:2|0:0,0:0:0:0:
490,156,42933,5,2,0:3:0:0:
464,63,43107,1,2,0:3:0:0:
371,37,43282,1,4,0:3:0:0:
396,129,43456,2,0,L|418:215,1,80,8|2,0:0|2:3,0:0:0:0:
290,308,43805,5,4,0:2:0:0:
269,213,43979,1,4,0:3:0:0:
188,273,44154,5,8,0:0:0:0:
118,204,44328,1,2,0:3:0:0:
179,366,44503,5,4,0:3:0:0:
82,346,44677,1,8,0:3:0:0:
290,308,44851,5,8,0:0:0:0:
387,288,45026,1,8,0:0:0:0:
238,123,45200,6,0,P|177:183|86:128,1,180.000006866455,4|4,1:0|1:3,0:0:0:0:
45,98,45901,2,0,L|69:27,2,60.0000022888184,8|0|2,1:0|0:0|0:0,0:0:0:0:
73,173,46428,2,0,L|52:240,1,60.0000022888184,0|0,1:0|0:0,0:0:0:0:
122,266,46778,2,0,L|101:333,1,60.0000022888184,0|0,1:0|0:0,0:0:0:0:
15,360,47129,1,4,1:3:0:0:
15,360,47305,2,0,L|12:231,1,120.000004577637,8|2,1:0|0:0,0:0:0:0:
161,187,48007,6,0,P|221:246|301:216,1,180.000006866455,4|4,1:0|1:3,0:0:0:0:
317,138,48700,2,0,P|278:130|235:125,1,60.0000022888184,8|0,1:0|0:0,0:0:0:0:
404,165,49047,1,2,0:0:0:0:
404,165,49220,2,0,P|395:102|396:41,1,120.000004577637,0|0,1:0|1:0,0:0:0:0:
488,261,49914,2,0,P|497:198|496:137,1,120.000004577637,0|0,1:0|1:0,0:0:0:0:
404,165,50434,2,0,P|400:212|402:241,1,60.0000022888184,8|8,1:0|1:0,0:0:0:0:
345,300,50781,6,0,B|241:262|279:348|147:300,1,180.000006866455,4|4,1:0|1:3,0:0:0:0:
59,365,51478,2,0,P|119:367|139:374,2,60.0000022888184,8|0|2,1:0|0:0|0:0,0:0:0:0:
18,291,52001,2,0,P|53:249|62:218,1,60.0000022888184,0|0,1:0|0:0,0:0:0:0:
108,138,52350,2,0,P|128:194|143:221,1,90.0000034332277,0|0,1:0|0:0,0:0:0:0:
163,232,52699,1,4,1:3:0:0:
233,217,52874,1,8,1:0:0:0:
251,147,53048,1,0,1:0:0:0:
202,93,53222,2,0,L|127:112,1,60.0000022888184,2|0,0:0|0:0,0:0:0:0:
319,22,53571,6,0,P|288:115|333:198,1,180.000006866455,4|4,1:0|1:3,0:0:0:0:
388,229,54269,2,0,P|409:190|415:155,1,60.0000022888184,8|0,1:0|0:0,0:0:0:0:
433,299,54618,2,0,P|467:270|485:240,1,60.0000022888184,2|0,0:0|0:0,0:0:0:0:
295,286,54967,1,8,1:0:0:0:
351,351,55141,1,8,1:0:0:0:
189,128,56013,6,0,L|182:175,1,41.9999987182618,4|0,1:3|2:0,0:0:0:0:
120,219,56362,5,4,0:0:0:0:
29,195,56536,1,0,0:0:0:0:
29,195,56623,1,0,0:0:0:0:
29,195,56710,1,10,0:0:0:0:
30,93,56885,2,0,P|97:42|144:21,1,95.9999970703126,4|0,0:2|2:0,0:0:0:0:
249,50,57234,1,0,0:0:0:0:
249,50,57408,2,0,P|182:101|135:122,1,95.9999970703126,8|0,0:0|0:0,0:0:0:0:
141,196,57757,5,4,0:2:0:0:
214,271,57931,1,0,0:0:0:0:
285,200,58106,1,8,0:0:0:0:
367,274,58280,1,0,0:0:0:0:
367,274,58367,1,0,0:0:0:0:
367,274,58455,2,2,P|335:335|328:372,1,95.9999970703126,0|0,0:0|2:0,0:0:0:0:
465,273,58803,2,2,P|497:212|504:175,1,95.9999970703126,8|0,0:0|2:0,0:0:0:0:
412,42,59152,6,2,P|352:121|282:131,1,143.999995605469,4|0,0:0|2:0,0:0:0:0:
274,137,59501,2,2,P|270:74|272:20,1,95.9999970703126,8|2,0:0|0:0,0:0:0:0:
161,110,59850,1,0,0:0:0:0:
129,186,60024,1,0,0:0:0:0:
129,186,60112,1,0,0:0:0:0:
129,186,60199,1,10,0:0:0:0:
54,151,60373,1,0,0:0:0:0:
75,64,60548,5,4,0:3:0:0:
17,226,60722,1,8,0:3:0:0:
207,201,60896,1,8,0:0:0:0:
108,150,61071,1,4,0:3:0:0:
152,294,61245,1,4,0:3:0:0:
152,294,61420,1,8,0:3:0:0:
297,189,61594,1,8,0:0:0:0:
297,189,61768,1,4,0:3:0:0:
391,217,61943,6,0,P|351:276|337:357,1,143.999995605469,4|0,0:0|2:0,0:0:0:0:
361,376,62292,2,0,P|404:336|455:323,1,95.9999970703126,10|0,0:0|2:0,0:0:0:0:
174,315,62641,2,0,P|250:358|283:355,1,95.9999970703126,2|0,0:2|0:0,0:0:0:0:
147,228,62989,2,0,P|65:258|42:334,1,143.999995605469,8|0,0:0|2:0,0:0:0:0:
56,341,63338,1,4,0:2:0:0:
168,345,63513,1,0,0:0:0:0:
223,245,63687,1,8,0:0:0:0:
138,145,63862,2,2,P|105:219|161:286,1,143.999995605469,4|0,0:2|2:0,0:0:0:0:
131,269,64210,1,0,0:0:0:0:
222,130,64385,2,0,P|214:75|190:26,1,95.9999970703126,8|0,0:0|0:0,0:0:0:0:
303,177,64734,6,2,P|350:171|394:152,1,95.9999970703126,4|0,0:0|2:0,0:0:0:0:
472,242,65082,1,10,0:0:0:0:
369,280,65257,1,0,0:0:0:0:
369,280,65344,1,0,0:0:0:0:
369,280,65431,1,2,0:0:0:0:
452,342,65606,1,2,0:0:0:0:
268,223,65780,2,2,L|241:356,1,95.9999970703126,8|0,0:0|2:0,0:0:0:0:
126,375,66129,6,2,L|106:280,1,95.9999970703126,4|0,0:2|0:0,0:0:0:0:
48,93,66478,1,8,0:0:0:0:
161,182,66652,1,8,0:0:0:0:
285,40,66827,1,8,0:0:0:0:
248,28,66914,1,8,0:0:0:0:
209,28,67001,1,8,0:0:0:0:
173,42,67088,1,8,0:0:0:0:
145,68,67175,1,8,0:0:0:0:
113,90,67263,1,8,0:0:0:0:
75,95,67350,1,8,0:0:0:0:
36,92,67437,1,8,0:0:0:0:
11,62,67524,6,0,P|45:13|95:-9,1,95.9999970703126,4|0,0:0|2:0,0:0:0:0:
199,81,67873,1,10,0:0:0:0:
199,81,67960,1,0,0:0:0:0:
148,175,68135,1,8,0:0:0:0:
148,175,68222,1,0,0:0:0:0:
249,240,68396,1,0,0:0:0:0:
296,160,68571,1,8,0:0:0:0:
410,220,68745,1,0,0:0:0:0:
372,296,68920,6,2,P|344:352|329:397,1,95.9999970703126,4|0,0:2|2:0,0:0:0:0:
471,272,69268,1,8,0:0:0:0:
378,186,69443,2,2,P|395:115|418:43,1,143.999995605469,4|0,0:2|2:0,0:0:0:0:
437,14,69792,1,0,0:0:0:0:
266,127,69966,1,10,0:0:0:0:
197,60,70141,1,0,0:0:0:0:
286,31,70315,5,4,0:0:0:0:
286,31,70491,1,0,0:0:0:0:
159,144,70665,2,0,P|85:139|39:138,1,95.9999970703126,10|0,0:0|2:0,0:0:0:0:
16,223,71014,1,0,0:0:0:0:
123,274,71189,1,0,0:0:0:0:
123,274,71276,1,0,0:0:0:0:
123,274,71363,1,8,0:0:0:0:
46,333,71537,1,0,0:0:0:0:
215,195,71712,5,4,0:3:0:0:
215,195,71886,1,8,0:3:0:0:
318,286,72061,1,8,0:0:0:0:
318,286,72235,1,4,0:3:0:0:
199,346,72410,1,4,0:3:0:0:
199,346,72584,1,8,0:3:0:0:
366,211,72758,1,8,0:0:0:0:
385,243,72846,1,8,0:0:0:0:
404,275,72933,1,8,0:0:0:0:
423,307,73020,1,8,0:0:0:0:
444,339,73107,6,0,P|466:249|460:216,1,95.9999970703126,4|0,0:0|2:0,0:0:0:0:
363,179,73456,2,2,P|361:108|379:31,1,143.999995605469,10|0,0:0|2:0,0:0:0:0:
406,12,73805,2,0,P|328:37|291:71,1,95.9999970703126,4|0,0:2|2:0,0:0:0:0:
234,212,74154,2,2,P|256:132|245:80,1,95.9999970703126,8|0,0:0|0:0,0:0:0:0:
131,65,74503,5,4,0:2:0:0:
207,22,74677,1,0,0:0:0:0:
30,89,74851,1,8,0:0:0:0:
136,178,75026,2,2,L|120:69,1,95.9999970703126,4|0,0:2|2:0,0:0:0:0:
33,200,75375,1,0,0:0:0:0:
33,200,75462,1,0,0:0:0:0:
33,200,75549,2,2,L|46:294,1,95.9999970703126,8|0,0:0|2:0,0:0:0:0:
166,282,75898,5,4,0:0:0:0:
277,344,76072,1,0,0:0:0:0:
184,352,76247,2,2,L|172:244,1,95.9999970703126,10|0,0:0|2:0,0:0:0:0:
329,249,76596,5,4,0:2:0:0:
440,187,76770,1,0,0:0:0:0:
347,179,76944,2,2,L|335:287,1,95.9999970703126,10|0,0:0|2:0,0:0:0:0:
245,165,77293,5,6,0:0:0:0:
266,78,77468,1,0,0:0:0:0:
161,99,77642,1,10,0:0:0:0:
161,99,77729,1,0,0:0:0:0:
328,18,77904,1,8,0:0:0:0:
328,18,77991,1,2,0:0:0:0:
368,170,78165,1,8,0:0:0:0:
352,204,78253,1,8,0:0:0:0:
339,240,78340,1,10,0:0:0:0:
427,366,78514,1,10,0:0:0:0:
443,332,78601,1,8,0:0:0:0:
445,290,78689,6,0,P|371:313|325:338,1,95.9999970703126,4|0,0:0|0:0,0:0:0:0:
251,362,79037,1,8,0:0:0:0:
264,218,79212,6,2,P|276:145|274:55,1,143.999995605469,4|0,0:2|2:0,0:0:0:0:
162,28,79561,6,2,P|174:101|172:191,1,143.999995605469,4|0,0:2|2:0,0:0:0:0:
84,212,79910,6,2,P|74:147|77:94,1,95.9999970703126,4|0,0:0|2:0,0:0:0:0:
31,308,80258,5,2,0:3:0:0:
89,357,80433,1,8,0:0:0:0:
158,324,80607,1,2,0:3:0:0:
158,247,80782,2,0,P|149:182|142:148,2,95.9999970703126,2|0|10,0:0|0:0|0:0,0:0:0:0:
315,353,81305,1,10,0:0:0:0:
315,353,81392,1,8,0:0:0:0:
315,353,81479,6,0,P|388:349|442:330,1,95.9999970703126,4|0,0:0|0:0,0:0:0:0:
488,288,81828,1,8,0:0:0:0:
343,178,82003,6,2,P|255:194|179:222,1,143.999995605469,4|0,0:2|2:0,0:0:0:0:
129,156,82351,6,2,P|192:121|259:96,1,143.999995605469,4|0,0:2|2:0,0:0:0:0:
168,25,82700,6,2,P|118:55|72:93,1,95.9999970703126,4|0,0:0|2:0,0:0:0:0:
329,25,83049,5,2,0:3:0:0:
397,58,83223,1,8,0:0:0:0:
336,105,83398,1,2,0:3:0:0:
478,83,83572,2,0,P|469:43|446:-25,1,95.9999970703126,4|0,0:2|0:0,0:0:0:0:
296,171,83921,1,8,0:0:0:0:
305,208,84008,1,8,0:0:0:0:
316,244,84096,1,8,0:0:0:0:
325,281,84183,1,8,0:0:0:0:
334,318,84270,6,0,P|413:297|461:297,2,95.9999970703126,0|0|8,0:0|0:0|0:0,0:0:0:0:
241,352,84793,6,2,P|162:308|77:290,1,143.999995605469,4|0,0:2|2:0,0:0:0:0:
31,247,85142,6,2,P|110:203|195:185,1,143.999995605469,4|0,0:2|2:0,0:0:0:0:
230,144,85491,6,2,P|182:104|133:84,1,95.9999970703126,4|0,0:0|2:0,0:0:0:0:
37,38,85840,5,2,0:3:0:0:
63,110,86014,1,8,0:0:0:0:
40,183,86189,1,2,0:3:0:0:
68,250,86363,2,2,B|157:220|117:288|243:257,1,143.999995605469,4|0,0:2|2:0,0:0:0:0:
244,273,86712,2,0,P|195:328|188:375,1,95.9999970703126,8|8,0:0|0:0,0:0:0:0:
337,292,87061,5,4,0:0:0:0:
363,204,87235,2,0,P|353:130|329:98,1,95.9999970703126,2|0,0:0|2:0,0:0:0:0:
430,264,87584,2,2,P|461:196|459:156,1,95.9999970703126,4|0,0:2|0:0,0:0:0:0:
309,361,87933,2,2,P|326:300|318:213,1,143.999995605469,4|0,0:2|2:0,0:0:0:0:
292,189,88282,6,0,L|185:218,1,95.9999970703126,4|0,1:0|0:0,0:0:0:0:
84,32,88979,2,0,L|142:42,2,47.9999985351563,2|0|2,0:3|0:0|0:3,0:0:0:0:
24,86,89503,2,0,P|59:121|93:127,1,71.9999978027344,8|0,1:3|2:0,0:0:0:0:
115,134,89851,5,4,1:2:0:0:
115,134,90200,1,2,0:3:0:0:
189,158,90375,1,0,1:0:0:0:
189,158,90723,1,0,1:0:0:0:
115,134,90898,2,0,L|102:195,1,47.9999985351563,8|0,0:0|0:0,0:0:0:0:
251,97,91247,5,4,1:3:0:0:
251,97,91595,1,2,0:3:0:0:
327,123,91770,1,0,1:0:0:0:
327,123,92118,1,0,1:0:0:0:
251,97,92293,2,0,L|264:36,1,47.9999985351563,8|2,0:0|0:0,0:0:0:0:
409,154,92642,6,0,L|395:211,2,47.9999985351563,4|0|0,0:2|0:0|0:0,0:0:0:0:
308,201,93165,2,0,L|316:248,2,47.9999985351563,0|0|0,1:0|0:0|0:0,0:0:0:0:
404,301,93689,2,0,L|471:285,1,47.9999985351563,8|0,0:0|0:0,0:0:0:0:
325,332,94037,6,0,P|269:358|219:347,1,95.9999970703126,4|0,1:3|0:0,0:0:0:0:
187,300,94561,2,0,L|208:239,2,47.9999985351563,8|0|0,1:3|0:0|0:0,0:0:0:0:
116,332,95084,2,0,L|95:269,1,47.9999985351563,8|0,0:0|0:0,0:0:0:0:
78,212,95433,5,4,1:3:0:0:
78,212,95607,1,2,0:0:0:0:
78,212,95782,1,2,0:3:0:0:
78,212,95956,2,0,L|24:205,2,47.9999985351563,4|0|0,1:3|0:0|0:0,0:0:0:0:
135,160,96479,2,0,L|196:166,1,47.9999985351563,8|0,0:0|0:0,0:0:0:0:
103,61,96828,6,0,P|57:113|16:135,1,95.9999970703126,4|0,1:3|0:0,0:0:0:0:
208,65,97351,2,0,P|186:44|172:16,1,47.9999985351563,8|0,1:3|0:0,0:0:0:0:
294,83,97700,2,0,P|272:108|266:132,1,47.9999985351563,2|8,0:3|0:0,0:0:0:0:
317,190,98049,1,0,3:0:0:0:
317,190,98136,1,0,3:0:0:0:
317,190,98223,6,0,L|377:164,2,47.9999985351563,4|4|2,1:3|0:3|0:3,0:0:0:0:
420,120,98747,2,0,L|475:131,2,47.9999985351563,8|0|2,1:3|0:0|0:3,0:0:0:0:
368,45,99270,2,0,L|312:46,1,47.9999985351563,8|0,0:0|1:0,0:0:0:0:
109,110,99619,5,4,1:2:0:0:
250,217,99793,1,0,1:0:0:0:
250,217,100142,5,0,3:0:0:0:
250,217,100229,1,0,3:0:0:0:
250,217,100317,1,0,3:0:0:0:
169,184,100491,1,0,3:0:0:0:
250,217,100665,2,2,B|261:246|261:246|232:294,1,71.9999978027344,0|0,0:0|0:0,0:0:0:0:
217,314,101014,5,4,0:0:0:0:
122,270,101189,1,0,0:0:0:0:
23,369,101363,2,0,L|11:282,1,80,8|2,0:0|0:2,0:0:0:0:
115,217,101712,2,0,L|103:312,2,80,0|2|8,0:0|0:3|0:0,0:0:0:0:
166,100,102235,6,0,P|120:128|15:138,1,160,4|2,0:2|0:2,0:0:0:0:
27,34,102758,2,0,P|80:4|122:-5,1,80,8|2,0:0|0:3,0:0:0:0:
262,35,103107,1,0,0:0:0:0:
171,86,103282,1,2,0:3:0:0:
268,120,103456,2,0,L|248:205,1,80,8|2,0:0|0:2,0:0:0:0:
295,301,103805,6,0,P|364:300|399:209,1,160,0|8,0:0|0:0,0:0:0:0:
494,270,104328,1,2,0:2:0:0:
494,270,104503,2,0,P|475:313|467:360,1,80,0|2,0:0|0:3,0:0:0:0:
457,171,104851,1,8,0:0:0:0:
365,121,105026,1,2,0:2:0:0:
201,177,105200,5,0,0:0:0:0:
301,206,105375,1,2,0:2:0:0:
215,265,105549,2,0,L|203:368,1,80,8|0,0:0|2:0,0:0:0:0:
101,206,105898,5,0,0:0:0:0:
201,177,106073,1,0,0:0:0:0:
115,118,106247,2,0,L|103:15,1,80,8|8,0:0|0:0,0:0:0:0:
79,30,106508,1,8,0:0:0:0:
79,30,106596,6,0,L|255:58,1,160,4|8,0:0|0:0,0:0:0:0:
334,129,107119,2,0,L|242:148,2,80,2|0|2,0:2|0:0|0:3,0:0:0:0:
177,214,107642,2,0,L|163:128,1,80,8|2,0:0|0:2,0:0:0:0:
234,286,107991,5,0,0:0:0:0:
323,338,108165,1,2,0:2:0:0:
381,251,108340,1,8,0:0:0:0:
295,192,108514,2,0,B|250:231|250:231|269:333,2,160,4|4|4,0:2|0:2|0:2,0:0:0:0:
390,151,109386,6,0,L|475:168,1,80,4|2,0:0|0:2,0:0:0:0:
369,27,109735,2,0,P|305:76|315:139,1,120,8|0,0:0|2:0,0:0:0:0:
301,142,110084,1,0,0:0:0:0:
207,96,110258,1,2,0:3:0:0:
81,171,110433,2,0,L|106:273,1,80,8|2,0:0|0:2,0:0:0:0:
146,355,110782,5,0,0:0:0:0:
146,355,110956,1,2,0:2:0:0:
14,304,111130,1,8,0:0:0:0:
14,304,111305,1,2,0:3:0:0:
179,196,111479,1,0,0:0:0:0:
179,196,111654,1,2,0:3:0:0:
108,266,111828,1,8,0:0:0:0:
94,237,111915,1,8,0:0:0:0:
78,208,112003,1,8,0:0:0:0:
65,178,112090,1,8,0:0:0:0:
50,149,112177,6,0,B|41:109|41:109|79:33,1,120.000004577637,4|0,1:0|0:0,0:0:0:0:
76,38,112700,1,0,1:0:0:0:
189,20,112875,2,0,L|150:89,2,60.0000022888184,8|0|2,1:0|0:0|0:0,0:0:0:0:
194,147,113398,2,0,L|267:131,1,60.0000022888184,0|0,1:0|0:0,0:0:0:0:
328,219,113747,2,0,L|266:217,1,60.0000022888184,8|0,1:0|0:0,0:0:0:0:
174,237,114096,1,0,1:0:0:0:
174,237,114270,2,0,L|187:368,1,120.000004577637,8|2,1:0|0:0,0:0:0:0:
185,356,114793,1,0,1:0:0:0:
289,375,114968,6,0,P|352:370|392:304,1,120.000004577637,4|2,1:0|0:0,0:0:0:0:
392,256,115491,1,0,1:0:0:0:
392,256,115665,2,0,L|320:269,2,60.0000022888184,8|0|2,1:0|0:0|0:0,0:0:0:0:
431,188,116189,2,0,L|395:123,1,60.0000022888184,0|0,1:0|0:0,0:0:0:0:
485,277,116537,2,0,L|514:202,1,60.0000022888184,8|0,1:0|0:0,0:0:0:0:
433,351,116886,1,0,1:0:0:0:
433,351,117061,2,0,B|394:318|394:318|308:337,1,120.000004577637,8|2,1:0|0:0,0:0:0:0:
212,286,117584,1,8,1:0:0:0:
288,233,117758,6,0,L|294:104,1,120.000004577637,4|2,1:0|0:0,0:0:0:0:
241,55,118282,1,0,1:0:0:0:
165,74,118456,1,8,1:0:0:0:
150,150,118630,1,2,0:3:0:0:
218,188,118805,1,2,0:0:0:0:
224,117,118979,1,0,3:0:0:0:
224,117,119067,1,0,3:0:0:0:
224,117,119154,6,0,L|178:63,2,60.0000022888184,0|8|2,1:0|1:0|0:0,0:0:0:0:
141,3,119677,2,0,P|98:26|20:37,1,120.000004577637,0|0,1:0|1:0,0:0:0:0:
23,119,120200,2,0,P|57:111|102:106,1,60.0000022888184,2|0,0:0|0:0,0:0:0:0:
146,151,120549,6,0,L|119:284,1,120.000004577637,4|2,1:0|0:0,0:0:0:0:
122,268,121072,1,0,1:0:0:0:
49,301,121247,2,0,L|43:241,1,60.0000022888184,8|0,1:0|0:0,0:0:0:0:
104,369,121596,2,0,B|117:349|117:349|205:335,1,90.0000034332277,2|0,0:0|0:0,0:0:0:0:
206,335,121944,5,0,1:0:0:0:
343,366,122119,1,0,1:0:0:0:
343,366,123340,5,4,1:0:0:0:
286,217,123514,1,0,0:0:0:0:
383,271,123689,2,2,L|497:262,1,95.9999970703126,10|0,0:0|2:0,0:0:0:0:
329,126,124037,5,0,0:0:0:0:
286,217,124212,1,0,0:0:0:0:
161,153,124386,2,0,L|54:156,1,95.9999970703126,8|0,0:0|2:0,0:0:0:0:
27,248,124735,6,0,P|95:280|104:357,1,143.999995605469,4|0,0:2|2:0,0:0:0:0:
87,374,125084,1,8,0:0:0:0:
192,270,125258,1,2,0:0:0:0:
143,188,125433,2,0,P|133:137|137:62,1,95.9999970703126,0|0,0:0|2:0,0:0:0:0:
213,268,125782,2,2,P|288:257|335:233,1,95.9999970703126,8|0,0:0|2:0,0:0:0:0:
454,186,126130,5,4,0:0:0:0:
348,158,126305,1,2,0:0:0:0:
477,91,126479,2,2,L|477:-11,1,95.9999970703126,8|0,0:0|2:0,0:0:0:0:
301,86,126828,5,0,0:0:0:0:
350,251,127003,1,8,0:0:0:0:
350,251,127090,1,8,0:0:0:0:
350,251,127177,1,8,0:0:0:0:
164,213,127351,1,0,0:0:0:0:
263,175,127526,5,4,0:3:0:0:
263,175,127700,1,8,0:3:0:0:
146,348,127875,1,8,0:0:0:0:
146,348,128049,1,4,0:3:0:0:
25,200,128223,1,4,0:3:0:0:
25,200,128398,1,8,0:3:0:0:
165,226,128572,5,8,0:0:0:0:
203,233,128660,1,8,0:0:0:0:
240,240,128747,1,8,0:0:0:0:
277,248,128834,1,8,0:0:0:0:
314,256,128921,2,0,P|369:201|336:118,1,143.999995605469,4|0,0:0|2:0,0:0:0:0:
383,109,129270,2,0,P|440:123|493:109,1,95.9999970703126,10|0,0:0|2:0,0:0:0:0:
213,17,129619,1,0,0:0:0:0:
278,85,129793,1,0,0:0:0:0:
154,82,129968,2,2,P|101:66|26:69,1,95.9999970703126,8|0,0:0|2:0,0:0:0:0:
141,183,130317,6,0,P|188:179|234:165,2,95.9999970703126,4|0|8,0:2|0:0|0:0,0:0:0:0:
37,152,130840,2,2,L|71:326,1,143.999995605469,4|0,0:2|2:0,0:0:0:0:
87,324,131189,1,0,0:0:0:0:
176,375,131363,2,0,L|196:269,1,95.9999970703126,8|0,0:0|0:0,0:0:0:0:
213,173,131712,5,4,0:0:0:0:
213,173,132061,2,2,P|180:139|157:91,1,95.9999970703126,10|0,0:0|0:0,0:0:0:0:
294,221,132410,2,0,P|301:156|313:122,1,95.9999970703126
312,353,132758,2,2,P|344:295|408:237,1,143.999995605469,8|0,0:0|2:0,0:0:0:0:
434,224,133107,5,4,0:2:0:0:
491,306,133282,1,0,0:0:0:0:
391,138,133456,1,8,0:0:0:0:
391,138,133543,1,0,0:0:0:0:
286,208,133718,1,8,0:0:0:0:
286,208,133805,1,2,0:0:0:0:
136,69,133979,1,8,0:0:0:0:
160,38,134067,1,8,0:0:0:0:
195,22,134154,1,10,0:0:0:0:
233,24,134241,1,8,0:0:0:0:
266,41,134328,1,10,0:0:0:0:
303,45,134415,1,8,0:0:0:0:
331,19,134503,6,0,P|248:-2|214:9,1,95.9999970703126,4|0,0:0|2:0,0:0:0:0:
65,56,134851,1,10,0:0:0:0:
65,56,134939,1,0,0:0:0:0:
196,157,135113,1,0,0:0:0:0:
196,157,135200,1,8,0:0:0:0:
167,72,135375,1,0,0:0:0:0:
86,236,135549,2,0,L|79:130,1,95.9999970703126,8|0,0:0|2:0,0:0:0:0:
201,258,135898,6,0,P|174:328|82:358,1,143.999995605469,4|0,0:2|2:0,0:0:0:0:
77,350,136247,1,8,0:0:0:0:
14,261,136421,1,0,0:0:0:0:
162,168,136596,2,2,P|209:182|282:182,1,95.9999970703126,4|0,0:2|2:0,0:0:0:0:
437,277,136944,2,2,P|366:293|297:343,1,143.999995605469,8|0,0:0|2:0,0:0:0:0:
279,359,137293,5,4,0:0:0:0:
319,230,137468,1,0,0:0:0:0:
354,104,137642,1,10,0:0:0:0:
354,104,137729,1,0,0:0:0:0:
479,143,137904,1,0,0:0:0:0:
479,143,137991,1,8,0:0:0:0:
447,260,138165,1,0,0:0:0:0:
319,230,138340,1,8,0:0:0:0:
354,104,138514,1,0,0:0:0:0:
404,183,138689,6,2,L|509:195,1,95.9999970703126,4|8,0:2|2:3,0:0:0:0:
290,148,139037,1,8,0:0:0:0:
215,220,139212,2,2,P|146:238|46:237,1,143.999995605469,4|0,0:2|2:0,0:0:0:0:
35,235,139561,1,8,0:3:0:0:
16,332,139735,1,8,0:0:0:0:
135,353,139910,1,8,0:0:0:0:
138,149,140084,6,0,P|133:77|104:2,1,143.999995605469,4|0,0:0|2:0,0:0:0:0:
146,17,140433,2,2,P|216:51|259:51,1,95.9999970703126,10|0,0:0|2:0,0:0:0:0:
381,118,140782,2,0,P|314:152|286:190,1,95.9999970703126,0|0,0:0|2:0,0:0:0:0:
147,231,141130,2,2,P|214:265|242:303,1,95.9999970703126,8|0,0:0|0:0,0:0:0:0:
305,372,141479,6,0,L|319:260,2,95.9999970703126,4|0|8,0:2|0:0|0:0,0:0:0:0:
422,274,142003,2,2,L|450:105,1,143.999995605469,4|0,0:2|2:0,0:0:0:0:
450,93,142351,1,0,0:0:0:0:
292,38,142526,1,8,0:0:0:0:
251,178,142700,1,0,0:0:0:0:
347,125,142875,5,4,0:0:0:0:
347,125,143049,1,0,0:0:0:0:
168,138,143223,2,2,L|142:18,1,95.9999970703126,8|0,0:0|2:0,0:0:0:0:
254,183,143572,5,0,0:0:0:0:
254,183,143746,1,0,0:0:0:0:
86,252,143921,2,2,L|60:132,1,95.9999970703126,8|0,0:0|2:0,0:0:0:0:
200,284,144270,6,2,P|134:337|67:362,1,143.999995605469,4|0,0:2|2:0,0:0:0:0:
306,325,144619,2,2,P|214:328|179:338,1,95.9999970703126,8|0,0:0|2:0,0:0:0:0:
420,251,144968,2,2,P|372:248|325:236,1,95.9999970703126,0|0,0:0|2:0,0:0:0:0:
225,151,145317,1,8,0:0:0:0:
226,112,145404,1,8,0:0:0:0:
238,75,145491,1,8,0:0:0:0:
262,45,145578,1,8,0:0:0:0:
298,33,145665,6,0,L|263:96,2,60.0000022888184,4|0|2,1:2|0:0|0:0,0:0:0:0:
394,21,146189,2,0,L|352:92,1,60.0000022888184,8|0,1:2|0:0,0:0:0:0:
314,165,146537,1,0,0:0:0:0:
398,230,146712,1,8,1:2:0:0:
398,230,146799,1,0,3:0:0:0:
398,230,146886,1,0,3:0:0:0:
299,278,147061,6,0,L|325:353,2,60.0000022888184,0|0|2,1:0|0:0|0:0,0:0:0:0:
207,247,147587,2,0,L|234:327,1,60.0000022888184,8|0,1:2|0:0,0:0:0:0:
147,364,147938,1,0,0:0:0:0:
80,295,148113,1,8,1:2:0:0:
80,295,148201,1,0,3:0:0:0:
80,295,148289,1,0,3:0:0:0:
123,197,148464,6,0,L|99:117,2,60.0000022888184,0|0|2,1:0|0:0|0:0,0:0:0:0:
190,127,148990,2,0,L|166:46,1,60.0000022888184,8|0,1:2|0:0,0:0:0:0:
75,23,149341,1,0,0:0:0:0:
27,109,149517,1,8,1:2:0:0:
27,109,149604,1,4,3:0:0:0:
27,109,149692,1,8,3:0:0:0:
125,174,149868,6,0,L|206:149,1,60.0000022888184,0|0,1:0|0:0,0:0:0:0:
278,121,150218,1,2,0:0:0:0:
397,193,150394,6,0,L|319:222,1,60.0000022888184,8|0,1:2|0:0,0:0:0:0:
247,250,150745,1,0,1:0:0:0:
308,337,150920,1,8,1:2:0:0:
308,337,151008,1,0,3:0:0:0:
308,337,151096,1,0,3:0:0:0:
308,337,151183,1,0,3:0:0:0:
308,337,151271,6,0,L|386:313,2,60.0000022888184,4|0|2,1:2|0:0|0:0,0:0:0:0:
407,236,151797,2,0,L|487:254,1,60.0000022888184,8|0,1:2|0:0,0:0:0:0:
350,135,152148,1,0,0:0:0:0:
289,212,152324,1,8,1:2:0:0:
289,212,152411,1,0,3:0:0:0:
289,212,152499,1,0,3:0:0:0:
241,97,152675,6,0,L|231:14,2,60.0000022888184,0|0|2,1:0|0:0|0:0,0:0:0:0:
152,171,153201,1,8,1:2:0:0:
152,171,153376,2,0,L|145:93,1,60.0000022888184,2|0,0:0|0:0,0:0:0:0:
41,44,153727,2,0,L|46:126,1,60.0000022888184,8|0,1:2|0:0,0:0:0:0:
50,228,154078,6,0,L|57:344,1,90.0000034332277,4|0,1:2|0:0,0:0:0:0:
67,338,154429,2,0,L|144:309,1,60.0000022888184,2|8,1:2|0:0,0:0:0:0:
146,320,154692,1,0,0:0:0:0:
169,324,154780,1,2,0:0:0:0:
304,296,154955,1,0,1:0:0:0:
225,240,155131,1,8,1:2:0:0:
312,199,155306,1,0,1:0:0:0:
204,38,155482,5,0,0:0:0:0:
400,173,155657,1,0,0:0:0:0:
138,268,155832,1,0,0:0:0:0:
235,144,156008,1,0,0:0:0:0:
308,225,156183,5,8,0:0:0:0:
344,256,156271,1,8,0:0:0:0:
389,270,156359,1,8,0:0:0:0:
436,274,156446,1,8,0:0:0:0:
479,253,156534,1,4,0:3:0:0:
509,215,156622,1,4,0:3:0:0:
512,166,156710,1,8,0:3:0:0:
491,122,156797,1,8,0:3:0:0:
454,89,156885,6,0,B|356:61|387:132|289:105,1,160,4|8,1:0|0:0,0:0:0:0:
301,108,157402,1,2,0:0:0:0:
202,84,157574,2,0,P|196:27|196:-12,1,80,0|2,0:0|0:3,0:0:0:0:
109,99,157919,2,2,P|123:182|129:242,1,120,10|0,0:0|2:0,0:0:0:0:
112,246,158264,5,2,0:0:0:0:
23,254,158436,1,2,0:3:0:0:
134,350,158609,1,8,0:0:0:0:
224,232,158781,1,2,0:0:0:0:
224,232,158867,1,0,0:0:0:0:
224,232,158953,2,0,P|193:197|162:166,1,80,0|2,0:0|0:3,0:0:0:0:
311,350,159298,2,2,P|337:277|368:210,1,120,10|0,0:0|2:0,0:0:0:0:
369,209,159643,5,2,0:0:0:0:
461,257,159816,1,2,0:3:0:0:
502,163,159988,1,8,0:0:0:0:
502,163,160074,1,0,0:0:0:0:
419,107,160247,1,8,0:0:0:0:
419,107,160333,1,0,0:0:0:0:
385,291,160505,1,2,0:3:0:0:
385,291,160678,2,2,L|361:384,1,80,10|0,0:0|0:0,0:0:0:0:
333,193,161022,6,2,L|317:97,1,80,2|2,0:0|0:3,0:0:0:0:
195,226,161367,2,0,L|286:260,1,80,8|2,0:0|0:0,0:0:0:0:
235,90,161712,2,0,L|159:151,1,80,0|2,0:0|0:0,0:0:0:0:
10,144,162057,1,8,0:0:0:0:
20,113,162143,1,8,0:0:0:0:
31,83,162229,1,8,0:0:0:0:
44,53,162316,1,8,0:0:0:0:
58,24,162402,6,0,L|159:33,2,80,4|2|8,1:0|0:3|0:0,0:0:0:0:
134,126,162925,2,2,P|218:121|274:124,1,120,2|0,0:0|2:0,0:0:0:0:
281,138,163274,1,2,0:3:0:0:
319,235,163448,2,2,P|300:289|294:337,1,80,10|2,0:0|0:3,0:0:0:0:
168,355,163797,6,2,P|156:263|143:198,1,160,2|8,0:0|0:0,0:0:0:0:
32,183,164320,2,0,P|26:222|15:280,2,80,2|0|0,0:0|0:0|0:0,0:0:0:0:
91,93,164843,2,2,P|129:105|186:116,1,80,10|0,0:0|0:0,0:0:0:0:
269,107,165192,5,2,0:0:0:0:
269,107,165367,1,0,0:0:0:0:
269,107,165542,2,0,P|278:59|276:15,1,80,8|2,0:0|0:0,0:0:0:0:
395,142,165893,1,0,0:0:0:0:
308,198,166069,1,0,0:0:0:0:
475,240,166244,2,2,P|453:301|440:371,1,120,10|0,0:0|0:0,0:0:0:0:
412,361,166595,5,2,0:0:0:0:
319,276,166770,1,2,0:3:0:0:
200,345,166946,1,8,0:0:0:0:
200,345,167034,1,0,0:0:0:0:
297,364,167209,1,8,0:0:0:0:
297,364,167297,1,0,0:0:0:0:
176,147,167472,1,2,0:0:0:0:
224,244,167648,1,10,0:0:0:0:
224,244,167735,1,8,0:0:0:0:
224,244,167823,1,8,0:0:0:0:
224,244,167911,1,8,0:0:0:0:
224,244,168013,6,2,B|152:238|152:238|97:268|97:268|32:264,1,191.999994140625,4|2,1:0|1:2,0:0:0:0:
296,115,170836,6,0,B|360:120|360:120|419:92|419:92|490:96,1,191.999994140625
253,289,173660,6,2,L|241:93,1,191.999994140625,0|2,0:0|1:2,0:0:0:0:
248,35,176418,6,2,L|234:222,1,179.999994506836,4|0,0:0|0:0,0:1:0:0:
234,214,179177,5,4,0:0:0:0:
132,192,179351,1,0,0:0:0:0:
132,192,179438,1,0,0:0:0:0:
132,192,179525,1,10,0:0:0:0:
167,89,179700,1,0,0:0:0:0:
31,226,179874,2,0,P|58:285|74:332,1,95.9999970703126
87,158,180223,2,0,P|51:89|42:63,1,95.9999970703126,8|0,0:0|0:0,0:0:0:0:
278,132,180572,6,2,P|249:193|244:273,1,143.999995605469,4|0,0:2|2:0,0:0:0:0:
248,306,180921,1,8,0:0:0:0:
359,346,181095,1,4,0:2:0:0:
359,346,181182,1,0,0:0:0:0:
359,346,181270,2,2,P|428:320|455:314,1,95.9999970703126,0|0,0:0|0:0,0:0:0:0:
486,152,181618,2,2,P|428:198|351:241,1,143.999995605469,8|0,0:0|2:0,0:0:0:0:
329,227,181967,5,6,0:0:0:0:
222,124,182142,1,0,0:0:0:0:
344,29,182316,1,10,0:0:0:0:
327,126,182490,1,0,0:0:0:0:
327,126,182578,1,0,0:0:0:0:
327,126,182665,2,0,L|292:235,1,95.9999970703126
144,110,183014,2,0,L|173:8,1,95.9999970703126,8|0,0:0|0:0,0:0:0:0:
48,190,183363,5,4,0:3:0:0:
139,235,183537,1,8,0:3:0:0:
43,298,183711,5,8,0:0:0:0:
238,240,183886,1,4,0:3:0:0:
150,151,184060,5,4,0:3:0:0:
153,350,184235,1,8,0:3:0:0:
125,249,184409,5,8,0:0:0:0:
117,211,184496,1,8,0:0:0:0:
109,173,184583,1,8,0:0:0:0:
100,135,184671,1,8,0:0:0:0:
93,97,184758,6,0,L|2:131,1,95.9999970703126,4|0,0:0|2:0,0:0:0:0:
163,19,185107,2,0,L|263:44,1,95.9999970703126,10|0,0:0|0:0,0:0:0:0:
448,87,185456,1,2,0:0:0:0:
339,140,185630,1,2,0:0:0:0:
495,169,185804,2,2,L|467:270,1,95.9999970703126,8|0,0:0|2:0,0:0:0:0:
310,356,186153,6,0,L|290:238,2,95.9999970703126,4|0|8,0:2|0:0|0:0,0:0:0:0:
255,139,186677,1,4,0:2:0:0:
255,139,186764,1,0,0:0:0:0:
255,139,186851,2,0,L|131:169,1,95.9999970703126
13,248,187200,2,0,L|148:274,1,95.9999970703126,8|0,0:0|0:0,0:0:0:0:
204,300,187549,1,4,0:0:0:0:
204,300,187897,6,2,P|175:221|162:195,1,95.9999970703126,10|0,0:0|2:0,0:0:0:0:
280,364,188246,2,2,P|309:285|322:259,1,95.9999970703126
366,179,188595,1,10,0:0:0:0:
366,179,188682,1,0,0:0:0:0:
476,235,188857,1,8,0:0:0:0:
476,235,188944,1,2,0:0:0:0:
420,351,189118,5,8,0:0:0:0:
420,351,189206,1,8,0:0:0:0:
420,351,189293,1,10,0:0:0:0:
391,255,189467,1,4,0:2:0:0:
234,165,189642,1,10,0:0:0:0:
198,178,189729,1,8,0:0:0:0:
176,209,189816,1,8,0:0:0:0:
156,241,189903,1,8,0:0:0:0:
139,275,189990,1,10,0:0:0:0:
103,291,190078,1,8,0:0:0:0:
64,291,190165,1,10,0:0:0:0:
28,276,190252,1,8,0:0:0:0:
15,239,190339,6,2,P|26:174|41:128,1,95.9999970703126,4|0,0:0|0:0,0:0:0:0:
185,79,190685,2,2,P|121:98|64:50,1,143.999995605469,10|0,0:0|2:0,0:0:0:0:
49,17,191032,1,0,0:0:0:0:
273,77,191206,1,0,0:0:0:0:
221,182,191379,2,0,P|203:243|192:294,1,95.9999970703126,8|0,0:0|0:0,0:0:0:0:
283,365,191726,5,4,0:2:0:0:
383,328,191899,1,0,0:0:0:0:
383,328,191986,1,0,0:0:0:0:
383,328,192073,2,0,P|461:310|506:297,1,95.9999970703126,8|4,0:0|0:2,0:0:0:0:
506,191,192419,2,0,P|428:209|383:222,1,95.9999970703126,2|0,0:0|0:0,0:0:0:0:
289,232,192766,1,10,0:0:0:0:
294,193,192853,1,8,0:0:0:0:
301,155,192940,1,8,0:0:0:0:
311,118,193026,1,8,0:0:0:0:
325,82,193113,6,0,P|337:45|368:-19,2,95.9999970703126,6|0|10,0:0|0:0|0:0,0:0:0:0:
217,139,193636,1,0,0:0:0:0:
217,139,193723,1,0,0:0:0:0:
217,139,193810,2,0,P|162:123|106:121,1,95.9999970703126
31,173,194159,1,8,0:0:0:0:
62,273,194333,1,0,0:0:0:0:
170,265,194508,5,4,0:3:0:0:
170,265,194683,1,8,0:3:0:0:
367,337,194858,1,8,0:0:0:0:
367,337,195034,1,4,0:3:0:0:
315,170,195209,1,4,0:3:0:0:
282,262,195385,1,8,0:3:0:0:
460,290,195560,1,8,0:0:0:0:
452,252,195648,1,8,0:0:0:0:
447,213,195736,1,8,0:0:0:0:
440,175,195823,1,8,0:0:0:0:
436,136,195911,6,2,P|460:187|497:247,1,95.9999970703126,6|0,0:0|2:0,0:0:0:0:
294,158,196262,2,2,P|361:95|381:25,1,143.999995605469,10|0,0:0|2:0,0:0:0:0:
378,9,196613,1,2,0:0:0:0:
185,82,196788,1,0,0:0:0:0:
207,170,196964,2,2,P|218:228|228:278,1,95.9999970703126,10|2,0:0|0:3,0:0:0:0:
63,171,197315,6,0,L|81:60,2,95.9999970703126,4|0|8,0:2|0:0|0:0,0:0:0:0:
61,278,197841,1,4,0:2:0:0:
61,278,197929,1,0,0:0:0:0:
61,278,198016,2,0,P|136:242|178:232,1,95.9999970703126
365,273,198367,2,2,P|319:329|241:357,1,143.999995605469,10|0,0:0|2:0,0:0:0:0:
222,334,198718,6,2,L|251:202,1,95.9999970703126,6|0,0:0|0:0,0:0:0:0:
314,161,199069,2,0,P|308:77|281:-10,1,143.999995605469,8|0,0:0|2:0,0:0:0:0:
253,14,199420,6,2,L|150:33,1,95.9999970703126,4|0,0:2|0:0,0:0:0:0:
40,116,199771,2,0,P|119:120|202:131,1,143.999995605469,8|0,0:0|1:0,0:0:0:0:
220,138,200122,1,6,0:0:0:0:
353,218,200297,1,8,0:0:0:0:
353,218,200385,1,0,0:0:0:0:
305,350,200560,1,8,0:0:0:0:
305,350,200648,1,0,0:0:0:0:
157,301,200823,2,0,L|163:197,1,95.9999970703126,10|0,0:0|0:0,0:0:0:0:
274,261,201174,1,10,0:0:0:0:
274,261,201262,1,8,0:0:0:0:
274,261,201350,1,10,0:0:0:0:
274,261,201437,1,8,0:0:0:0:
274,261,201525,6,0,P|328:263|417:278,1,111.999996582031,4|0,0:0|0:0,0:0:0:0:
482,294,201858,1,8,0:0:0:0:
296,153,202025,6,2,B|230:99|230:99|206:0,1,167.999994873047,4|0,0:2|2:0,0:0:0:0:
126,72,202358,6,2,B|145:152|145:152|211:206,1,167.999994873047,4|0,0:2|2:0,0:0:0:0:
99,240,202691,6,2,B|60:195|60:195|52:142,1,111.999996582031,4|0,0:0|2:0,0:0:0:0:
220,310,203033,5,2,0:3:0:0:
378,353,203208,1,8,0:0:0:0:
432,191,203384,1,2,0:3:0:0:
313,155,203559,2,0,L|329:272,2,111.999996582031,2|0|2,0:0|0:0|0:0,0:0:0:0:
479,48,204086,5,8,0:0:0:0:
479,48,204173,1,8,0:0:0:0:
479,48,204261,1,4,0:0:0:0:
437,158,204436,1,2,0:0:0:0:
346,64,204612,1,8,0:0:0:0:
159,177,204787,6,2,B|241:158|241:158|347:220,1,167.999994873047,4|0,0:2|2:0,0:0:0:0:
301,288,205138,6,2,B|228:245|228:245|146:264,1,167.999994873047,4|0,0:2|2:0,0:0:0:0:
155,348,205489,6,2,B|214:335|214:335|272:369,1,111.999996582031,4|0,0:0|2:0,0:0:0:0:
44,351,205840,5,2,0:3:0:0:
0,234,206015,1,8,0:0:0:0:
129,168,206191,1,0,0:0:0:0:
129,168,206279,1,8,0:0:0:0:
129,168,206366,2,2,L|103:283,1,111.999996582031,10|0,0:0|0:0,0:0:0:0:
265,135,206717,1,10,0:0:0:0:
83,50,206893,1,8,0:0:0:0:
189,76,207068,5,4,0:0:0:0:
311,57,207243,2,0,L|442:29,1,111.999996582031,2|8,0:0|0:0,0:0:0:0:
267,206,207594,6,2,B|315:265|315:265|318:367,1,167.999994873047,4|0,0:2|2:0,0:0:0:0:
399,323,207945,6,2,B|396:231|396:231|348:172,1,167.999994873047,4|0,0:2|2:0,0:0:0:0:
439,157,208296,6,2,B|478:196|478:196|485:252,1,111.999996582031,4|0,0:0|2:0,0:0:0:0:
357,65,208647,5,2,0:3:0:0:
262,124,208822,1,8,0:0:0:0:
120,53,208998,1,2,0:3:0:0:
222,8,209173,1,2,0:0:0:0:
137,179,209349,1,8,0:0:0:0:
94,193,209436,1,8,0:0:0:0:
49,187,209524,1,8,0:0:0:0:
16,155,209612,1,8,0:0:0:0:
8,110,209700,1,8,0:0:0:0:
26,69,209787,1,8,0:0:0:0:
68,54,209875,6,0,L|45:189,1,111.999996582031,6|2,0:0|0:0,0:0:0:0:
28,268,210227,1,8,0:0:0:0:
203,210,210404,6,2,B|274:161|274:161|377:167,1,167.999994873047,4|0,0:2|2:0,0:0:0:0:
377,247,210746,6,2,B|296:243|296:243|225:292,1,167.999994873047,4|0,0:2|2:0,0:0:0:0:
276,356,211080,6,2,B|321:325|321:325|393:332,1,111.999996582031,4|0,0:0|2:0,0:0:0:0:
471,304,211413,5,2,0:0:0:0:
508,198,211580,1,10,0:0:0:0:
401,95,211746,2,2,B|361:143|361:143|379:263,1,167.999994873047,2|0,0:0|2:0,0:0:0:0:
252,332,212094,2,2,B|292:284|292:284|269:107,1,223.999993164063,4|0,0:2|2:0,0:0:0:0:
141,253,212640,5,4,0:0:0:0:
256,192,212731,12,4,219003,0:0:0:0:
256,192,219094,12,4,221003,1:3:0:0:
