osu file format v14

[General]
AudioFilename: audio.mp3
AudioLeadIn: 0
PreviewTime: 480
Countdown: 0
SampleSet: Soft
StackLeniency: 0.7
Mode: 0
LetterboxInBreaks: 0
WidescreenStoryboard: 1

[Editor]
Bookmarks: 567,11729,22827,34038,45200,56362,78689,89851,101014,112177,123340,145665,156885,168013,179177,201525,212640
DistanceSpacing: 0.7
BeatDivisor: 4
GridSize: 4
TimelineZoom: 1.5

[Metadata]
Title:rose
TitleUnicode:rose
Artist:ANNA TSUCHIYA inspi' NANA(BLACK STONES)
ArtistUnicode:ANNA TSUCHIYA inspi' NANA(BLACK STONES)
Creator:Some Hero
Version:Hard
Source:NANA―ナナ―
Tags:PandaHero anime opening op full version ver japanese english rock j-rock jrock ayumi miyazaki mad pray records i need your love
BeatmapID:3025345
BeatmapSetID:1474104

[Difficulty]
HPDrainRate:5
CircleSize:3.5
OverallDifficulty:6.5
ApproachRate:8
SliderMultiplier:1.4
SliderTickRate:1

[Events]
//Background and Video events
0,0,"bg.jpg",0,0
//Break Periods
2,22851,32591
2,168213,175668
//Storyboard Layer 0 (Background)
//Storyboard Layer 1 (Fail)
//Storyboard Layer 2 (Pass)
//Storyboard Layer 3 (Foreground)
//Storyboard Layer 4 (Overlay)
//Storyboard Sound Samples

[TimingPoints]
567,346.820809248555,4,3,1,30,1,0
7503,352.941176470589,4,3,1,30,1,0
10326,348.837209302326,4,3,1,30,1,0
11023,-100,4,2,2,30,0,0
11372,-100,4,2,2,35,0,0
11729,344.827586206897,4,2,2,65,1,0
17246,346.820809248555,4,2,2,65,1,0
20020,350.877192982457,4,2,2,65,1,0
22827,352.941176470589,4,2,1,50,1,0
27062,348.837209302326,4,2,1,50,1,0
33341,-100,4,2,2,50,0,0
33689,-100,4,2,2,45,0,0
34038,-100,4,2,2,55,0,0
45200,350.877192982456,4,2,2,50,1,0
48007,346.820809248555,4,2,2,50,1,0
50781,348.837209302326,4,2,2,50,1,0
53658,-100,4,2,1,90,0,0
54269,-100,4,2,2,50,0,0
54356,-100,4,2,1,90,0,0
54967,-100,4,2,2,50,0,0
56013,-100,4,2,2,40,0,0
56362,-83.3333333333333,4,2,2,70,0,1
70317,348.837209302326,4,2,2,70,1,1
70317,-83.3333333333333,4,2,2,70,0,1
78689,-83.3333333333333,4,2,2,75,0,1
88282,-125,4,2,2,55,0,0
88630,-125,4,2,1,55,0,0
90375,-125,4,2,2,55,0,0
90549,-125,4,2,1,55,0,0
90898,-125,4,2,2,55,0,0
91421,-125,4,2,1,55,0,0
91770,-125,4,2,2,55,0,0
91944,-125,4,2,1,55,0,0
92293,-125,4,2,2,55,0,0
92817,-125,4,2,1,55,0,0
93166,-125,4,2,2,55,0,0
93340,-125,4,2,1,55,0,0
93689,-125,4,2,2,55,0,0
94212,-125,4,2,1,55,0,0
94561,-125,4,2,2,55,0,0
94735,-125,4,2,1,55,0,0
95084,-125,4,2,2,55,0,0
95607,-125,4,2,1,55,0,0
95956,-125,4,2,2,55,0,0
96130,-125,4,2,1,55,0,0
96479,-125,4,2,2,55,0,0
97003,-125,4,2,1,55,0,0
97352,-125,4,2,2,55,0,0
97526,-125,4,2,1,55,0,0
97875,-125,4,2,2,55,0,0
98398,-125,4,2,1,55,0,0
98747,-125,4,2,2,55,0,0
98921,-125,4,2,1,55,0,0
99270,-125,4,2,2,55,0,0
100142,-125,4,2,2,35,0,0
100665,-125,4,2,1,35,0,0
101014,-100,4,2,2,55,0,0
112177,-100,4,2,2,50,0,0
120636,-100,4,2,1,90,0,0
121247,-100,4,2,2,50,0,0
121334,-100,4,2,1,90,0,0
121945,-100,4,2,2,50,0,0
123340,-83.3333333333333,4,2,2,75,0,1
145665,-125,4,2,2,55,0,0
145753,-125,4,3,1,55,0,0
146189,-125,4,2,2,55,0,0
146276,-125,4,3,1,55,0,0
146712,-125,4,2,2,55,0,0
146799,-125,4,3,1,55,0,0
147061,350.877192982457,4,2,2,55,1,0
147061,-125,4,2,2,55,0,0
147148,-125,4,3,1,55,0,0
147587,-125,4,2,2,55,0,0
147674,-125,4,3,1,55,0,0
148113,-125,4,2,2,55,0,0
148200,-125,4,3,1,55,0,0
148464,-125,4,2,2,55,0,0
148551,-125,4,3,1,55,0,0
148990,-125,4,2,2,55,0,0
149077,-125,4,3,1,55,0,0
149517,-125,4,2,2,55,0,0
149604,-125,4,3,1,55,0,0
149868,-125,4,2,2,55,0,0
149955,-125,4,3,1,55,0,0
150394,-125,4,2,2,55,0,0
150481,-125,4,3,1,55,0,0
150920,-125,4,2,2,55,0,0
151007,-125,4,3,1,55,0,0
151271,-125,4,2,2,55,0,0
151358,-125,4,3,1,55,0,0
151797,-125,4,2,2,55,0,0
151884,-125,4,3,1,55,0,0
152324,-125,4,2,2,55,0,0
152411,-125,4,3,1,55,0,0
152675,-125,4,2,2,55,0,0
152762,-125,4,3,1,55,0,0
153201,-125,4,2,2,55,0,0
153288,-125,4,3,1,55,0,0
153727,-125,4,2,2,55,0,0
153814,-125,4,3,1,55,0,0
154078,-125,4,2,2,55,0,0
154165,-125,4,3,1,55,0,0
154604,-125,4,2,2,55,0,0
154691,-125,4,3,1,55,0,0
155131,-125,4,2,2,55,0,0
155218,-125,4,3,1,55,0,0
155482,-125,4,2,2,60,0,0
156885,344.827586206897,4,2,2,65,1,0
162402,348.837209302326,4,2,2,65,1,0
165192,350.877192982457,4,2,2,65,1,0
167648,-104.166666666667,4,2,2,65,0,0
168013,352.941176470589,4,2,2,40,1,0
169424,-100,4,2,1,40,0,0
173660,344.827586206897,4,2,2,40,1,0
175039,-100,4,2,1,40,0,0
176418,-100,4,2,2,50,0,0
179177,348.837209302326,4,2,2,75,1,1
179177,-83.3333333333333,4,2,2,75,0,1
190339,346.820809248555,4,2,2,75,1,1
190339,-83.3333333333333,4,2,2,75,0,1
193113,348.837209302326,4,2,2,75,1,1
193113,-83.3333333333333,4,2,2,75,0,1
194508,350.877192982457,4,2,2,75,1,1
194508,-83.3333333333333,4,2,2,75,0,1
201525,333.333333333334,4,2,2,75,1,1
201525,-83.3333333333333,4,2,2,75,0,1
202858,350.877192982457,4,2,2,80,1,1
202858,-83.3333333333333,4,2,2,80,0,1
209875,352.941176470589,4,2,2,80,1,1
209875,-83.3333333333333,4,2,2,80,0,1
210580,333.333333333334,4,2,2,80,1,1
210580,-83.3333333333333,4,2,2,80,0,1
211913,363.636363636365,4,2,2,80,1,1
211913,-83.3333333333333,4,2,2,80,0,1
212640,-100,4,2,2,80,0,0
212731,-100,4,2,2,50,0,0
219094,-100,4,2,2,40,0,0
220276,-100,4,2,2,30,0,0
220640,-100,4,2,2,20,0,0
221003,-100,4,2,2,70,0,0

[Colours]
Combo1 : 80,141,156
Combo2 : 158,160,75
Combo3 : 156,80,80
Combo4 : 85,156,80

[HitObjects]
179,329,11023,6,0,B|164:298|164:298|160:296|160:296|145:267,2,70,2|2|0,0:1|0:1|0:0,0:0:0:0:
330,164,11729,6,0,P|263:176|233:237,1,140,6|0,3:1|1:2,0:0:0:0:
318,310,12246,2,0,B|359:293|359:293|384:291,1,70,2|0,0:1|3:2,0:0:0:0:
450,214,12591,1,0,3:2:0:0:
450,214,12763,1,2,1:1:0:0:
233,90,13108,6,0,P|263:151|330:164,1,140,2|0,3:1|1:2,0:0:0:0:
352,55,13625,2,0,B|320:23|320:23|297:12,1,70,2|0,0:1|3:2,0:0:0:0:
196,6,13970,1,0,3:2:0:0:
196,6,14142,1,2,1:1:0:0:
249,210,14487,6,0,P|270:146|232:90,1,140,2|0,3:1|1:2,0:0:0:0:
140,156,15004,2,0,B|131:200|131:200|121:223,1,70,2|0,0:1|3:2,0:0:0:0:
162,305,15349,1,0,3:2:0:0:
162,305,15522,1,2,1:1:0:0:
301,368,15866,5,2,3:1:0:0:
327,284,16039,1,0,3:2:0:0:
414,265,16211,1,0,1:2:0:0:
447,183,16384,2,0,P|423:117|389:56,1,140,2|0,0:1|3:2,0:0:0:0:
314,112,16901,1,2,1:1:0:0:
314,112,17073,1,0,1:2:0:0:
248,210,17246,6,0,P|181:210|147:153,1,140,6|0,3:1|1:2,0:0:0:0:
63,209,17766,2,0,B|68:250|68:250|48:346,1,140,2|0,0:1|3:2,0:0:0:0:
138,352,18286,1,2,1:1:0:0:
138,352,18459,1,0,0:0:0:0:
235,371,18633,5,2,3:1:0:0:
235,371,18806,2,0,P|251:339|268:309,1,70,0|0,3:2|1:2,0:0:0:0:
365,324,19153,2,0,P|417:280|408:213,1,140,2|0,0:1|3:2,0:0:0:0:
425,113,19673,1,2,1:1:0:0:
263,42,20020,6,0,B|246:91|246:91|250:179,1,140,2|0,3:1|1:2,0:0:0:0:
161,223,20546,2,0,P|130:202|112:172,1,70,2|0,0:1|3:2,0:0:0:0:
39,236,20897,1,0,3:2:0:0:
39,236,21072,1,2,1:1:0:0:
119,376,21423,5,2,3:1:0:0:
193,326,21598,1,0,3:2:0:0:
277,347,21774,1,0,1:2:0:0:
346,296,21949,2,0,B|351:197|351:197|368:160,1,140,2|0,0:1|3:2,0:0:0:0:
340,69,22476,1,2,1:1:0:0:
340,69,22651,1,0,1:2:0:0:
353,132,33341,5,8,3:3:0:0:
353,132,33515,1,4,3:3:0:0:
175,337,34038,6,0,B|155:243|155:243|135:202,1,140,4|0,3:1|1:2,0:0:0:0:
87,116,34561,1,2,0:2:0:0:
177,75,34735,1,2,3:2:0:0:
177,75,34910,2,0,P|165:41|143:15,1,70,2|0,3:2|1:2,0:0:0:0:
274,21,35259,6,0,L|413:31,1,140,2|0,0:2|3:2,0:0:0:0:
479,112,35782,1,2,1:2:0:0:
479,112,35957,1,2,0:2:0:0:
414,187,36131,1,2,3:2:0:0:
414,187,36306,2,0,P|379:187|352:166,1,70,2|0,3:2|1:2,0:0:0:0:
253,180,36654,6,0,P|198:221|196:289,1,140,2|0,0:2|3:2,0:0:0:0:
290,365,37177,1,0,1:2:0:0:
358,310,37351,1,2,0:2:0:0:
430,254,37526,1,2,3:2:0:0:
430,254,37700,2,0,L|413:186,1,70,2|2,3:2|1:2,0:0:0:0:
342,89,38050,6,0,P|273:86|205:70,1,140,2|0,0:2|3:2,0:0:0:0:
134,130,38573,1,2,1:2:0:0:
18,259,38922,1,2,3:2:0:0:
18,259,39096,2,0,P|31:291|41:324,1,70,2|0,3:2|1:2,0:0:0:0:
133,348,39445,1,2,0:2:0:0:
221,301,39620,6,0,B|238:213|238:213|235:161,1,140,4|0,3:2|1:2,0:0:0:0:
205,70,40142,1,2,0:2:0:0:
205,70,40317,2,0,L|142:38,1,70,2|2,3:2|3:2,0:0:0:0:
52,75,40665,1,2,1:2:0:0:
52,75,40840,1,0,0:0:0:0:
142,249,41189,5,2,3:2:0:0:
142,249,41363,1,2,1:2:0:0:
221,301,41538,2,0,P|284:331|349:355,1,140,2|2,0:2|3:2,0:0:0:0:
438,294,42061,1,0,1:2:0:0:
438,294,42236,2,0,P|440:225|394:174,1,140,2|2,0:2|3:2,0:0:0:0:
319,95,42759,5,0,1:2:0:0:
319,95,42934,2,0,B|276:174|276:174|284:223,1,140,0|0,0:0|3:2,0:0:0:0:
394,174,43457,2,0,P|425:158|458:147,1,70,0|0,1:2|0:0,0:0:0:0:
429,57,43806,1,0,3:2:0:0:
429,57,43980,1,0,3:2:0:0:
328,1,44155,1,0,1:2:0:0:
328,1,44329,2,0,B|281:18|281:18|192:-1,1,140,0|0,0:0|3:2,0:0:0:0:
117,77,44852,2,0,P|109:111|86:137,1,70,0|0,1:2|0:0,0:0:0:0:
59,246,45200,6,0,B|226:295|94:283|247:330,1,210,4|0,3:2|3:2,0:0:0:0:
353,367,45901,1,2,1:2:0:0:
353,367,46077,1,2,1:2:0:0:
437,297,46252,1,2,3:2:0:0:
437,297,46428,2,0,B|434:258|434:258|417:229,1,70,2|0,0:2|3:2,0:0:0:0:
369,133,46778,2,0,B|330:130|330:130|301:113,1,70,2|0,1:2|3:2,0:0:0:0:
204,143,47129,1,2,3:2:0:0:
122,63,47305,1,0,1:2:0:0:
122,63,47480,2,0,B|210:37|163:27|249:0,1,140,0|0,3:2|0:0,0:0:0:0:
364,43,48007,6,0,P|336:145|317:248,1,210,4|2,3:2|3:2,0:0:0:0:
224,267,48700,1,2,1:2:0:0:
224,267,48874,2,0,P|193:284|162:299,1,70,2|2,0:2|1:3,0:0:0:0:
83,235,49220,2,0,P|89:200|84:166,1,70,2|0,1:2|3:2,0:0:0:0:
0,147,49567,1,2,1:2:0:0:
0,317,49914,6,0,B|65:337|51:366|120:385,1,140,2|2,3:2|3:2,0:0:0:0:
241,353,50434,1,2,3:2:0:0:
241,353,50608,1,0,1:2:0:0:
316,247,50781,2,0,P|295:152|381:108,1,210,4|2,3:2|3:2,0:0:0:0:
463,51,51478,5,2,1:2:0:0:
463,51,51653,1,2,0:2:0:0:
509,137,51827,1,2,1:3:0:0:
509,137,52001,2,0,P|494:169|482:202,1,70,2|0,1:2|3:2,0:0:0:0:
395,233,52350,2,0,P|406:266|421:297,1,70,2|0,1:2|3:2,0:0:0:0:
340,359,52699,1,2,3:2:0:0:
340,359,52874,1,0,1:2:0:0:
254,319,53048,2,0,P|185:303|116:305,1,140,0|2,3:2|0:2,0:0:0:0:
5,349,53571,6,2,B|87:161|-52:254|24:83,2,280,4|0|2,3:2|1:2|1:1,0:1:0:0:
116,305,55141,1,2,1:1:0:0:
288,190,56362,6,0,B|259:217|259:217|235:255,1,83.9999974365235,4|0,3:2|3:2,0:0:0:0:
116,305,56711,2,0,L|154:141,2,167.999994873047,6|0|0,1:1|3:2|1:2,0:0:0:0:
349,236,57757,6,0,P|309:224|287:189,1,83.9999974365235,4|0,3:2|3:2,0:0:0:0:
385,113,58106,1,2,1:2:0:0:
385,113,58280,1,6,0:2:0:0:
471,189,58455,2,0,P|459:229|450:270,1,83.9999974365235,2|0,3:2|3:2,0:0:0:0:
366,363,58803,2,0,P|325:374|284:383,1,83.9999974365235,6|0,1:2|0:0,0:0:0:0:
198,277,59152,6,0,P|116:271|60:330,2,167.999994873047,6|2|4,3:1|1:1|3:2,0:0:0:0:
265,195,60024,1,0,3:2:0:0:
198,118,60199,2,0,L|267:70,1,83.9999974365235,0|0,1:2|0:0,0:0:0:0:
110,50,60548,5,4,3:2:0:0:
110,50,60722,1,0,3:2:0:0:
35,136,60896,1,0,1:2:0:0:
35,136,61071,1,0,0:0:0:0:
121,216,61245,1,0,3:2:0:0:
121,216,61420,1,0,3:2:0:0:
26,263,61594,2,0,P|38:302|67:333,1,83.9999974365235,6|0,1:2|0:0,0:0:0:0:
186,366,61943,6,0,B|297:345|297:345|351:351,1,167.999994873047,6|2,3:1|1:1,0:0:0:0:
329,245,62466,1,2,0:2:0:0:
421,202,62641,2,0,P|418:160|391:129,1,83.9999974365235,6|0,3:2|3:2,0:0:0:0:
301,58,62989,2,0,P|259:60|228:87,1,83.9999974365235,2|0,1:2|0:0,0:0:0:0:
159,200,63338,6,0,L|185:365,1,167.999994873047,6|0,3:2|1:2,0:0:0:0:
60,346,63862,2,0,P|51:305|73:270,1,83.9999974365235,4|0,0:2|3:2,0:0:0:0:
62,166,64210,1,2,3:2:0:0:
124,87,64385,1,2,1:2:0:0:
124,87,64559,1,2,0:2:0:0:
228,87,64734,6,0,L|242:4,1,83.9999974365235,6|2,3:2|3:2,0:0:0:0:
347,28,65082,1,2,1:2:0:0:
392,115,65257,1,2,0:2:0:0:
475,44,65431,1,6,3:1:0:0:
475,44,65606,1,2,3:2:0:0:
507,140,65780,6,0,P|485:220|483:304,2,167.999994873047,2|6|2,1:2|3:2|1:2,0:0:0:0:
475,44,66652,1,0,1:2:0:0:
475,44,66827,1,6,3:2:0:0:
400,122,67001,1,0,1:2:0:0:
400,122,67088,1,0,1:2:0:0:
400,122,67175,2,0,L|405:163,3,41.9999987182618,8|4|0|0,1:3|1:3|1:2|1:2,0:0:0:0:
378,203,67524,5,4,3:2:0:0:
288,170,67699,1,0,3:2:0:0:
252,272,67873,2,0,P|176:302|102:267,1,167.999994873047,4|0,1:1|3:2,0:0:0:0:
122,168,68396,1,0,3:2:0:0:
19,141,68571,2,0,P|7:178|1:223,1,83.9999974365235,0|0,1:2|0:0,0:0:0:0:
55,335,68920,5,4,3:2:0:0:
55,335,69094,2,0,B|84:305|84:305|102:267,1,83.9999974365235,0|2,3:2|1:2,0:0:0:0:
200,196,69443,1,6,0:2:0:0:
200,196,69617,2,0,B|164:173|164:173|122:168,1,83.9999974365235,2|0,3:2|3:2,0:0:0:0:
95,66,69966,1,6,1:2:0:0:
322,42,70317,6,0,P|345:122|359:205,2,167.999994873047,6|2|4,3:1|1:1|3:2,0:0:0:0:
426,14,71189,1,0,3:2:0:0:
487,88,71363,2,0,L|468:170,1,83.9999974365235,0|0,1:2|0:0,0:0:0:0:
504,267,71712,5,4,3:2:0:0:
507,272,71886,1,0,3:2:0:0:
393,279,72061,1,0,1:2:0:0:
393,279,72235,1,0,0:0:0:0:
433,384,72410,1,4,3:2:0:0:
433,384,72584,1,2,3:2:0:0:
324,366,72758,2,0,L|254:319,1,83.9999974365235,6|2,1:2|0:2,0:0:0:0:
154,276,73107,6,0,P|125:305|84:306,1,83.9999974365235,6|0,3:1|3:2,0:0:0:0:
88,199,73456,2,0,P|139:136|220:134,2,167.999994873047,2|6|2,1:1|3:2|1:2,0:0:0:0:
154,276,74328,1,2,0:2:0:0:
254,319,74503,2,0,B|293:312|293:312|329:287,1,83.9999974365235,6|0,3:1|3:2,0:0:0:0:
373,156,74851,1,0,1:2:0:0:
283,185,75026,2,0,B|239:163|239:163|221:134,2,83.9999974365235,0|4|0,0:0|3:2|3:2,0:0:0:0:
272,36,75549,1,6,1:2:0:0:
461,72,75898,5,6,3:1:0:0:
461,72,76072,2,0,L|479:155,1,83.9999974365235,2|4,3:2|1:2,0:0:0:0:
466,264,76421,1,2,0:2:0:0:
371,302,76596,2,0,P|298:264|282:184,1,167.999994873047,2|4,3:1|1:2,0:0:0:0:
105,252,77293,6,0,P|121:289|109:328,1,83.9999974365235,2|0,3:2|3:2,0:0:0:0:
23,178,77642,2,0,P|6:140|18:101,1,83.9999974365235,6|0,1:2|0:0,0:0:0:0:
71,0,77991,1,2,3:2:0:0:
182,55,78165,1,0,1:2:0:0:
182,55,78253,1,0,1:2:0:0:
182,55,78340,2,0,L|222:44,3,41.9999987182618,2|0|2|0,1:2|3:2|1:2|1:2,0:0:0:0:
267,65,78689,6,0,B|276:120|276:120|292:143,2,83.9999974365235,4|0|0,3:2|3:2|1:2,0:0:0:0:
355,0,79212,2,0,B|383:7|383:7|420:47,1,83.9999974365235,6|0,3:1|0:0,0:0:0:0:
502,126,79561,2,0,B|493:181|493:181|472:200,1,83.9999974365235,6|0,3:1|1:2,0:0:0:0:
383,280,79910,2,0,B|261:241|261:241|229:265,1,167.999994873047,6|2,3:1|3:2,0:0:0:0:
278,355,80433,5,2,1:2:0:0:
278,355,80607,1,2,0:2:0:0:
138,335,80782,2,0,B|128:288|128:288|127:251,1,83.9999974365235,2|0,3:2|3:2,0:0:0:0:
41,209,81130,1,2,1:2:0:0:
159,43,81479,5,4,3:2:0:0:
159,43,81654,2,0,L|236:74,1,83.9999974365235,0|0,3:2|1:2,0:0:0:0:
269,176,82003,2,0,B|218:190|218:190|119:249,1,167.999994873047,6|6,3:1|3:1,0:0:0:0:
105,129,82526,1,0,1:2:0:0:
105,129,82700,2,0,P|71:103|34:84,1,83.9999974365235,6|0,3:1|0:0,0:0:0:0:
159,43,83049,5,2,3:2:0:0:
236,74,83223,1,2,1:2:0:0:
308,27,83398,1,2,0:2:0:0:
412,48,83572,2,0,P|431:129|444:212,1,167.999994873047,2|2,3:2|1:2,0:0:0:0:
512,334,84096,1,0,1:2:0:0:
395,384,84270,6,0,P|401:342|414:302,1,83.9999974365235,6|0,3:2|3:2,0:0:0:0:
319,235,84619,1,0,1:2:0:0:
204,241,84793,2,0,B|182:259|182:259|159:309,1,83.9999974365235,6|0,3:1|0:0,0:0:0:0:
73,229,85142,2,0,B|62:174|62:174|70:147,1,83.9999974365235,6|0,3:1|1:2,0:0:0:0:
85,25,85491,2,0,P|167:25|235:73,1,167.999994873047,6|2,3:1|3:2,0:0:0:0:
332,36,86014,5,2,1:2:0:0:
332,36,86189,1,2,0:2:0:0:
329,151,86363,2,0,L|318:234,1,83.9999974365235,2|0,3:2|3:2,0:0:0:0:
423,230,86712,1,6,1:2:0:0:
259,382,87061,5,4,3:2:0:0:
259,382,87235,2,0,B|214:353|214:353|185:342,1,83.9999974365235,0|0,3:2|1:2,0:0:0:0:
237,255,87584,2,0,L|318:234,1,83.9999974365235,6|0,3:1|0:0,0:0:0:0:
423,230,87933,2,0,L|487:283,1,83.9999974365235,6|0,3:1|1:2,0:0:0:0:
512,158,88282,6,0,B|487:93|487:93|461:58,2,112,6|0|0,3:1|3:2|3:2,0:0:0:0:
427,234,89154,1,0,3:2:0:0:
427,234,89328,1,0,3:2:0:0:
331,173,89503,2,0,P|279:154|230:127,1,112,2|6,3:2|3:2,0:0:0:0:
58,248,90200,5,0,3:2:0:0:
58,248,90375,2,0,L|67:303,2,56,2|0|0,3:2|3:2|3:2,0:0:0:0:
0,168,90898,1,2,1:1:0:0:
209,219,91247,6,0,L|200:274,2,56,2|0|0,3:2|3:2|3:2,0:0:0:0:
290,315,91770,2,0,L|264:367,2,56,2|0|0,3:2|3:2|3:2,0:0:0:0:
391,325,92293,1,2,1:1:0:0:
476,158,92642,6,0,L|450:106,2,56,2|0|0,3:2|3:2|3:2,0:0:0:0:
372,130,93165,2,0,L|327:95,2,56,2|0|0,3:2|3:2|3:2,0:0:0:0:
253,130,93689,1,2,1:1:0:0:
89,84,94037,6,0,L|94:28,2,56,2|0|0,3:2|3:2|3:2,0:0:0:0:
64,178,94561,2,0,L|69:233,2,56,2|0|0,3:2|3:2|3:2,0:0:0:0:
0,115,95084,1,2,1:1:0:0:
157,274,95433,6,0,P|206:248|261:244,1,112,2|0,3:2|3:2,0:0:0:0:
349,201,95956,2,0,P|372:217|401:233,2,56,2|0|0,3:2|3:2|3:2,0:0:0:0:
327,112,96479,1,2,1:1:0:0:
483,19,96828,5,2,3:2:0:0:
483,19,97003,2,0,P|491:83|500:135,2,112,0|2|0,3:2|3:2|3:2,0:0:0:0:
393,0,97875,1,2,1:1:0:0:
223,43,98223,6,0,L|215:98,2,56,2|0|0,3:2|3:2|3:2,0:0:0:0:
125,105,98747,2,0,L|132:160,2,56,2|0|0,3:2|3:2|3:2,0:0:0:0:
42,188,99270,1,2,1:1:0:0:
279,308,99619,5,6,3:3:0:0:
414,378,99793,5,6,3:3:0:0:
474,316,101014,6,0,P|466:247|451:179,1,140,4|0,3:2|1:2,0:0:0:0:
486,80,101537,1,2,0:2:0:0:
382,11,101712,1,2,3:2:0:0:
382,11,101886,2,0,P|375:45|372:80,1,70,2|0,3:2|1:2,0:0:0:0:
284,156,102235,6,0,P|221:129|203:64,1,140,2|0,0:2|3:2,0:0:0:0:
101,30,102758,1,2,1:2:0:0:
101,30,102933,1,2,0:2:0:0:
21,120,103107,1,2,3:2:0:0:
105,158,103282,2,0,B|140:183|140:183|157:203,1,70,2|0,3:2|1:2,0:0:0:0:
221,296,103630,6,0,L|84:325,1,140,2|0,0:2|3:2,0:0:0:0:
0,279,104154,1,0,1:2:0:0:
0,279,104328,1,2,0:2:0:0:
10,190,104503,1,2,3:2:0:0:
10,190,104677,1,2,3:2:0:0:
13,100,104851,1,2,1:2:0:0:
13,100,105026,2,0,L|81:86,2,70,2|0|0,0:2|3:2|3:2,0:0:0:0:
158,137,105549,6,0,P|211:183|275:212,1,140,2|2,1:2|3:2,0:0:0:0:
380,176,106072,2,0,P|391:146|411:113,1,70,2|0,3:2|1:2,0:0:0:0:
440,262,106421,2,0,P|451:291|471:324,2,70,2|0|0,0:2|3:2|3:2,0:0:0:0:
359,346,106944,1,0,1:2:0:0:
359,346,107119,1,2,0:2:0:0:
272,365,107293,1,2,3:2:0:0:
219,287,107468,1,2,3:2:0:0:
279,217,107642,5,2,1:2:0:0:
279,217,107817,2,0,L|285:147,1,70,2|0,0:2|3:2,0:0:0:0:
173,94,108165,2,0,L|179:163,1,70,2|0,3:2|1:2,0:0:0:0:
116,243,108514,2,0,B|74:256|74:256|0:317,1,140,2|2,0:2|3:2,0:0:0:0:
103,374,109037,1,0,1:2:0:0:
200,341,109212,6,0,L|204:271,1,70,2|0,0:2|3:2,0:0:0:0:
293,215,109561,1,2,3:2:0:0:
262,113,109735,1,0,1:2:0:0:
262,113,109910,2,0,B|336:64|336:64|385:51,1,140,0|0,0:0|3:2,0:0:0:0:
489,87,110433,2,0,P|498:126|496:156,1,70,0|0,1:2|0:0,0:0:0:0:
412,221,110782,5,0,3:2:0:0:
348,292,110956,2,0,P|338:331|340:361,1,70,0|0,3:2|1:2,0:0:0:0:
219,364,111305,2,0,B|184:278|184:278|157:239,1,140,0|8,0:0|0:3,0:0:0:0:
186,126,111828,1,8,1:3:0:0:
90,80,112003,1,4,0:3:0:0:
170,11,112177,6,0,B|283:31|264:-8|378:10,1,210,4|0,3:2|3:2,0:0:0:0:
460,89,112875,1,2,1:2:0:0:
435,175,113049,1,2,1:2:0:0:
347,193,113223,1,2,3:2:0:0:
347,193,113398,2,0,L|333:261,1,70,2|0,0:2|3:2,0:0:0:0:
253,312,113747,2,0,L|266:380,1,70,2|0,1:2|3:2,0:0:0:0:
385,364,114096,2,0,L|434:314,2,70,2|0|0,3:2|1:2|3:2,0:0:0:0:
333,261,114619,1,2,1:3:0:0:
121,255,114968,6,0,P|56:277|24:337,1,140,4|0,3:2|3:2,0:0:0:0:
127,361,115491,1,2,3:2:0:0:
234,344,115665,2,0,L|215:276,1,70,2|2,1:2|3:2,0:0:0:0:
182,161,116014,1,2,0:3:0:0:
182,161,116189,2,0,L|200:93,1,70,2|0,1:2|3:2,0:0:0:0:
313,70,116537,2,0,L|448:33,2,140,2|2|2,1:2|3:2|3:2,0:0:0:0:
306,174,117410,1,2,3:2:0:0:
404,187,117584,1,0,1:2:0:0:
480,256,117758,6,0,P|470:324|419:371,1,140,4|0,3:2|0:0,0:0:0:0:
320,343,118282,1,2,3:2:0:0:
242,297,118456,1,2,1:2:0:0:
242,297,118630,1,2,0:2:0:0:
146,367,118805,1,2,1:3:0:0:
146,367,118979,2,0,L|120:302,2,70,2|2|2,1:2|3:2|1:2,0:0:0:0:
19,224,119677,2,0,P|29:190|44:159,1,70,2|0,3:2|1:2,0:0:0:0:
52,35,120026,1,0,3:2:0:0:
140,58,120200,2,0,P|150:91|165:122,1,70,2|2,0:3|0:3,0:0:0:0:
240,227,120549,6,2,P|373:186|511:163,2,280,4|0|2,3:2|1:2|1:1,0:1:0:0:
165,122,122119,1,2,1:1:0:0:
79,57,123340,5,4,3:2:0:0:
165,122,123514,1,0,3:2:0:0:
87,203,123689,2,0,B|74:248|74:248|94:367,2,167.999994873047,4|0|0,1:1|3:2|1:2,0:0:0:0:
317,33,124735,6,0,L|302:115,1,83.9999974365235,4|0,3:2|3:2,0:0:0:0:
377,196,125084,1,2,1:2:0:0:
377,196,125258,1,6,0:2:0:0:
301,272,125433,2,0,B|263:276|263:276|219:291,1,83.9999974365235,2|0,3:2|3:2,0:0:0:0:
154,367,125782,1,6,1:2:0:0:
337,384,126130,6,0,B|311:256|311:256|295:222,2,167.999994873047,6|2|4,3:1|1:1|3:2,0:0:0:0:
426,314,127003,1,0,3:2:0:0:
426,314,127177,2,0,L|437:230,1,83.9999974365235,0|0,1:2|0:0,0:0:0:0:
507,135,127526,5,4,3:2:0:0:
507,135,127700,1,0,3:2:0:0:
428,55,127875,1,0,1:2:0:0:
428,55,128049,2,0,P|393:78|352:80,1,83.9999974365235,0|4,0:0|3:2,0:0:0:0:
238,23,128398,1,2,3:2:0:0:
135,41,128572,2,0,P|158:75|160:116,1,83.9999974365235,6|2,1:2|0:2,0:0:0:0:
54,180,128921,6,0,P|30:260|24:344,1,167.999994873047,6|2,3:1|1:1,0:0:0:0:
128,336,129444,1,2,0:2:0:0:
224,273,129619,2,0,P|208:235|182:203,1,83.9999974365235,6|2,3:2|3:2,0:0:0:0:
302,140,129968,1,2,1:2:0:0:
299,382,130317,6,0,L|320:300,1,83.9999974365235,6|0,3:2|3:2,0:0:0:0:
413,259,130665,1,0,1:2:0:0:
501,193,130840,2,0,L|479:111,2,83.9999974365235,4|0|0,0:2|3:2|3:2,0:0:0:0:
417,263,131363,1,6,1:2:0:0:
417,263,131537,1,2,0:2:0:0:
382,157,131712,6,0,B|352:143|352:143|301:139,1,83.9999974365235,6|0,3:2|3:2,0:0:0:0:
223,55,132061,1,2,1:2:0:0:
223,55,132235,1,2,0:2:0:0:
140,128,132410,2,0,P|153:167|162:208,1,83.9999974365235,6|2,3:1|3:2,0:0:0:0:
29,286,132758,2,0,P|42:246|51:205,1,83.9999974365235,2|2,1:2|0:2,0:0:0:0:
83,363,133107,6,0,B|117:345|117:345|242:311,1,167.999994873047,6|2,3:2|1:2,0:0:0:0:
343,366,133630,1,0,1:2:0:0:
343,366,133805,1,6,3:2:0:0:
416,273,133979,1,0,1:2:0:0:
416,273,134067,1,0,1:2:0:0:
416,273,134154,2,0,L|422:231,3,41.9999987182618,8|4|8|8,1:3|1:3|1:3|1:3,0:0:0:0:
400,194,134503,6,0,P|322:174|262:228,2,167.999994873047,4|4|0,3:2|1:1|3:2,0:0:0:0:
474,125,135375,1,0,3:2:0:0:
431,34,135549,1,0,1:2:0:0:
192,27,135898,5,4,3:2:0:0:
192,27,136072,2,0,B|139:48|139:48|112:42,1,83.9999974365235,0|2,3:2|1:2,0:0:0:0:
0,144,136421,1,6,0:2:0:0:
0,144,136595,2,0,B|56:148|56:148|80:135,1,83.9999974365235,2|0,3:2|3:2,0:0:0:0:
195,186,136944,2,0,P|159:261|139:342,1,167.999994873047,6|6,1:2|3:1,0:0:0:0:
241,333,137468,1,0,3:2:0:0:
329,261,137642,2,0,P|411:272|488:306,2,167.999994873047,2|4|0,1:1|3:2|1:2,0:0:0:0:
276,32,138689,6,0,L|261:114,1,83.9999974365235,4|0,3:2|3:2,0:0:0:0:
360,150,139037,1,0,1:2:0:0:
420,75,139212,2,0,B|394:45|394:45|377:3,1,83.9999974365235,0|4,0:0|3:2,0:0:0:0:
276,32,139561,1,2,3:2:0:0:
183,92,139735,1,6,1:2:0:0:
183,92,139910,1,2,0:2:0:0:
75,51,140084,6,0,P|55:132|23:210,2,167.999994873047,6|2|6,3:1|1:1|3:2,0:0:0:0:
131,292,141130,1,2,1:2:0:0:
131,292,141305,1,2,0:2:0:0:
217,255,141479,2,0,L|297:279,1,83.9999974365235,6|0,3:1|3:2,0:0:0:0:
380,198,141828,1,0,1:2:0:0:
490,223,142003,2,0,B|468:268|468:268|449:384,1,167.999994873047,4|0,0:1|3:2,0:0:0:0:
352,374,142526,1,4,1:2:0:0:
297,279,142700,5,2,0:2:0:0:
215,352,142875,1,6,3:1:0:0:
215,352,143049,2,0,P|178:371|137:365,1,83.9999974365235,2|4,3:2|1:2,0:0:0:0:
10,335,143398,1,2,0:2:0:0:
52,242,143572,2,0,P|88:222|129:228,2,83.9999974365235,2|0|4,3:2|3:2|1:2,0:0:0:0:
116,37,144270,6,0,L|139:117,1,83.9999974365235,2|0,3:2|3:2,0:0:0:0:
239,187,144619,2,0,L|262:106,1,83.9999974365235,6|0,1:2|0:0,0:0:0:0:
380,46,144968,2,0,P|409:124|425:206,1,167.999994873047,2|2,3:2|1:2,0:0:0:0:
378,293,145491,2,0,L|310:343,1,83.9999974365235,2|4,0:2|3:2,0:0:0:0:
119,372,146014,5,0,0:0:0:0:
119,372,146189,2,0,L|15:239,1,168,0|0,1:2|1:2,0:0:0:0:
202,53,147061,6,0,L|182:163,1,112,0|2,3:2|0:2,0:0:0:0:
290,138,147587,2,0,L|424:37,1,168,2|2,1:2|1:2,0:0:0:0:
512,212,148464,6,0,L|501:267,2,56,0|0|0,3:2|0:0|0:0,0:0:0:0:
391,246,148990,2,0,L|339:345,1,112,0|0,1:2|0:0,0:0:0:0:
255,293,149517,1,0,1:2:0:0:
255,293,149692,1,0,0:0:0:0:
202,379,149868,1,0,3:2:0:0:
26,155,150394,6,0,L|136:170,1,112,0|0,1:2|0:0,0:0:0:0:
162,66,150920,2,0,L|269:31,1,112,2|2,1:2|3:2,0:0:0:0:
384,60,151446,1,0,0:0:0:0:
384,60,151622,1,0,0:0:0:0:
468,140,151797,2,0,B|447:216|465:232|448:306,1,168,2|0,1:2|1:2,0:0:0:0:
350,259,152499,1,0,0:0:0:0:
350,259,152675,1,0,3:2:0:0:
283,325,152850,5,2,0:2:0:0:
193,317,153025,1,2,0:2:0:0:
169,231,153201,1,2,1:2:0:0:
200,142,153376,2,0,P|248:115|302:100,1,112,2|2,0:2|1:2,0:0:0:0:
159,26,153903,6,0,P|70:92|31:195,1,224,2|0,0:2|1:2,0:0:0:0:
94,289,154780,2,0,L|104:343,1,56
169,231,155131,5,0,1:2:0:0:
418,341,155482,5,2,1:1:0:0:
462,239,155657,5,2,1:1:0:0:
362,199,155832,5,2,1:1:0:0:
318,294,156008,5,2,0:1:0:0:
61,25,156885,6,0,B|74:73|74:73|59:162,1,140,0|4,3:2|1:1,0:0:0:0:
133,243,157402,2,0,L|189:201,1,70,0|0,0:0|3:2,0:0:0:0:
286,261,157747,1,0,3:2:0:0:
353,180,157919,1,2,1:3:0:0:
353,180,158091,1,0,0:0:0:0:
465,234,158264,5,0,3:2:0:0:
465,234,158436,2,0,P|442:260|432:293,1,70,0|2,3:2|1:3,0:0:0:0:
336,356,158781,2,0,L|316:288,1,70,0|0,0:0|3:2,0:0:0:0:
219,337,159126,1,0,3:2:0:0:
133,364,159298,1,2,1:3:0:0:
20,151,159643,6,0,P|81:171|148:206,1,140,0|2,3:2|1:3,0:0:0:0:
212,119,160160,2,0,P|196:87|185:54,1,70,0|0,0:0|3:2,0:0:0:0:
310,143,160505,1,0,3:2:0:0:
310,143,160678,1,2,1:3:0:0:
512,109,161022,5,0,3:2:0:0:
512,109,161195,2,0,B|502:141|502:141|499:177,2,70,0|2|0,3:2|1:3|0:0,0:0:0:0:
447,41,161712,1,0,3:2:0:0:
360,68,161885,1,0,3:2:0:0:
393,153,162057,2,0,L|423:289,1,140,2|4,1:3|3:2,0:0:0:0:
215,372,162750,5,2,1:3:0:0:
215,372,162925,2,0,B|173:355|173:355|147:352,1,70,0|0,0:0|3:2,0:0:0:0:
68,279,163274,1,0,3:2:0:0:
68,279,163449,2,0,B|101:248|101:248|114:226,1,70,2|0,1:3|0:0,0:0:0:0:
215,174,163797,5,0,3:2:0:0:
231,78,163971,1,0,3:2:0:0:
151,24,164146,1,2,1:3:0:0:
53,67,164320,2,0,L|23:203,1,140,0|0,0:0|3:2,0:0:0:0:
68,279,164843,1,2,1:3:0:0:
250,330,165192,6,0,B|287:308|287:308|313:301,1,70,0|0,3:2|3:2,0:0:0:0:
378,219,165542,1,2,1:3:0:0:
414,132,165718,2,0,B|389:96|389:96|368:78,2,70,0|0|0,0:0|3:2|3:2,0:0:0:0:
496,202,166244,2,0,L|478:340,1,140,2|0,1:3|3:2,0:0:0:0:
388,374,166770,5,0,3:2:0:0:
388,374,166946,1,2,1:3:0:0:
313,301,167121,1,0,0:0:0:0:
225,366,167297,1,0,3:2:0:0:
225,366,167472,1,0,3:2:0:0:
138,300,167648,2,0,P|68:304|3:329,1,140,2|4,1:3|3:2,0:0:0:0:
256,192,176418,12,0,177711,0:0:0:0:
60,354,179177,5,4,3:2:0:0:
60,354,179351,1,0,3:2:0:0:
149,286,179525,2,0,B|176:187|176:187|150:126,2,167.999994873047,4|0|0,1:1|3:2|1:2,0:0:0:0:
382,334,180572,5,4,3:2:0:0:
382,334,180746,1,0,3:2:0:0:
439,255,180921,2,0,B|415:214|415:214|391:186,2,83.9999974365235,2|6|2,1:2|0:2|3:2,0:0:0:0:
486,353,181444,1,0,3:2:0:0:
486,353,181618,1,6,1:2:0:0:
512,148,181967,6,0,P|462:81|465:0,2,167.999994873047,6|2|4,3:1|1:1|3:2,0:0:0:0:
443,259,182839,1,0,3:2:0:0:
443,259,183014,1,0,1:2:0:0:
289,124,183363,6,0,P|248:132|211:151,1,83.9999974365235,4|0,3:2|3:2,0:0:0:0:
159,249,183711,1,4,1:2:0:0:
159,249,183886,2,0,P|117:240|80:221,1,83.9999974365235,0|4,0:0|3:2,0:0:0:0:
15,316,184235,1,0,3:2:0:0:
90,383,184409,2,0,P|163:343|243:318,1,167.999994873047,6|6,1:2|3:1,0:0:0:0:
347,363,184932,5,0,3:2:0:0:
388,269,185107,1,2,1:1:0:0:
388,269,185281,1,2,0:2:0:0:
414,171,185456,2,0,P|389:136|363:103,1,83.9999974365235,6|0,3:2|3:2,0:0:0:0:
281,0,185804,2,0,P|256:34|230:67,1,83.9999974365235,2|0,1:2|0:0,0:0:0:0:
128,24,186153,5,6,3:2:0:0:
128,24,186328,1,0,3:2:0:0:
34,97,186502,1,0,1:2:0:0:
34,97,186677,2,0,P|38:155|142:195,1,167.999994873047,4|2,0:2|3:2,0:0:0:0:
233,252,187200,1,6,1:2:0:0:
284,172,187374,1,2,0:2:0:0:
384,200,187549,5,6,3:2:0:0:
384,200,187723,1,2,3:2:0:0:
418,298,187897,2,0,B|373:326|373:326|353:352,1,83.9999974365235,2|2,1:2|0:2,0:0:0:0:
249,375,188246,1,6,3:1:0:0:
161,337,188421,1,2,3:2:0:0:
76,295,188595,1,2,1:2:0:0:
152,81,188944,5,6,3:2:0:0:
246,47,189118,1,0,1:2:0:0:
246,47,189293,1,0,1:2:0:0:
339,15,189468,1,0,1:2:0:0:
339,15,189642,2,0,L|376:33,3,41.9999987182618,0|0|8|8,3:2|1:2|0:3|0:3,0:0:0:0:
395,70,189990,2,0,L|438:73,3,41.9999987182618,4|0|4|0,3:3|1:3|1:3|1:2,0:0:0:0:
464,108,190339,5,4,3:2:0:0:
368,184,190512,1,4,3:2:0:0:
431,275,190685,2,0,B|387:282|387:282|277:339,1,167.999994873047,4|0,1:1|3:2,0:0:0:0:
173,300,191206,1,0,3:2:0:0:
76,310,191379,2,0,P|66:269|62:227,1,83.9999974365235,0|0,1:2|0:0,0:0:0:0:
18,105,191726,5,4,3:2:0:0:
18,105,191899,1,0,3:2:0:0:
100,41,192073,1,2,1:2:0:0:
100,41,192246,2,0,B|146:59|146:59|170:83,1,83.9999974365235,6|2,0:2|3:2,0:0:0:0:
280,45,192593,1,0,3:2:0:0:
280,45,192766,2,0,B|326:27|326:27|350:2,1,83.9999974365235,6|0,1:2|0:0,0:0:0:0:
473,36,193113,6,0,L|493:202,2,167.999994873047,6|2|4,3:1|1:1|3:2,0:0:0:0:
393,115,193985,1,0,3:2:0:0:
340,208,194159,2,0,P|369:239|396:270,1,83.9999974365235,0|0,1:2|0:0,0:0:0:0:
342,363,194508,5,4,3:2:0:0:
342,363,194683,1,0,3:2:0:0:
242,329,194858,1,0,1:2:0:0:
242,329,195034,1,0,0:0:0:0:
138,335,195209,2,0,B|115:359|115:359|67:377,1,83.9999974365235,4|2,3:2|3:2,0:0:0:0:
15,279,195560,1,6,1:2:0:0:
88,196,195736,1,2,0:2:0:0:
158,118,195911,6,0,P|220:127|317:171,2,167.999994873047,6|2|6,3:1|1:1|3:2,0:0:0:0:
138,24,196788,1,0,3:2:0:0:
232,0,196964,1,2,1:2:0:0:
232,0,197139,1,2,0:2:0:0:
344,0,197315,6,0,L|318:79,1,83.9999974365235,6|0,3:1|3:2,0:0:0:0:
412,183,197665,1,0,1:2:0:0:
498,150,197841,2,0,L|472:70,2,83.9999974365235,6|4|0,0:1|3:2|3:2,0:0:0:0:
412,183,198367,2,0,B|400:239|400:239|387:262,1,83.9999974365235,2|2,1:2|0:3,0:0:0:0:
342,371,198718,5,6,3:1:0:0:
242,361,198893,2,0,P|234:320|250:282,1,83.9999974365235,2|4,3:2|1:2,0:0:0:0:
151,205,199244,1,2,0:2:0:0:
123,303,199419,2,0,P|130:343|114:381,1,83.9999974365235,6|0,3:1|3:2,0:0:0:0:
16,373,199771,1,4,1:2:0:0:
5,158,200122,6,0,P|46:146|83:129,1,83.9999974365235,2|0,3:2|1:2,0:0:0:0:
179,63,200472,2,0,P|220:74|257:91,1,83.9999974365235,0|2,1:2|1:3,0:0:0:0:
362,46,200823,1,0,1:2:0:0:
381,157,200999,1,0,1:2:0:0:
381,157,201174,2,0,L|388:212,3,41.9999987182618,4|4|4|4,0:3|0:3|0:3|3:3,0:0:0:0:
418,130,201525,6,0,B|457:155|457:155|487:272,1,167.999994873047,4|0,3:2|1:2,0:0:0:0:
385,342,202025,2,0,B|348:344|345:313|303:322,1,83.9999974365235,6|0,3:1|0:0,0:0:0:0:
199,296,202358,2,0,B|162:294|159:325|117:315,1,83.9999974365235,6|0,3:1|1:2,0:0:0:0:
87,217,202691,1,6,3:1:0:0:
226,45,203033,5,2,3:2:0:0:
298,111,203208,1,2,1:2:0:0:
229,171,203384,1,2,0:2:0:0:
155,106,203559,2,0,B|119:101|119:101|71:103,1,83.9999974365235,2|0,3:2|3:2,0:0:0:0:
44,9,203910,1,2,1:2:0:0:
0,296,204261,5,4,3:2:0:0:
0,296,204436,1,0,3:2:0:0:
82,358,204612,1,0,1:2:0:0:
182,318,204787,2,0,B|188:280|165:269|171:235,1,83.9999974365235,6|0,3:1|0:0,0:0:0:0:
314,160,205138,2,0,B|320:197|297:209|303:242,1,83.9999974365235,6|0,3:1|1:2,0:0:0:0:
414,320,205489,2,0,B|486:282|437:218|498:182,1,167.999994873047,6|2,3:1|3:2,0:0:0:0:
491,83,206015,5,2,1:2:0:0:
407,38,206191,1,2,0:2:0:0:
407,38,206366,2,0,L|329:69,1,83.9999974365235,2|0,3:2|3:2,0:0:0:0:
229,30,206717,1,2,1:2:0:0:
140,3,206893,1,0,1:2:0:0:
86,84,207068,6,0,B|95:121|78:133|87:167,2,83.9999974365235,6|0|0,3:2|3:2|1:2,0:0:0:0:
214,139,207594,2,0,B|246:163|231:185|264:204,1,83.9999974365235,6|0,3:1|0:0,0:0:0:0:
210,308,207945,2,0,B|178:332|193:354|159:373,1,83.9999974365235,6|0,3:1|1:2,0:0:0:0:
47,351,208296,2,0,B|43:253|-3:261|3:191,1,167.999994873047,6|2,3:1|3:2,0:0:0:0:
86,84,208822,5,2,1:2:0:0:
308,32,209173,6,0,L|300:73,3,41.9999987182618,2|0|0|0,3:2|1:2|1:2|1:2,0:0:0:0:
335,104,209524,2,0,L|342:145,3,41.9999987182618,2|0|2|0,1:2|1:2|1:2|1:2,0:0:0:0:
385,171,209875,5,4,3:2:0:0:
475,105,210051,1,0,3:2:0:0:
475,105,210227,1,0,1:2:0:0:
495,215,210404,2,0,B|500:260|479:257|474:294,1,83.9999974365235,6|0,3:1|0:0,0:0:0:0:
361,293,210746,2,0,B|356:338|377:335|381:372,1,83.9999974365235,6|0,3:1|1:2,0:0:0:0:
269,379,211080,1,6,3:1:0:0:
89,243,211413,5,0,3:2:0:0:
170,205,211580,1,0,1:2:0:0:
225,121,211746,2,0,P|183:120|142:109,1,83.9999974365235,0|0,0:0|3:2,0:0:0:0:
43,139,212094,2,0,P|-10:248|33:363,1,251.999992309571,0|4,3:2|3:2,0:0:0:0:
256,192,212731,12,4,219003,3:1:0:0:
256,192,219094,12,4,221003,0:3:0:0:
