osu file format v14

[General]
AudioFilename: audio.mp3
AudioLeadIn: 0
PreviewTime: 135585
Countdown: 0
SampleSet: Soft
StackLeniency: 0.7
Mode: 2
LetterboxInBreaks: 0
WidescreenStoryboard: 1

[Editor]
DistanceSpacing: 1.6
BeatDivisor: 4
GridSize: 4
TimelineZoom: 1.9

[Metadata]
Title:kanade
TitleUnicode:kanade
Artist:ANANT-GARDE EYES,Maeda Jun
ArtistUnicode:ANANT-GARDE EYES,Maeda Jun
Creator:roc8852
Version:rain
Source:Angel Beats
Tags:original soundtrack ost key
BeatmapID:2191637
BeatmapSetID:1048540

[Difficulty]
HPDrainRate:5
CircleSize:4
OverallDifficulty:9
ApproachRate:8.5
SliderMultiplier:3
SliderTickRate:1

[Events]
//Background and Video events
0,0,"456957.jpg",0,0
//Break Periods
//Storyboard Layer 0 (Background)
//Storyboard Layer 1 (Fail)
//Storyboard Layer 2 (Pass)
//Storyboard Layer 3 (Foreground)
//Storyboard Layer 4 (Overlay)
//Storyboard Sound Samples

[TimingPoints]
511,722.89156626506,4,2,0,85,1,0
24260,722.89156626506,4,2,0,85,1,0
24260,-50,4,2,0,85,0,0
54440,-50,4,2,0,5,0,0
54621,-50,4,2,0,85,0,0
72693,-50,4,2,0,85,0,0
101609,-50,4,2,0,85,0,0
117513,-50,4,2,0,85,0,0
124019,-1000,4,2,0,85,0,0
126187,-50,4,2,0,85,0,0
128898,-1000,4,2,0,85,0,0
130525,-100,4,2,0,85,0,0
142091,-1000,4,2,0,85,0,0
144259,-100,4,2,0,85,0,0
146970,-1000,4,2,0,85,0,0
148597,-100,4,2,0,85,0,0
165946,-100,4,2,0,75,0,0
166669,-100,4,2,0,65,0,0
167392,-100,4,2,0,55,0,0
168115,-100,4,2,0,45,0,0
168838,-100,4,2,0,35,0,0
169561,-100,4,2,0,25,0,0
170284,-100,4,2,0,15,0,0
177513,-100,4,2,0,5,0,0

[HitObjects]
116,284,24260,5,0,0:0:0:0:
204,284,24440,1,0,0:0:0:0:
296,284,24621,1,0,0:0:0:0:
452,284,24802,1,0,0:0:0:0:
480,232,25525,5,0,0:0:0:0:
392,236,25705,1,0,0:0:0:0:
300,236,25886,1,0,0:0:0:0:
484,316,26067,2,0,P|572:204|476:116,1,300
296,144,26609,5,0,0:0:0:0:
388,144,26790,1,0,0:0:0:0:
476,144,26970,1,0,0:0:0:0:
464,304,28597,5,0,0:0:0:0:
376,304,28777,1,0,0:0:0:0:
284,304,28958,1,0,0:0:0:0:
132,304,29139,1,0,0:0:0:0:
480,232,29862,5,0,0:0:0:0:
392,232,30042,1,0,0:0:0:0:
300,232,30223,1,0,0:0:0:0:
144,320,30404,2,0,P|216:168|312:72,1,300
0,284,30946,5,0,0:0:0:0:
104,284,31127,1,0,0:0:0:0:
0,284,31307,1,0,0:0:0:0:
396,284,32934,5,0,0:0:0:0:
308,284,33114,1,0,0:0:0:0:
216,284,33295,1,0,0:0:0:0:
60,284,33476,1,0,0:0:0:0:
32,232,34199,5,0,0:0:0:0:
120,236,34379,1,0,0:0:0:0:
212,236,34560,1,0,0:0:0:0:
28,316,34741,2,0,P|-60:204|36:116,1,300
216,144,35283,5,0,0:0:0:0:
124,144,35464,1,0,0:0:0:0:
36,144,35644,1,0,0:0:0:0:
48,304,37271,5,0,0:0:0:0:
136,304,37451,1,0,0:0:0:0:
228,304,37632,1,0,0:0:0:0:
380,304,37813,1,0,0:0:0:0:
32,232,38536,5,0,0:0:0:0:
120,232,38716,1,0,0:0:0:0:
212,232,38897,1,0,0:0:0:0:
368,320,39078,2,0,P|296:168|200:72,1,300
512,284,39620,5,0,0:0:0:0:
408,284,39801,1,0,0:0:0:0:
512,284,39981,1,0,0:0:0:0:
384,116,41609,5,0,0:0:0:0:
384,220,41790,1,0,0:0:0:0:
116,116,41970,1,0,0:0:0:0:
116,220,42151,1,0,0:0:0:0:
216,308,42874,5,0,0:0:0:0:
112,308,43055,1,0,0:0:0:0:
348,248,43235,1,0,0:0:0:0:
452,252,43416,2,0,P|452:112|328:-8,1,300
40,244,43958,5,0,0:0:0:0:
144,244,44139,1,0,0:0:0:0:
40,244,44320,1,0,0:0:0:0:
128,116,45946,5,0,0:0:0:0:
128,220,46127,1,0,0:0:0:0:
396,116,46307,1,0,0:0:0:0:
396,220,46488,1,0,0:0:0:0:
296,308,47211,5,0,0:0:0:0:
400,308,47392,1,0,0:0:0:0:
164,248,47572,1,0,0:0:0:0:
60,252,47753,2,0,P|60:112|184:-8,1,300
431,246,48295,5,0,0:0:0:0:
327,246,48476,1,0,0:0:0:0:
431,246,48657,1,0,0:0:0:0:
256,192,48838,12,0,52362,0:0:0:0:
256,192,52723,12,0,54440,0:0:0:0:
24,88,54621,5,0,0:0:0:0:
128,88,54802,1,0,0:0:0:0:
24,88,54982,1,0,0:0:0:0:
328,308,55163,2,0,P|332:144|312:0,1,300
222,208,55887,5,0,0:0:0:0:
118,208,56067,1,0,0:0:0:0:
322,277,56248,1,0,0:0:0:0:
426,277,56429,1,0,0:0:0:0:
16,248,56790,5,0,0:0:0:0:
120,248,56970,1,0,0:0:0:0:
223,156,57151,1,0,0:0:0:0:
119,152,57332,1,0,0:0:0:0:
316,284,58958,5,0,0:0:0:0:
212,280,59139,1,0,0:0:0:0:
316,284,59320,1,0,0:0:0:0:
20,304,59500,2,0,P|80:136|12:32,1,300
244,316,60223,5,0,0:0:0:0:
352,312,60404,1,0,0:0:0:0:
512,124,60585,1,0,0:0:0:0:
408,128,60766,1,0,0:0:0:0:
111,316,61127,6,0,P|150:160|234:42,1,300
512,328,62573,2,0,L|407:43,1,300
288,296,63296,5,0,0:0:0:0:
408,296,63476,1,0,0:0:0:0:
288,296,63657,1,0,0:0:0:0:
32,352,63838,2,0,P|8:264|108:0,1,300
312,216,64561,5,0,0:0:0:0:
192,212,64741,1,0,0:0:0:0:
392,336,64922,1,0,0:0:0:0:
512,336,65103,1,0,0:0:0:0:
185,138,65464,5,0,0:0:0:0:
177,250,65645,1,0,0:0:0:0:
1,299,65826,1,0,0:0:0:0:
1,203,66006,1,0,0:0:0:0:
40,56,67633,5,0,0:0:0:0:
160,60,67814,1,0,0:0:0:0:
40,56,67994,1,0,0:0:0:0:
416,56,68175,2,0,P|411:205|411:376,1,300
88,208,68898,5,0,0:0:0:0:
208,212,69079,1,0,0:0:0:0:
476,72,69259,1,0,0:0:0:0:
356,72,69440,1,0,0:0:0:0:
64,304,69802,5,0,0:0:0:0:
100,192,69982,1,0,0:0:0:0:
460,304,70163,1,0,0:0:0:0:
424,188,70344,1,0,0:0:0:0:
76,280,70886,5,0,0:0:0:0:
512,220,71428,5,0,0:0:0:0:
224,220,71790,5,0,0:0:0:0:
328,220,71970,1,0,0:0:0:0:
224,220,72151,1,0,0:0:0:0:
328,220,72332,1,0,0:0:0:0:
88,300,72693,6,0,P|172:156|336:64,1,300
512,292,73416,1,0,0:0:0:0:
408,292,73597,1,0,0:0:0:0:
512,292,73778,1,0,0:0:0:0:
235,96,74139,2,0,P|271:271|362:357,3,300
512,47,75585,6,0,P|463:161|521:335,1,300
0,70,76308,2,0,P|40:186|-26:348,1,300
224,186,77031,1,0,0:0:0:0:
369,331,77211,2,0,P|317:187|405:43,1,300
460,8,77753,2,0,P|528:176|392:248,1,300
116,343,78476,6,0,L|84:19,1,300
288,312,79199,1,0,0:0:0:0:
392,312,79380,1,0,0:0:0:0:
288,312,79561,1,0,0:0:0:0:
272,80,79922,6,0,P|144:124|72:284,1,300
293,157,80645,2,0,P|342:282|526:290,1,300
388,328,81368,2,0,P|420:152|396:16,1,300
232,32,82091,2,0,P|208:88|216:324,1,300
24,204,82814,1,0,0:0:0:0:
168,348,82994,2,0,L|164:36,1,300
328,104,83537,2,0,P|440:195|492:344,1,300
424,300,84259,6,0,P|340:156|176:64,1,300
0,292,84982,1,0,0:0:0:0:
104,292,85163,1,0,0:0:0:0:
0,292,85344,1,0,0:0:0:0:
236,80,85705,2,0,P|363:206|412:344,3,300
0,56,87151,6,0,P|64:180|-6:349,1,300
357,78,87874,2,0,P|313:204|360:369,1,300
44,160,88597,1,0,0:0:0:0:
192,336,88777,2,0,P|244:192|156:48,1,300
52,8,89319,2,0,P|-16:176|43:312,1,300
204,320,90042,6,0,L|384:52,1,300
512,232,90766,1,0,0:0:0:0:
320,320,91127,2,0,L|100:76,1,300
344,176,91850,1,0,0:0:0:0:
160,48,92211,2,0,P|148:192|156:360,1,300
352,96,92934,6,0,P|448:200|560:352,1,300
356,280,93657,1,0,0:0:0:0:
200,68,94019,2,0,L|40:376,1,300
248,216,94741,1,0,0:0:0:0:
456,48,95103,2,0,P|456:184|460:348,1,300
308,320,95826,6,0,L|128:52,1,300
0,232,96550,1,0,0:0:0:0:
192,320,96911,2,0,L|412:76,1,300
168,176,97634,1,0,0:0:0:0:
352,48,97995,2,0,P|364:192|356:360,1,300
160,96,98718,6,0,P|64:200|-48:352,1,300
156,280,99441,1,0,0:0:0:0:
312,68,99803,2,0,L|472:376,1,300
264,216,100525,1,0,0:0:0:0:
56,48,100887,2,0,P|56:184|52:348,1,300
384,292,101609,5,0,0:0:0:0:
0,216,102151,5,0,0:0:0:0:
97,221,102513,1,0,0:0:0:0:
197,224,102874,1,0,0:0:0:0:
97,221,103235,1,0,0:0:0:0:
293,229,103597,1,0,0:0:0:0:
464,150,103958,1,0,0:0:0:0:
279,144,104320,1,0,0:0:0:0:
464,150,104681,1,0,0:0:0:0:
166,146,105043,1,0,0:0:0:0:
51,225,105404,5,0,0:0:0:0:
171,230,105766,1,0,0:0:0:0:
51,303,106127,1,0,0:0:0:0:
165,307,106488,1,0,0:0:0:0:
424,80,106850,1,0,0:0:0:0:
264,80,107211,1,0,0:0:0:0:
265,188,107573,1,0,0:0:0:0:
420,200,107934,1,0,0:0:0:0:
90,153,108296,1,0,0:0:0:0:
418,148,108657,5,0,0:0:0:0:
307,259,109019,1,0,0:0:0:0:
0,254,109380,1,0,0:0:0:0:
156,104,109741,1,0,0:0:0:0:
440,188,110103,1,0,0:0:0:0:
344,340,110464,1,0,0:0:0:0:
164,336,110826,1,0,0:0:0:0:
56,188,111187,1,0,0:0:0:0:
236,180,111549,1,0,0:0:0:0:
356,48,111910,5,0,0:0:0:0:
492,168,112272,1,0,0:0:0:0:
484,348,112633,1,0,0:0:0:0:
356,220,112994,1,0,0:0:0:0:
80,156,113356,1,0,0:0:0:0:
224,48,113717,1,0,0:0:0:0:
356,172,114079,1,0,0:0:0:0:
32,292,114440,1,0,0:0:0:0:
256,192,114621,12,0,116067,0:0:0:0:
256,192,116247,12,0,116790,0:0:0:0:
256,192,116970,12,0,117332,0:0:0:0:
44,112,117513,5,0,0:0:0:0:
76,212,117693,1,0,0:0:0:0:
280,204,117874,1,0,0:0:0:0:
232,296,118055,1,0,0:0:0:0:
280,204,118235,1,0,0:0:0:0:
376,168,118416,1,0,0:0:0:0:
98,377,118778,5,0,0:0:0:0:
204,375,118958,1,0,0:0:0:0:
432,256,119139,1,0,0:0:0:0:
339,257,119320,1,0,0:0:0:0:
108,136,119681,5,0,0:0:0:0:
214,138,119862,1,0,0:0:0:0:
427,226,120043,1,0,0:0:0:0:
332,314,120223,2,0,P|365:166|313:3,1,300
194,145,121127,1,0,0:0:0:0:
75,143,121488,1,0,0:0:0:0:
468,112,121850,5,0,0:0:0:0:
436,212,122030,1,0,0:0:0:0:
232,204,122211,1,0,0:0:0:0:
280,296,122392,1,0,0:0:0:0:
232,204,122572,1,0,0:0:0:0:
136,168,122753,1,0,0:0:0:0:
432,364,123115,5,0,0:0:0:0:
323,367,123295,1,0,0:0:0:0:
140,248,123476,1,0,0:0:0:0:
243,246,123657,1,0,0:0:0:0:
496,256,124019,6,0,L|496:216,1,37.5
36,180,125464,6,0,L|36:200,1,15
216,176,126187,5,0,0:0:0:0:
318,175,126368,1,0,0:0:0:0:
488,308,126549,1,0,0:0:0:0:
390,308,126729,1,0,0:0:0:0:
208,200,126910,1,0,0:0:0:0:
105,199,127091,1,0,0:0:0:0:
448,68,127452,5,0,0:0:0:0:
392,184,127633,1,0,0:0:0:0:
96,128,127814,1,0,0:0:0:0:
160,248,127994,1,0,0:0:0:0:
464,136,128356,5,0,0:0:0:0:
380,238,128537,1,0,0:0:0:0:
141,263,128717,1,0,0:0:0:0:
32,264,128898,6,0,L|32:216,1,45
296,176,130525,5,0,0:0:0:0:
198,175,130706,1,0,0:0:0:0:
305,265,130887,1,0,0:0:0:0:
402,265,131067,1,0,0:0:0:0:
300,345,131248,1,0,0:0:0:0:
203,345,131429,1,0,0:0:0:0:
64,68,131790,5,0,0:0:0:0:
120,184,131971,1,0,0:0:0:0:
416,128,132152,1,0,0:0:0:0:
352,248,132332,1,0,0:0:0:0:
61,151,132694,5,0,0:0:0:0:
128,237,132875,1,0,0:0:0:0:
232,256,133055,1,0,0:0:0:0:
424,48,133235,2,0,P|368:100|288:104,1,150
177,95,133778,1,0,0:0:0:0:
468,92,134320,1,0,0:0:0:0:
280,112,134681,1,0,0:0:0:0:
384,112,134862,1,0,0:0:0:0:
168,216,135043,1,0,0:0:0:0:
71,214,135223,1,0,0:0:0:0:
468,112,135585,5,0,0:0:0:0:
436,212,135765,1,0,0:0:0:0:
232,204,135946,1,0,0:0:0:0:
280,296,136127,1,0,0:0:0:0:
232,204,136307,1,0,0:0:0:0:
136,168,136488,1,0,0:0:0:0:
424,384,136850,5,0,0:0:0:0:
304,368,137030,1,0,0:0:0:0:
80,256,137211,1,0,0:0:0:0:
200,260,137392,1,0,0:0:0:0:
404,136,137753,5,0,0:0:0:0:
288,140,137934,1,0,0:0:0:0:
32,128,138115,1,0,0:0:0:0:
128,104,138295,2,0,P|240:128|364:288,1,300
512,140,139199,1,0,0:0:0:0:
192,144,139560,1,0,0:0:0:0:
44,112,139922,5,0,0:0:0:0:
76,212,140102,1,0,0:0:0:0:
280,204,140283,1,0,0:0:0:0:
232,296,140464,1,0,0:0:0:0:
280,204,140644,1,0,0:0:0:0:
376,168,140825,1,0,0:0:0:0:
80,364,141187,5,0,0:0:0:0:
208,368,141367,1,0,0:0:0:0:
372,248,141548,1,0,0:0:0:0:
252,252,141729,1,0,0:0:0:0:
16,256,142091,6,0,L|16:216,1,37.5
376,192,143175,1,0,0:0:0:0:
176,176,143536,6,0,L|176:196,1,15
296,176,144259,5,0,0:0:0:0:
176,176,144440,1,0,0:0:0:0:
24,308,144621,1,0,0:0:0:0:
144,304,144801,1,0,0:0:0:0:
304,200,144982,1,0,0:0:0:0:
424,204,145163,1,0,0:0:0:0:
176,58,145524,5,0,0:0:0:0:
110,188,145705,1,0,0:0:0:0:
416,128,145886,1,0,0:0:0:0:
352,248,146066,1,0,0:0:0:0:
48,136,146428,5,0,0:0:0:0:
144,248,146609,1,0,0:0:0:0:
348,264,146789,1,0,0:0:0:0:
480,264,146970,6,0,L|480:216,1,45
216,176,148597,5,0,0:0:0:0:
336,176,148778,1,0,0:0:0:0:
488,308,148959,1,0,0:0:0:0:
368,304,149139,1,0,0:0:0:0:
208,200,149320,1,0,0:0:0:0:
88,204,149501,1,0,0:0:0:0:
448,68,149862,5,0,0:0:0:0:
392,184,150043,1,0,0:0:0:0:
96,128,150224,1,0,0:0:0:0:
160,248,150404,1,0,0:0:0:0:
464,136,150766,5,0,0:0:0:0:
368,248,150947,1,0,0:0:0:0:
240,288,151127,1,0,0:0:0:0:
88,48,151307,2,0,P|144:100|224:104,1,150
348,96,151850,1,0,0:0:0:0:
44,92,152392,1,0,0:0:0:0:
232,112,152753,1,0,0:0:0:0:
128,112,152934,1,0,0:0:0:0:
344,216,153115,5,0,0:0:0:0:
456,216,153295,1,0,0:0:0:0:
56,280,153657,6,0,P|128:288|224:284,1,150
280,136,154380,1,0,0:0:0:0:
400,136,154561,1,0,0:0:0:0:
228,140,154741,2,0,P|212:228|220:324,1,150
408,360,155464,1,0,0:0:0:0:
152,256,155826,2,0,P|220:252|280:180,1,150
452,100,156549,6,0,P|476:160|528:236,1,150
260,340,157272,1,0,0:0:0:0:
132,344,157452,1,0,0:0:0:0:
324,220,157633,2,0,P|264:208|160:228,1,150
0,336,158356,1,0,0:0:0:0:
160,176,158717,2,0,L|160:340,1,150
456,280,159440,6,0,P|384:288|288:284,1,150
232,136,160163,1,0,0:0:0:0:
112,136,160344,1,0,0:0:0:0:
284,140,160524,2,0,P|300:228|292:324,1,150
104,360,161247,1,0,0:0:0:0:
360,256,161609,2,0,P|292:252|232:180,1,150
60,100,162332,6,0,P|36:160|-16:236,1,150
252,340,163055,1,0,0:0:0:0:
380,344,163235,1,0,0:0:0:0:
188,220,163416,2,0,P|248:208|352:228,1,150
512,336,164139,1,0,0:0:0:0:
352,176,164500,2,0,L|352:340,1,150
68,316,165223,5,0,0:0:0:0:
256,192,165404,12,0,177513,0:0:0:0:
