osu file format v14

[General]
AudioFilename: audio.mp3
AudioLeadIn: 0
PreviewTime: -1
Countdown: 0
SampleSet: Soft
StackLeniency: 0.7
Mode: 0
LetterboxInBreaks: 0
WidescreenStoryboard: 0

[Editor]
DistanceSpacing: 1.2
BeatDivisor: 4
GridSize: 8
TimelineZoom: 2.4

[Metadata]
Title:Hajimete
TitleUnicode:初めて
Artist:ANANT-GARDE EYES
ArtistUnicode:ANANT-GARDE EYES
Creator:Okini
Version:Hard
Source:Mekakucity Actors
Tags:Mekakucity M's 2 Jin
BeatmapID:1232751
BeatmapSetID:582542

[Difficulty]
HPDrainRate:5
CircleSize:5
OverallDifficulty:5
ApproachRate:8
SliderMultiplier:1.4
SliderTickRate:1

[Events]
//Background and Video events
//Break Periods
//Storyboard Layer 0 (Background)
//Storyboard Layer 1 (Fail)
//Storyboard Layer 2 (Pass)
//Storyboard Layer 3 (Foreground)
//Storyboard Sound Samples

[TimingPoints]
140,571.428571428571,4,2,0,80,1,0
26425,571.428571428571,5,2,0,80,1,0

[HitObjects]
256,48,140,5,0,0:0:0:0:
256,192,1282,2,0,P|216:312|96:304,1,233.333333333333
96,240,2425,5,0,0:0:0:0:
256,192,3568,2,0,P|296:312|416:304,1,233.333333333333
432,240,4711,5,0,0:0:0:0:
352,120,5854,2,0,L|312:152,7,35
256,192,6997,5,0,0:0:0:0:
160,120,8139,2,0,L|200:152,7,35
224,192,9282,5,0,0:0:0:0:
88,256,9473,2,0,B|96:264|112:272|120:288,1,23.3333333333333
232,280,9854,1,0,0:0:0:0:
176,192,10139,2,0,P|184:160|184:152,1,23.3333333333333
288,136,10425,1,0,0:0:0:0:
112,96,10997,5,0,0:0:0:0:
160,288,11282,1,0,0:0:0:0:
240,208,11568,2,0,L|200:160,2,46.6666666666667
256,320,12139,1,0,0:0:0:0:
448,208,12711,1,0,0:0:0:0:
256,64,13282,1,0,0:0:0:0:
120,160,13854,6,0,L|152:208,1,46.6666666666667
168,232,14139,1,0,0:0:0:0:
224,240,14425,2,0,L|304:192,1,93.3333333333333
304,191,14997,2,0,L|272:288,1,93.3333333333333
328,288,15568,2,0,L|360:264,3,23.3333333333333
208,328,16139,6,0,L|256:296,1,46.6666666666667
160,240,16711,1,0,0:0:0:0:
240,232,17092,2,0,P|256:216|256:208,1,23.3333333333333
248,152,17282,1,0,0:0:0:0:
168,104,17568,1,0,0:0:0:0:
240,64,17854,1,0,0:0:0:0:
136,208,18425,5,0,0:0:0:0:
208,240,18616,2,0,L|240:256,1,23.3333333333333
304,224,18901,1,0,0:0:0:0:
320,160,19092,2,0,L|320:128,1,23.3333333333333
304,64,19378,5,0,0:0:0:0:
232,88,19568,2,0,L|264:120,1,35
184,160,19854,2,0,L|216:192,1,35
264,144,20139,2,0,L|296:176,3,35
304,240,20711,6,0,P|336:144|320:128,1,140
224,128,21568,5,0,0:0:0:0:
336,224,22235,2,0,P|368:176|352:160,1,46.6666666666667
232,184,22711,1,0,0:0:0:0:
144,136,22997,2,0,P|168:72|216:64,1,105
272,64,23568,1,0,0:0:0:0:
392,136,23854,6,0,L|368:184,1,46.6666666666667
328,216,24139,2,0,P|264:272|224:280,1,105
184,280,24711,2,0,B|144:264|144:240|144:248,1,35
144,200,24997,1,0,0:0:0:0:
136,88,25282,5,0,0:0:0:0:
224,216,25854,1,0,0:0:0:0:
336,96,26425,1,0,0:0:0:0:
400,128,26568,1,0,0:0:0:0:
432,160,26710,1,0,0:0:0:0:
464,192,26853,1,0,0:0:0:0:
496,224,26996,1,0,0:0:0:0:
384,272,27282,2,0,P|368:272|368:288,1,23.3333333333333
176,256,27567,5,0,0:0:0:0:
304,256,27758,2,0,P|288:272|272:272,1,23.3333333333333
288,144,28139,1,0,0:0:0:0:
112,160,28425,2,0,P|128:192|144:192,1,46.6666666666667
256,192,28710,12,0,29567,0:0:0:0:
256,192,29853,5,0,0:0:0:0:
432,160,30044,2,0,P|424:120|392:96,1,70
312,64,30424,1,0,0:0:0:0:
232,72,30710,2,0,B|224:112|208:120|216:144|216:160,1,70
136,128,31377,2,0,L|152:152,1,23.3333333333333
192,200,31567,1,0,0:0:0:0:
160,296,32139,1,0,0:0:0:0:
288,296,32710,5,0,0:0:0:0:
376,264,32901,2,0,B|400:256|384:224|360:192,1,70
440,208,33282,1,0,0:0:0:0:
296,128,33567,2,0,L|328:144,5,35
152,144,34424,6,0,P|200:240|224:248,1,140
336,256,35282,2,0,B|416:296|440:352|440:352,1,140
480,296,35853,2,0,P|480:264|496:256,1,35
424,192,36139,6,0,L|392:160,1,35
336,136,36424,1,0,0:0:0:0:
304,160,36567,1,0,0:0:0:0:
288,176,36615,1,0,0:0:0:0:
232,152,36710,2,0,P|120:144|24:272,1,280
112,296,37996,2,0,L|152:280,2,35
200,272,38424,2,0,L|240:272,3,35
304,312,38996,6,0,P|464:168|456:144,1,280
408,128,40329,1,0,0:0:0:0:
377,97,40472,1,0,0:0:0:0:
343,77,40615,1,0,0:0:0:0:
304,67,40758,1,0,0:0:0:0:
324,33,40900,1,0,0:0:0:0:
278,26,41043,1,0,0:0:0:0:
238,34,41186,1,0,0:0:0:0:
224,64,41282,6,0,P|120:120|96:272,1,280
144,296,42567,2,0,P|192:288|200:288,2,35
240,312,42996,2,0,L|272:280,3,35
296,248,43567,6,0,P|400:264|344:168,1,256.666666666667
336,152,44710,1,0,0:0:0:0:
336,152,44901,1,0,0:0:0:0:
336,152,44996,1,0,0:0:0:0:
336,152,45186,1,0,0:0:0:0:
336,152,45282,1,0,0:0:0:0:
200,56,45853,6,0,P|120:64|176:176,1,245
152,232,46996,2,0,L|120:200,3,35
248,216,47567,1,0,0:0:0:0:
248,216,47710,1,0,0:0:0:0:
248,216,47853,1,0,0:0:0:0:
248,216,47996,1,0,0:0:0:0:
368,240,48139,5,0,0:0:0:0:
376,120,49424,1,0,0:0:0:0:
376,120,49567,1,0,0:0:0:0:
376,120,49710,1,0,0:0:0:0:
376,120,49853,1,0,0:0:0:0:
336,128,49996,1,0,0:0:0:0:
296,136,50139,1,0,0:0:0:0:
256,144,50282,1,0,0:0:0:0:
216,208,50424,5,0,0:0:0:0:
184,288,51567,1,0,0:0:0:0:
216,264,51710,1,0,0:0:0:0:
248,232,51853,1,0,0:0:0:0:
280,208,51996,1,0,0:0:0:0:
192,136,52139,2,0,L|240:176,3,35
192,256,52710,6,0,P|328:296|400:208,1,245
360,200,53853,2,0,L|320:160,3,35
296,152,54424,1,0,0:0:0:0:
224,112,54710,1,0,0:0:0:0:
224,112,54805,1,0,0:0:0:0:
224,112,54901,1,0,0:0:0:0:
200,120,54996,6,0,L|216:176,1,35
240,280,55567,1,0,0:0:0:0:
320,256,55853,6,0,L|344:216,1,35
328,184,56139,1,0,0:0:0:0:
304,152,56282,2,0,L|256:120,1,35
248,168,56567,6,0,L|216:224,2,35
216,200,56996,2,0,L|240:256,1,35
208,272,57282,2,0,L|168:288,1,35
128,168,57853,5,0,0:0:0:0:
208,160,58139,2,0,L|264:160,2,35
248,160,58567,1,0,0:0:0:0:
248,248,58853,2,0,L|208:248,2,35
360,296,59567,1,0,0:0:0:0:
408,136,60139,6,0,L|368:120,1,35
384,80,60424,1,0,0:0:0:0:
344,96,60567,2,0,L|328:128,1,35
320,168,60853,1,0,0:0:0:0:
368,240,61139,6,0,L|304:288,1,70
272,280,61567,1,0,0:0:0:0:
216,216,61853,1,0,0:0:0:0:
72,304,62424,2,0,L|120:320,1,35
144,296,62710,2,0,L|176:272,2,35
288,208,63567,5,0,0:0:0:0:
240,136,63853,1,0,0:0:0:0:
320,120,64139,2,0,L|360:112,1,35
416,240,64710,2,0,L|440:296,1,35
384,304,64996,2,0,L|336:320,2,35
344,256,65424,6,0,L|304:224,1,35
392,240,65710,2,0,L|440:232,2,35
432,280,66139,2,0,L|416:312,1,35
368,328,66424,2,0,L|328:320,1,35
216,288,66996,2,0,L|176:272,1,35
144,256,67282,6,0,P|112:216|104:216,2,35
192,216,67710,2,0,P|184:192|192:176,1,35
120,208,67996,2,0,P|120:168|112:160,2,35
176,96,68710,6,0,L|216:88,1,35
328,128,69282,2,0,L|368:160,1,35
352,192,69567,6,0,L|336:224,2,35
320,248,69996,2,0,L|280:288,1,35
264,304,70282,2,0,L|232:320,2,35
224,320,70710,2,0,L|176:320,1,35
160,288,70996,2,0,L|144:248,1,35
112,136,71567,6,0,L|160:120,1,35
184,104,71853,2,0,L|160:64,2,35
320,200,72710,5,0,0:0:0:0:
376,40,73282,2,0,P|224:192|224:208,1,245
256,232,74424,2,0,L|288:264,7,35
304,224,75567,6,0,B|376:152|344:120|304:72|272:112|208:80,1,245
176,104,76710,1,0,0:0:0:0:
152,136,76853,1,0,0:0:0:0:
128,176,76996,1,0,0:0:0:0:
128,176,77139,1,0,0:0:0:0:
152,216,77282,1,0,0:0:0:0:
192,232,77424,1,0,0:0:0:0:
232,248,77567,1,0,0:0:0:0:
272,248,77710,1,0,0:0:0:0:
312,224,77853,6,0,B|384:176|360:128|400:104|288:80|360:48|224:64|248:56,1,245
232,88,78996,2,0,L|208:144,1,35
224,160,79282,2,0,L|240:192,1,35
232,232,79567,2,0,L|192:256,1,35
224,288,79853,2,0,L|256:312,1,35
208,320,80139,6,0,B|96:312|128:264|64:216|152:176|56:128|48:144,1,245
112,128,81282,2,0,L|144:112,2,35
144,152,81710,2,0,L|176:168,2,35
128,192,82139,6,0,L|160:216,1,35
160,256,82424,6,0,B|216:312|264:240|304:304|344:224|392:288,1,245
408,248,83567,1,0,0:0:0:0:
408,248,83710,1,0,0:0:0:0:
424,208,83853,1,0,0:0:0:0:
424,208,83996,1,0,0:0:0:0:
384,200,84139,1,0,0:0:0:0:
384,200,84282,1,0,0:0:0:0:
408,168,84424,1,0,0:0:0:0:
408,168,84567,1,0,0:0:0:0:
368,144,84710,6,0,B|256:88|256:88|256:152|256:216,1,245
256,256,85853,2,0,L|224:280,3,35
184,272,86424,2,0,L|152:256,3,35
136,216,86996,6,0,P|104:80|128:80,1,245
152,104,88139,2,0,L|200:120,1,35
208,152,88424,2,0,P|224:184|224:192,1,35
248,216,88710,2,0,P|288:200|288:192,1,35
312,192,88996,2,0,P|328:160|320:144,1,35
328,120,89282,6,0,P|176:48|128:88,1,245
112,120,90424,2,0,P|112:152|128:160,3,35
160,184,90996,2,0,P|192:192|216:184,3,35
288,192,91567,1,0,0:0:0:0:
256,192,92139,12,0,92853,0:0:0:0:
208,192,92996,6,0,L|272:208,1,35
280,216,93282,5,0,0:0:0:0:
320,208,93424,1,0,0:0:0:0:
352,184,93567,1,0,0:0:0:0:
368,144,93710,1,0,0:0:0:0:
336,80,93853,1,0,0:0:0:0:
