osu file format v14

[General]
AudioFilename: audio.mp3
AudioLeadIn: 0
PreviewTime: 51731
Countdown: 0
SampleSet: Soft
StackLeniency: 0.4
Mode: 0
LetterboxInBreaks: 0
WidescreenStoryboard: 1

[Editor]
DistanceSpacing: 1.3
BeatDivisor: 4
GridSize: 4
TimelineZoom: 1

[Metadata]
Title:LET'S GO OUT (TV Size)
TitleUnicode:LET'S GO OUT (TV Size)
Artist:AMOYAMO
ArtistUnicode:AMOYAMO
Creator:sanairrt
Version:Hard : Kagura
Source:銀魂' 延長戦
Tags:kintama' gintama' enchousen 金魂' 延長戦 anime japanese j-pop jpop pop likaagod
BeatmapID:3564802
BeatmapSetID:1743368

[Difficulty]
HPDrainRate:5
CircleSize:3.8
OverallDifficulty:6.5
ApproachRate:8
SliderMultiplier:1.4
SliderTickRate:1

[Events]
//Background and Video events
0,0,"744896.jpg",0,0
Video,-930,"a.mp4"
//Break Periods
//Storyboard Layer 0 (Background)
//Storyboard Layer 1 (Fail)
//Storyboard Layer 2 (Pass)
//Storyboard Layer 3 (Foreground)
//Storyboard Layer 4 (Overlay)
//Storyboard Sound Samples

[TimingPoints]
538,337.078651685393,4,2,2,42,1,0
538,-125,4,2,2,42,0,0
3234,-125,4,2,2,42,0,0
5594,-125,4,2,22,52,0,0
5931,-100,4,2,22,62,0,0
16717,-111.111111111111,4,2,22,62,0,0
38290,-100,4,2,22,62,0,0
50088,-100,4,2,22,72,0,0
51773,-90.9090909090909,4,2,15,82,0,0
51858,-90.9090909090909,4,2,22,82,0,0
54133,-90.9090909090909,4,2,1,82,0,0
54217,-90.9090909090909,4,2,22,82,0,0
56155,-90.9090909090909,4,2,1,82,0,0
56914,-90.9090909090909,4,2,22,82,0,0
62223,-90.9090909090909,4,2,1,82,0,0
62391,-90.9090909090909,4,2,22,82,0,0
62560,-90.9090909090909,4,2,15,82,0,0
62644,-90.9090909090909,4,2,22,82,0,0
64920,-90.9090909090909,4,2,1,82,0,0
65004,-90.9090909090909,4,2,22,82,0,0
66942,-90.9090909090909,4,2,1,82,0,0
67700,-90.9090909090909,4,2,22,82,0,0
73346,-90.9090909090909,4,2,15,82,0,0
73431,-90.9090909090909,4,2,18,82,0,0
75706,-90.9090909090909,4,2,3,82,0,0
75790,-90.9090909090909,4,2,18,82,0,0
77729,-90.9090909090909,4,2,3,82,0,0
78403,-90.9090909090909,4,2,18,82,0,0
81099,-90.9090909090909,4,2,3,82,0,0
81183,-90.9090909090909,4,2,18,82,0,0
82111,-90.9090909090909,4,2,22,82,0,0
83459,-400,4,2,15,82,0,0
89526,-400,4,2,15,5,0,0

[Colours]
Combo1 : 97,193,0
Combo2 : 255,128,128
Combo3 : 128,255,255

[HitObjects]
110,290,538,5,2,1:2:0:0:
110,290,706,2,0,P|136:283|187:270,1,56,0|2,1:2|2:0,2:0:0:0:
213,215,1043,1,0,1:2:0:0:
213,215,1211,2,0,P|239:222|290:235,1,56,10|0,2:0|2:0,2:0:0:0:
330,290,1549,5,2,1:2:0:0:
330,290,1717,2,0,B|304:255|304:255|329:170,1,112,0|0,1:2|1:2,2:0:0:0:
387,143,2223,2,0,P|380:110|372:74,1,56,2|0,1:2|1:2,2:0:0:0:
306,49,2560,1,10,2:0:0:0:
306,49,2729,1,0,1:2:0:0:
240,112,2897,2,0,P|205:105|153:95,1,84,14|0,2:0|2:0,2:0:0:0:
119,86,3234,6,0,P|126:47|134:5,2,56,0|0|2,1:2|1:2|2:0,0:0:0:0:
50,123,3740,1,0,1:2:0:0:
50,123,3908,2,0,P|55:150|60:177,1,56,10|0,2:0|2:0,2:0:0:0:
17,256,4245,5,2,1:2:0:0:
17,256,4414,2,0,P|51:221|117:235,1,112,0|0,1:2|1:2,2:0:0:0:
171,277,4920,2,0,P|203:269|247:259,2,56,2|0|10,1:2|2:0|2:0,2:0:0:0:
318,329,5594,2,0,L|309:379,3,28,0|0|0|0,1:2|1:2|1:2|1:2,0:0:0:0:
353,306,5931,6,0,P|373:260|336:195,1,105,6|0,1:2|2:0,2:0:0:0:
317,178,6268,2,0,P|289:184|242:195,1,70,10|0,2:0|2:0,2:0:0:0:
194,275,6605,1,2,1:2:0:0:
120,210,6773,1,0,1:2:0:0:
48,276,6942,2,0,P|57:312|67:354,1,70,10|0,2:0|2:0,0:0:0:0:
120,210,7279,6,0,B|147:129|147:129|124:105|94:74,1,140,2|10,1:2|2:0,1:2:0:0:
28,33,7785,1,0,0:0:0:0:
27,33,7953,2,0,P|18:64|4:121,1,70,2|0,1:2|1:2,0:0:0:0:
109,89,8290,2,0,P|140:80|197:66,1,70,10|8,2:0|2:0,0:0:0:0:
213,37,8543,1,8,2:0:0:0:
213,37,8627,6,0,P|283:49|366:66,2,140,6|10|2,1:2|2:0|1:2,1:2:0:0:
139,101,9470,1,0,1:2:0:0:
204,173,9639,1,10,2:0:0:0:
143,250,9807,1,8,2:0:0:0:
143,250,9891,1,8,2:0:0:0:
143,250,9976,5,2,1:2:0:0:
216,313,10144,2,0,P|252:305|303:296,1,70,12|0,2:0|1:2,2:0:0:0:
333,198,10481,2,0,P|369:206|491:234,1,140,12|4,2:0|1:2,2:0:0:0:
459,131,10987,2,0,P|446:92|466:47,1,70,8|8,2:0|2:0,0:0:0:0:
461,58,11240,1,8,2:0:0:0:
470,53,11324,6,0,P|416:42|340:27,1,105,6|0,1:2|2:0,2:0:0:0:
318,25,11661,2,0,P|312:57|300:126,1,70,10|0,2:0|2:0,2:0:0:0:
360,174,11998,1,2,1:2:0:0:
288,241,12167,1,0,1:2:0:0:
352,314,12335,2,0,P|389:305|450:291,1,70,10|0,2:0|2:0,0:0:0:0:
288,241,12672,6,0,B|253:209|253:209|205:221|149:236,1,140,2|10,1:2|2:0,1:2:0:0:
87,293,13178,1,0,0:0:0:0:
87,293,13346,2,0,P|78:257|68:217,1,70,2|0,1:2|1:2,0:0:0:0:
8,147,13684,2,0,P|16:111|27:71,1,70,10|0,2:0|3:2,0:0:0:0:
107,25,14021,5,6,1:2:0:0:
107,25,14189,1,0,1:2:0:0:
179,91,14358,2,0,B|215:76|254:62|254:62|286:83|271:118,1,140,10|2,2:0|1:2,2:0:0:0:
217,193,14863,1,0,1:2:0:0:
289,258,15032,1,10,2:0:0:0:
376,209,15200,1,8,2:0:0:0:
376,209,15285,1,8,2:0:0:0:
376,209,15369,5,0,1:2:0:0:
457,262,15537,2,0,P|448:298|437:345,1,70,12|0,2:0|1:2,2:0:0:0:
376,209,15875,2,0,P|345:151|388:73,1,140,12|12,2:0|2:0,2:0:0:0:
467,11,16380,2,0,L|514:24,3,35,8|8|8|8,2:0|2:0|2:0|2:0,0:0:0:0:
441,36,16717,6,0,P|381:45|321:55,1,94.499997116089,4|0,1:2|2:0,2:0:0:0:
316,82,17054,2,0,P|281:73|235:65,1,62.9999980773926,10|0,2:0|2:0,2:0:0:0:
177,25,17391,2,0,P|170:55|163:86,1,62.9999980773926,2|0,1:2|1:2,0:0:0:0:
120,164,17729,2,0,P|150:170|181:177,1,62.9999980773926,10|0,2:0|2:0,2:0:0:0:
240,243,18066,6,0,P|285:211|358:239,2,125.999996154785,2|10|2,1:2|2:0|1:2,2:0:0:0:
180,307,18908,1,0,1:2:0:0:
106,257,19077,2,0,P|113:222|123:177,1,62.9999980773926,10|0,2:0|2:0,2:0:0:0:
182,133,19414,5,2,1:2:0:0:
182,133,19582,1,0,1:2:0:0:
118,70,19751,2,0,P|74:78|10:92,1,94.499997116089,10|8,2:0|2:0,2:0:0:0:
3,127,20088,2,0,P|10:160|19:207,1,62.9999980773926,2|0,1:2|0:2,1:2:0:0:
97,223,20425,2,0,P|90:256|81:303,1,62.9999980773926,10|0,2:0|2:0,2:0:0:0:
10,339,20762,6,0,P|50:371|141:357,1,125.999996154785,2|10,1:2|2:0,0:0:0:0:
193,317,21268,1,0,2:0:0:0:
270,358,21436,2,0,P|278:320|288:278,1,62.9999980773926,2|0,1:2|1:2,1:2:0:0:
349,237,21773,2,0,P|341:206|335:175,1,62.9999980773926,10|0,2:0|2:0,2:0:0:0:
314,89,22111,5,4,1:2:0:0:
314,89,22448,2,0,P|368:79|398:75,1,62.9999980773926,10|0,2:0|2:0,2:0:0:0:
452,34,22785,2,0,P|462:88|466:118,1,62.9999980773926,2|0,1:2|1:2,0:0:0:0:
507,172,23122,2,0,P|453:182|423:186,1,62.9999980773926,10|0,2:0|2:0,2:0:0:0:
389,251,23459,6,0,B|350:239|306:225|306:225|266:271,2,125.999996154785,2|10|2,1:2|2:0|1:2,2:0:0:0:
445,183,24302,1,0,1:2:0:0:
500,261,24470,2,0,P|494:287|487:328,1,62.9999980773926,10|0,2:0|2:0,2:0:0:0:
419,377,24807,5,6,1:2:0:0:
419,377,24976,1,0,1:2:0:0:
349,323,25144,2,0,P|315:329|244:343,1,94.499997116089,10|8,2:0|2:0,2:0:0:0:
212,350,25481,2,0,P|205:314|196:272,1,62.9999980773926,2|0,1:2|1:2,1:2:0:0:
262,226,25818,2,0,P|269:190|278:148,1,62.9999980773926,10|0,2:0|2:0,2:0:0:0:
207,98,26155,6,0,P|172:106|128:118,2,62.9999980773926,2|0|10,1:2|1:2|2:0,0:0:0:0:
274,164,26661,1,0,3:2:0:0:
274,164,26745,1,8,2:0:0:0:
274,164,26830,2,0,P|311:180|350:173,1,62.9999980773926,2|0,1:2|0:0,2:0:0:0:
418,203,27167,2,0,P|410:155|399:90,1,94.499997116089,12|0,2:0|2:0,2:0:0:0:
425,71,27504,6,0,P|374:62|302:49,1,94.499997116089,2|0,1:2|2:0,2:0:0:0:
298,24,27841,2,0,P|268:31|215:46,1,62.9999980773926,10|0,2:0|2:0,2:0:0:0:
205,121,28178,2,0,P|174:112|143:105,1,62.9999980773926,2|0,1:2|1:2,0:0:0:0:
69,58,28515,2,0,P|62:86|48:141,1,62.9999980773926,10|0,2:0|2:0,2:0:0:0:
90,199,28852,6,2,B|104:234|118:267|118:267|89:327,2,125.999996154785,2|10|2,0:2|2:0|0:2,2:0:0:0:
53,119,29695,1,0,1:2:0:0:
117,59,29863,2,0,P|147:66|178:74,1,62.9999980773926,10|0,2:0|2:0,2:0:0:0:
231,150,30200,5,2,1:2:0:0:
231,150,30369,1,0,1:2:0:0:
306,105,30537,2,0,P|316:151|325:197,1,94.499997116089,10|8,2:0|2:0,2:0:0:0:
343,238,30875,2,0,P|395:222|426:214,1,62.9999980773926,2|0,1:2|1:2,1:2:0:0:
470,150,31212,2,0,P|439:141|409:131,1,62.9999980773926,10|0,2:0|2:0,2:0:0:0:
343,80,31549,5,2,1:2:0:0:
343,80,31717,1,0,1:2:0:0:
265,123,31886,2,0,P|221:143|164:119,1,94.499997116089,10|8,2:0|2:0,2:0:0:0:
156,92,32223,2,0,P|121:101|67:115,1,62.9999980773926,2|0,1:2|1:2,1:2:0:0:
21,192,32560,2,0,P|56:201|110:215,1,62.9999980773926,10|0,2:0|3:2,0:0:0:0:
84,215,32813,1,0,3:2:0:0:
88,223,32897,6,0,B|132:212|132:212|166:247|222:233,2,125.999996154785,2|10|2,1:2|2:0|1:2,2:0:0:0:
28,288,33740,1,0,1:2:0:0:
111,326,33908,2,0,P|122:342|126:391,1,62.9999980773926,10|0,2:0|2:0,2:0:0:0:
28,288,34245,6,0,P|40:216|54:142,2,125.999996154785,2|10|2,1:2|2:0|1:2,0:0:0:0:
103,333,35088,1,0,1:2:0:0:
161,266,35257,2,0,P|191:247|255:263,1,94.499997116089,10|8,2:0|2:0,2:0:0:0:
285,278,35594,6,0,P|291:247|298:216,1,62.9999980773926,2|0,1:2|1:2,0:0:0:0:
377,176,35931,2,0,P|353:154|330:133,1,62.9999980773926,10|0,2:0|3:2,0:0:0:0:
335,45,36268,2,0,P|305:54|274:64,1,62.9999980773926,2|0,1:2|1:2,1:2:0:0:
200,15,36605,2,0,P|193:45|186:76,1,62.9999980773926,10|0,2:0|2:0,2:0:0:0:
115,129,36942,5,2,1:2:0:0:
115,129,37111,1,0,1:2:0:0:
189,195,37279,2,0,P|250:182|303:172,1,94.499997116089,12|0,2:0|2:0,2:0:0:0:
325,167,37616,2,0,L|315:121,3,31.4999990386963,8|8|8|8,2:0|2:0|2:0|3:2,0:0:0:0:
363,181,37953,2,0,L|369:211,3,31.4999990386963,8|8|8|8,3:2|3:2|3:2|3:2,0:0:0:0:
379,260,38290,6,0,B|346:293|346:293|316:284|261:270,1,105,6|0,1:2|2:0,2:0:0:0:
246,301,38627,2,2,P|231:233|213:149,2,140,10|2|10,2:0|0:2|2:0,1:2:0:0:
176,370,39470,1,0,2:0:0:0:
109,298,39639,6,0,P|76:281|20:293,1,70,2|0,1:2|1:2,0:0:0:0:
176,370,39976,2,0,P|214:358|266:343,1,70,10|0,2:0|2:0,2:0:0:0:
290,263,40313,2,2,B|343:272|343:272|363:299|363:299|414:310,1,140,2|10,1:2|2:0,2:0:0:0:
477,235,40818,1,2,3:2:0:0:
477,235,40903,1,2,3:2:0:0:
477,235,40987,6,0,P|464:190|452:146,2,70,4|0|10,1:2|3:2|2:0,0:0:0:0:
414,310,41493,2,0,P|381:270|292:311,1,140,0|0,3:2|1:2,2:0:0:0:
238,361,41998,1,10,2:0:0:0:
174,285,42167,1,0,3:2:0:0:
97,345,42335,6,0,P|60:337|6:327,1,70,2|0,1:2|1:2,1:2:0:0:
174,285,42672,2,0,P|186:238|165:192,1,70,10|8,2:0|2:0,2:0:0:0:
176,211,42925,1,8,2:0:0:0:
169,205,43009,1,2,1:2:0:0:
95,140,43178,1,0,1:2:0:0:
162,68,43346,2,0,P|198:74|249:83,1,70,14|0,2:0|0:0,2:0:0:0:
236,87,43599,1,0,2:0:0:0:
242,94,43684,5,2,1:2:0:0:
242,94,44021,2,0,P|251:54|262:15,1,70,10|0,2:0|2:0,2:0:0:0:
336,85,44358,2,0,P|376:94|415:105,1,70,2|0,1:2|1:2,0:0:0:0:
345,179,44695,2,0,P|336:219|324:258,1,70,10|0,2:0|2:0,2:0:0:0:
249,306,45032,5,2,1:2:0:0:
249,306,45200,1,0,1:2:0:0:
183,232,45369,2,0,P|138:243|96:254,1,70,10|0,2:0|2:0,0:0:0:0:
249,306,45706,2,0,P|294:317|336:328,1,70,2|0,1:2|2:0,2:0:0:0:
395,263,46043,2,0,P|420:215|389:156,1,105,10|0,2:0|2:0,2:0:0:0:
358,150,46380,6,0,B|343:102|331:66|331:66|357:47|391:25,2,140,6|10|2,1:2|2:0|1:2,2:0:0:0:
288,219,47223,1,0,1:2:0:0:
215,153,47391,2,0,P|170:164|128:175,1,70,10|0,2:0|2:0,2:0:0:0:
90,251,47729,5,2,1:2:0:0:
90,251,47897,1,0,1:2:0:0:
21,180,48066,2,0,P|30:144|41:100,1,70,10|0,2:0|2:0,0:0:0:0:
120,58,48403,2,0,P|128:91|137:125,1,70,2|0,1:2|1:2,1:2:0:0:
222,174,48740,2,0,P|261:142|330:159,1,105,10|8,2:0|2:0,2:0:0:0:
344,184,49077,6,0,P|384:172|427:161,1,70,2|0,1:2|1:2,1:2:0:0:
472,242,49414,2,0,P|438:251|404:260,1,70,10|0,2:0|0:0,2:0:0:0:
358,349,49751,1,2,1:2:0:0:
358,349,49920,1,0,1:2:0:0:
285,292,50088,1,14,2:0:0:0:
285,292,50257,1,0,1:2:0:0:
196,355,50425,6,0,P|145:335|104:322,1,70,12|0,2:0|1:2,0:0:0:0:
53,255,50762,2,0,P|104:235|145:222,1,70,12|0,2:0|1:2,0:0:0:0:
213,256,51099,2,0,L|226:200,3,35,2|8|8|8,1:2|2:0|2:0|2:0,0:0:0:0:
261,193,51436,2,0,L|268:227,3,35,8|8|8|8,3:2|2:0|2:0|2:0,0:0:0:0:
312,260,51773,6,0,P|353:277|398:267,1,77.0000023498536,4|0,1:2|2:0,2:0:0:0:
474,212,52111,2,0,P|465:169|453:116,1,77.0000023498536,10|0,2:0|2:0,0:0:0:0:
380,72,52448,1,2,1:2:0:0:
306,139,52616,1,0,1:2:0:0:
230,72,52785,2,0,B|163:56|163:56|147:78|124:113,1,115.50000352478,10|0,2:0|2:0,2:0:0:0:
85,95,53122,6,0,P|95:130|109:184,1,77.0000023498536,2|0,1:2|1:2,1:2:0:0:
203,189,53459,2,0,P|193:224|179:278,1,77.0000023498536,10|0,2:0|2:0,2:0:0:0:
108,330,53796,1,2,1:2:0:0:
108,330,53964,1,0,1:2:0:0:
190,384,54133,2,0,P|247:372|332:356,1,115.50000352478,14|8,2:0|2:0,2:0:0:0:
330,318,54470,6,0,P|374:328|426:342,2,77.0000023498536,2|0|10,1:2|1:2|2:0,1:2:0:0:
291,225,54976,1,0,2:0:0:0:
212,285,55144,2,0,P|220:322|232:373,1,77.0000023498536,2|0,1:2|1:2,1:2:0:0:
291,225,55481,2,0,P|313:172|280:110,1,115.50000352478,10|8,2:0|2:0,2:0:0:0:
258,83,55818,6,0,P|221:94|169:108,1,77.0000023498536,2|0,1:2|1:2,0:0:0:0:
99,49,56155,2,0,P|90:86|76:138,1,77.0000023498536,14|0,2:0|2:0,2:0:0:0:
138,206,56493,1,6,1:2:0:0:
62,271,56661,1,0,1:2:0:0:
133,341,56830,2,0,P|171:330|227:315,1,77.0000023498536,14|8,2:0|2:0,2:0:0:0:
216,325,57082,1,8,2:0:0:0:
225,330,57167,6,0,P|233:280|241:232,1,77.0000023498536,0|0,1:2|1:2,1:2:0:0:
173,176,57504,2,0,B|136:187|89:201|89:201|58:174|78:136,1,154.000004699707,12|2,2:0|1:2,2:0:0:0:
108,47,58009,1,0,1:2:0:0:
205,71,58178,2,0,P|248:62|305:52,1,77.0000023498536,12|0,2:0|2:0,2:0:0:0:
355,122,58515,6,2,B|394:164|394:164|381:202|362:266,2,154.000004699707,0|10|2,1:2|2:0|1:2,2:0:0:0:
280,56,59358,1,0,1:2:0:0:
202,119,59526,2,0,P|159:148|84:123,1,115.50000352478,10|8,2:0|2:0,2:0:0:0:
57,108,59863,6,0,P|49:144|36:200,2,77.0000023498536,4|0|10,1:2|2:0|2:0,0:0:0:0:
137,48,60369,1,0,2:0:0:0:
202,119,60537,2,0,P|259:151|355:122,1,154.000004699707,2|10,1:2|2:0,0:0:0:0:
423,73,61043,1,8,2:0:0:0:
423,73,61127,1,8,2:0:0:0:
423,73,61212,6,0,P|431:108|448:174,1,77.0000023498536,2|0,1:2|0:0,2:0:0:0:
511,220,61549,2,0,P|502:255|486:321,1,77.0000023498536,12|0,2:0|2:0,2:0:0:0:
401,337,61886,2,0,L|349:325,3,38.5000011749268,0|8|8|8,1:2|2:0|2:0|2:0,0:0:0:0:
330,290,62223,2,0,L|278:302,3,38.5000011749268,2|8|4|8,1:2|2:0|3:0|3:0,0:0:0:0:
260,337,62560,6,0,P|221:327|157:313,1,77.0000023498536,6|0,1:2|2:0,2:0:0:0:
85,328,62897,2,0,P|94:290|102:253,1,77.0000023498536,10|0,2:0|2:0,0:0:0:0:
180,189,63234,1,2,1:2:0:0:
113,114,63403,1,0,1:2:0:0:
185,44,63571,2,0,P|227:22|295:45,1,115.50000352478,10|8,2:0|2:0,2:0:0:0:
328,71,63908,6,0,P|319:102|304:160,1,77.0000023498536,2|0,1:2|1:2,1:2:0:0:
218,191,64245,2,0,P|227:222|242:280,1,77.0000023498536,14|0,2:0|2:0,2:0:0:0:
311,334,64582,1,2,1:2:0:0:
311,334,64751,1,0,1:2:0:0:
374,256,64920,2,0,B|409:267|445:278|445:278|488:236,1,115.50000352478,14|8,2:0|2:0,2:0:0:0:
507,211,65257,6,0,P|496:170|485:131,2,77.0000023498536,2|0|14,1:2|1:2|2:0,0:0:0:0:
461,300,65762,1,0,2:0:0:0:
374,256,65931,2,0,P|335:263|282:275,1,77.0000023498536,2|0,1:2|1:2,1:2:0:0:
241,353,66268,2,0,P|202:345|118:331,1,115.50000352478,10|8,2:0|2:0,2:0:0:0:
77,325,66605,6,0,P|67:279|91:234,1,77.0000023498536,2|0,1:2|1:2,0:0:0:0:
41,157,66942,2,0,P|86:166|139:176,1,77.0000023498536,14|0,2:0|2:0,2:0:0:0:
186,244,67279,1,6,1:2:0:0:
263,179,67448,1,0,1:2:0:0:
340,241,67616,2,0,B|414:259|414:259|434:240|460:217,1,115.50000352478,14|0,2:0|2:0,2:0:0:0:
483,201,67953,6,0,P|498:276|512:352,2,154.000004699707,6|10|2,1:2|2:0|1:2,1:2:0:0:
401,143,68796,1,0,1:2:0:0:
446,54,68964,2,0,P|488:62|534:73,1,77.0000023498536,10|0,2:0|2:0,2:0:0:0:
401,143,69302,5,2,1:2:0:0:
401,143,69470,1,0,1:2:0:0:
330,71,69639,2,0,P|292:42|212:74,1,115.50000352478,10|0,2:0|2:0,2:0:0:0:
189,85,69976,2,0,P|197:117|212:176,1,77.0000023498536,2|0,1:2|1:2,2:0:0:0:
283,225,70313,2,0,P|274:257|260:316,1,77.0000023498536,10|0,2:0|2:0,2:0:0:0:
141,350,70650,6,0,P|100:340|45:329,1,77.0000023498536,12|0,2:0|1:2,0:0:0:0:
0,223,70987,2,0,P|40:213|96:202,1,77.0000023498536,8|0,2:0|1:2,2:0:0:0:
184,258,71324,1,12,2:0:0:0:
184,258,71493,1,0,1:2:0:0:
250,161,71661,1,8,2:0:0:0:
250,161,71830,1,0,1:2:0:0:
316,253,71998,6,0,P|309:288|297:350,2,77.0000023498536,12|0|8,2:0|1:2|2:0,0:0:0:0:
238,182,72504,1,0,2:0:0:0:
317,113,72672,2,0,L|389:131,3,38.5000011749268,10|8|8|8,1:2|2:0|2:0|2:0,0:0:0:0:
385,162,73009,2,0,L|457:144,3,38.5000011749268,8|8|8|8,1:2|2:0|2:0|2:0,0:0:0:0:
448,122,73346,6,0,P|438:78|429:37,1,77.0000023498536,4|0,1:2|2:0,2:0:0:0:
340,2,73684,2,0,P|331:39|323:77,1,77.0000023498536,10|0,2:0|2:0,2:0:0:0:
261,155,74021,1,2,1:2:0:0:
187,88,74189,1,0,1:2:0:0:
110,153,74358,2,0,P|65:144|10:133,1,77.0000023498536,10|0,2:0|2:0,0:0:0:0:
129,265,74695,6,0,P|162:239|209:242,1,77.0000023498536,2|0,1:2|1:2,0:0:0:0:
261,155,75032,2,0,P|294:181|341:178,1,77.0000023498536,10|0,2:0|2:0,0:0:0:0:
407,121,75369,1,2,1:2:0:0:
407,121,75537,1,0,1:2:0:0:
479,190,75706,2,0,P|469:239|458:295,1,77.0000023498536,14|0,2:0|2:0,2:0:0:0:
386,329,76043,5,6,1:2:0:0:
470,382,76212,2,0,P|402:367|309:348,1,154.000004699707,0|0,2:0|2:0,2:0:0:0:
256,272,76717,2,0,P|217:280|167:293,1,77.0000023498536,2|0,1:2|1:2,0:0:0:0:
101,350,77054,2,0,P|93:311|80:261,1,77.0000023498536,10|0,2:0|2:0,2:0:0:0:
17,207,77391,5,2,1:2:0:0:
17,207,77560,1,0,1:2:0:0:
85,133,77729,2,0,P|124:141|174:154,1,77.0000023498536,14|0,2:0|2:0,2:0:0:0:
166,158,77981,1,8,2:0:0:0:
173,165,78066,2,0,P|210:155|248:147,1,77.0000023498536,6|0,1:2|1:2,0:0:0:0:
324,82,78403,2,0,P|290:119|309:183,1,115.50000352478,14|8,2:0|2:0,2:0:0:0:
334,217,78740,6,0,P|326:253|314:311,1,77.0000023498536,4|0,1:2|1:2,1:2:0:0:
235,349,79077,2,0,P|227:311|218:273,1,77.0000023498536,10|0,2:0|2:0,2:0:0:0:
147,202,79414,1,2,1:2:0:0:
68,263,79582,1,0,1:2:0:0:
14,177,79751,2,0,P|6:136|25:89,1,77.0000023498536,10|0,2:0|2:0,0:0:0:0:
95,42,80088,6,0,P|140:49|196:60,1,77.0000023498536,2|0,1:2|1:2,0:0:0:0:
233,133,80425,2,0,P|278:125|334:115,1,77.0000023498536,10|0,2:0|2:0,0:0:0:0:
371,41,80762,1,2,1:2:0:0:
371,41,80931,1,0,1:2:0:0:
440,112,81099,2,0,P|462:157|447:204,1,77.0000023498536,14|0,2:0|2:0,2:0:0:0:
424,276,81436,5,2,1:2:0:0:
338,222,81605,2,0,B|246:255|246:255|218:230|184:203,1,154.000004699707,0|0,1:2|2:0,0:0:0:0:
130,148,82111,2,0,L|184:131,3,38.5000011749268,10|8|8|8,0:2|0:2|0:2|0:2,0:0:0:0:
193,93,82448,2,0,L|247:110,3,38.5000011749268,0|8|8|0,1:2|3:2|3:2|3:0,0:0:0:0:
261,144,82785,2,0,L|315:127,3,38.5000011749268,6|0|0|0,3:0|3:2|3:0|3:0,3:2:0:0:
346,118,83122,6,0,P|334:179|317:276,1,154.000004699707,10|6,3:0|1:2,0:0:0:0:
256,192,83543,12,0,89526,2:0:0:0:
