osu file format v14

[General]
AudioFilename: MeiSakura.mp3
AudioLeadIn: 0
PreviewTime: 20450
Countdown: 0
SampleSet: Soft
StackLeniency: 0.7
Mode: 3
LetterboxInBreaks: 0
SpecialStyle: 0
WidescreenStoryboard: 0

[Editor]
Bookmarks: 39660,95308,104908,114508
DistanceSpacing: 0.8
BeatDivisor: 8
GridSize: 8
TimelineZoom: 2.4

[Metadata]
Title:MeiSakura
TitleUnicode:冥桜
Artist:AMAZE
ArtistUnicode:AMAZE
Creator:_underjoy
Version:Yumeiro
Source:東方Project
Tags:slowjam mei amuro killer yuyuko saigyouji akashi blossom cherry slowjam sv
BeatmapID:1973722
BeatmapSetID:945149

[Difficulty]
HPDrainRate:9
CircleSize:4
OverallDifficulty:9
ApproachRate:5
SliderMultiplier:1.4
SliderTickRate:1

[Events]
//Background and Video events
0,0,"43986363.jpg",0,0
//Break Periods
//Storyboard Layer 0 (Background)
//Storyboard Layer 1 (Fail)
//Storyboard Layer 2 (Pass)
//Storyboard Layer 3 (Foreground)
//Storyboard Sound Samples

[TimingPoints]
60,300,4,1,0,25,1,0
58860,600,4,1,0,25,1,0
68460,545.454545454546,4,1,0,25,1,0
70641,500,4,1,0,25,1,0
72641,461.538461538462,4,1,0,25,1,0
74487,428.571428571429,4,1,0,25,1,0
76201,400,4,1,0,25,1,0
77801,375,4,1,0,25,1,0
79301,352.941176470588,4,1,0,25,1,0
80712,333.333333333333,4,1,0,25,1,0
82045,315.789473684211,4,1,0,25,1,0
83308,300,4,1,0,25,1,0
114508,-100,4,2,2,50,0,0
128908,324.324324324324,4,2,2,50,1,0
129556,358.208955223881,4,2,2,50,1,0
130280,387.096774193548,4,2,2,50,1,0
131054,461.538461538462,4,2,2,50,1,0
132102,600,4,2,2,50,1,0
132702,545.454545454546,4,2,2,50,1,0
133247,666.666666666667,4,2,2,50,1,0
133914,800,4,2,2,50,1,0
134595,909.090909090909,4,2,2,50,1,0

[HitObjects]
192,192,1260,5,0,0:0:0:0:
448,192,1410,1,0,0:0:0:0:
192,192,1560,1,0,0:0:0:0:
64,192,1710,1,0,0:0:0:0:
448,192,1710,1,0,0:0:0:0:
320,192,1860,1,0,0:0:0:0:
192,192,2010,1,0,0:0:0:0:
64,192,2160,1,0,0:0:0:0:
448,192,2160,1,0,0:0:0:0:
448,192,2610,1,0,0:0:0:0:
192,192,2760,1,0,0:0:0:0:
448,192,3060,1,0,0:0:0:0:
192,192,3360,1,0,0:0:0:0:
320,192,3510,1,0,0:0:0:0:
192,192,3660,1,0,0:0:0:0:
448,192,3810,1,0,0:0:0:0:
192,192,3960,1,0,0:0:0:0:
448,192,4110,1,0,0:0:0:0:
64,192,4110,1,0,0:0:0:0:
320,192,4260,1,0,0:0:0:0:
192,192,4410,1,0,0:0:0:0:
448,192,4560,1,0,0:0:0:0:
64,192,4560,1,0,0:0:0:0:
320,192,4710,1,0,0:0:0:0:
192,192,4860,1,0,0:0:0:0:
448,192,5010,1,0,0:0:0:0:
192,192,5160,1,0,0:0:0:0:
64,192,5310,1,0,0:0:0:0:
320,192,5460,1,0,0:0:0:0:
192,192,5610,1,0,0:0:0:0:
448,192,5760,1,0,0:0:0:0:
320,192,5910,1,0,0:0:0:0:
192,192,6060,1,0,0:0:0:0:
448,192,6210,1,0,0:0:0:0:
192,192,6360,1,0,0:0:0:0:
448,192,6510,1,0,0:0:0:0:
64,192,6510,1,0,0:0:0:0:
320,192,6660,1,0,0:0:0:0:
192,192,6810,1,0,0:0:0:0:
448,192,6960,1,0,0:0:0:0:
64,192,6960,1,0,0:0:0:0:
320,192,7110,1,0,0:0:0:0:
192,192,7260,1,0,0:0:0:0:
448,192,7410,1,0,0:0:0:0:
192,192,7560,1,0,0:0:0:0:
64,192,7710,1,0,0:0:0:0:
320,192,7860,1,0,0:0:0:0:
192,192,8010,1,0,0:0:0:0:
448,192,8160,1,0,0:0:0:0:
320,192,8310,1,0,0:0:0:0:
192,192,8460,1,0,0:0:0:0:
448,192,8610,1,0,0:0:0:0:
192,192,8760,1,0,0:0:0:0:
448,192,8910,1,0,0:0:0:0:
64,192,8910,1,0,0:0:0:0:
320,192,9060,1,0,0:0:0:0:
192,192,9210,1,0,0:0:0:0:
448,192,9360,1,0,0:0:0:0:
64,192,9360,1,0,0:0:0:0:
320,192,9510,1,0,0:0:0:0:
192,192,9660,1,0,0:0:0:0:
448,192,9810,1,0,0:0:0:0:
192,192,9960,1,0,0:0:0:0:
64,192,10110,1,0,0:0:0:0:
320,192,10260,1,0,0:0:0:0:
192,192,10410,1,0,0:0:0:0:
448,192,10560,1,0,0:0:0:0:
320,192,10710,1,0,0:0:0:0:
64,192,10860,1,0,0:0:0:0:
192,192,10860,1,0,0:0:0:0:
64,192,11010,1,0,0:0:0:0:
192,192,11010,1,0,0:0:0:0:
64,192,11160,1,0,0:0:0:0:
448,192,11160,1,0,0:0:0:0:
320,192,11310,1,0,0:0:0:0:
448,192,11310,1,0,0:0:0:0:
192,192,11385,1,0,0:0:0:0:
320,192,11460,1,0,0:0:0:0:
64,192,11460,1,0,0:0:0:0:
448,192,11535,1,0,0:0:0:0:
192,192,11610,1,0,0:0:0:0:
320,192,11610,1,0,0:0:0:0:
192,192,11760,1,0,0:0:0:0:
448,192,11760,1,0,0:0:0:0:
64,192,11910,1,0,0:0:0:0:
448,192,11910,1,0,0:0:0:0:
320,192,11985,1,0,0:0:0:0:
64,192,12060,1,0,0:0:0:0:
192,192,12060,1,0,0:0:0:0:
192,192,12210,1,0,0:0:0:0:
64,192,12210,1,0,0:0:0:0:
64,192,12360,1,0,0:0:0:0:
448,192,12360,1,0,0:0:0:0:
320,192,12510,1,0,0:0:0:0:
448,192,12510,1,0,0:0:0:0:
192,192,12585,1,0,0:0:0:0:
64,192,12660,1,0,0:0:0:0:
320,192,12660,1,0,0:0:0:0:
448,192,12735,1,0,0:0:0:0:
64,192,12810,1,0,0:0:0:0:
192,192,12810,1,0,0:0:0:0:
320,192,12960,1,0,0:0:0:0:
192,192,12960,1,0,0:0:0:0:
448,192,13035,1,0,0:0:0:0:
64,192,13110,1,0,0:0:0:0:
320,192,13110,1,0,0:0:0:0:
448,192,13185,1,0,0:0:0:0:
192,192,13260,1,0,0:0:0:0:
64,192,13260,1,0,0:0:0:0:
192,192,13410,1,0,0:0:0:0:
64,192,13410,1,0,0:0:0:0:
64,192,13560,1,0,0:0:0:0:
448,192,13560,1,0,0:0:0:0:
320,192,13710,1,0,0:0:0:0:
448,192,13710,1,0,0:0:0:0:
192,192,13785,1,0,0:0:0:0:
64,192,13860,1,0,0:0:0:0:
320,192,13860,1,0,0:0:0:0:
448,192,13935,1,0,0:0:0:0:
192,192,14010,1,0,0:0:0:0:
320,192,14010,1,0,0:0:0:0:
192,192,14160,1,0,0:0:0:0:
448,192,14160,1,0,0:0:0:0:
320,192,14235,1,0,0:0:0:0:
64,192,14310,1,0,0:0:0:0:
192,192,14385,1,0,0:0:0:0:
320,192,14385,1,0,0:0:0:0:
448,192,14460,1,0,0:0:0:0:
64,192,14460,1,0,0:0:0:0:
320,192,14535,1,0,0:0:0:0:
64,192,14610,1,0,0:0:0:0:
192,192,14685,1,0,0:0:0:0:
320,192,14685,1,0,0:0:0:0:
448,192,14760,1,0,0:0:0:0:
64,192,14760,1,0,0:0:0:0:
320,192,14835,1,0,0:0:0:0:
64,192,14910,1,0,0:0:0:0:
192,192,14985,1,0,0:0:0:0:
448,192,14985,1,0,0:0:0:0:
320,192,15060,1,0,0:0:0:0:
64,192,15060,1,0,0:0:0:0:
192,192,15135,1,0,0:0:0:0:
64,192,15210,1,0,0:0:0:0:
192,192,15285,1,0,0:0:0:0:
320,192,15285,1,0,0:0:0:0:
64,192,15360,1,0,0:0:0:0:
448,192,15360,1,0,0:0:0:0:
320,192,15435,1,0,0:0:0:0:
192,192,15510,1,0,0:0:0:0:
448,192,15585,1,0,0:0:0:0:
192,192,15660,1,0,0:0:0:0:
64,192,15660,1,0,0:0:0:0:
64,192,15810,1,0,0:0:0:0:
192,192,15810,1,0,0:0:0:0:
64,192,15960,1,0,0:0:0:0:
448,192,15960,1,0,0:0:0:0:
320,192,16110,1,0,0:0:0:0:
448,192,16110,1,0,0:0:0:0:
192,192,16185,1,0,0:0:0:0:
320,192,16260,1,0,0:0:0:0:
64,192,16260,1,0,0:0:0:0:
448,192,16335,1,0,0:0:0:0:
192,192,16410,1,0,0:0:0:0:
320,192,16410,1,0,0:0:0:0:
192,192,16560,1,0,0:0:0:0:
448,192,16560,1,0,0:0:0:0:
64,192,16710,1,0,0:0:0:0:
448,192,16710,1,0,0:0:0:0:
320,192,16785,1,0,0:0:0:0:
64,192,16860,1,0,0:0:0:0:
192,192,16860,1,0,0:0:0:0:
64,192,17010,1,0,0:0:0:0:
192,192,17010,1,0,0:0:0:0:
64,192,17160,1,0,0:0:0:0:
448,192,17160,1,0,0:0:0:0:
192,192,17310,1,0,0:0:0:0:
448,192,17310,1,0,0:0:0:0:
320,192,17385,1,0,0:0:0:0:
192,192,17460,1,0,0:0:0:0:
64,192,17460,1,0,0:0:0:0:
448,192,17535,1,0,0:0:0:0:
320,192,17610,1,0,0:0:0:0:
64,192,17610,1,0,0:0:0:0:
320,192,17760,1,0,0:0:0:0:
192,192,17760,1,0,0:0:0:0:
448,192,17835,1,0,0:0:0:0:
64,192,17910,1,0,0:0:0:0:
320,192,17910,1,0,0:0:0:0:
448,192,17985,1,0,0:0:0:0:
192,192,18060,1,0,0:0:0:0:
64,192,18060,1,0,0:0:0:0:
192,192,18210,1,0,0:0:0:0:
64,192,18210,1,0,0:0:0:0:
64,192,18360,1,0,0:0:0:0:
448,192,18360,1,0,0:0:0:0:
320,192,18510,1,0,0:0:0:0:
448,192,18510,1,0,0:0:0:0:
192,192,18585,1,0,0:0:0:0:
64,192,18660,1,0,0:0:0:0:
320,192,18660,1,0,0:0:0:0:
448,192,18735,1,0,0:0:0:0:
320,192,18810,1,0,0:0:0:0:
192,192,18810,1,0,0:0:0:0:
64,192,18960,1,0,0:0:0:0:
448,192,18960,1,0,0:0:0:0:
192,192,19035,1,0,0:0:0:0:
320,192,19110,1,0,0:0:0:0:
448,192,19260,128,0,20160:0:0:0:0:
64,192,20460,1,0,0:0:0:0:
448,192,20460,1,0,0:0:0:0:
192,192,20460,1,0,0:0:0:0:
320,192,20535,1,0,0:0:0:0:
192,192,20610,1,0,0:0:0:0:
448,192,20685,1,0,0:0:0:0:
320,192,20760,1,0,0:0:0:0:
64,192,20760,1,0,0:0:0:0:
192,192,20760,1,0,0:0:0:0:
448,192,20835,1,0,0:0:0:0:
64,192,20910,1,0,0:0:0:0:
320,192,20985,1,0,0:0:0:0:
192,192,21060,1,0,0:0:0:0:
448,192,21135,1,0,0:0:0:0:
192,192,21210,1,0,0:0:0:0:
64,192,21210,1,0,0:0:0:0:
448,192,21285,1,0,0:0:0:0:
64,192,21360,1,0,0:0:0:0:
192,192,21360,1,0,0:0:0:0:
320,192,21360,1,0,0:0:0:0:
448,192,21435,1,0,0:0:0:0:
64,192,21510,1,0,0:0:0:0:
320,192,21585,1,0,0:0:0:0:
192,192,21660,1,0,0:0:0:0:
64,192,21660,1,0,0:0:0:0:
320,192,21735,1,0,0:0:0:0:
192,192,21810,1,0,0:0:0:0:
448,192,21885,1,0,0:0:0:0:
64,192,21960,1,0,0:0:0:0:
192,192,21960,1,0,0:0:0:0:
320,192,21960,1,0,0:0:0:0:
448,192,22035,1,0,0:0:0:0:
64,192,22110,1,0,0:0:0:0:
320,192,22185,1,0,0:0:0:0:
192,192,22260,1,0,0:0:0:0:
448,192,22335,1,0,0:0:0:0:
192,192,22410,1,0,0:0:0:0:
64,192,22410,1,0,0:0:0:0:
448,192,22485,1,0,0:0:0:0:
320,192,22560,1,0,0:0:0:0:
192,192,22560,1,0,0:0:0:0:
64,192,22560,1,0,0:0:0:0:
448,192,22635,1,0,0:0:0:0:
64,192,22710,1,0,0:0:0:0:
320,192,22785,1,0,0:0:0:0:
192,192,22860,1,0,0:0:0:0:
64,192,22860,1,0,0:0:0:0:
448,192,22935,1,0,0:0:0:0:
192,192,23010,1,0,0:0:0:0:
320,192,23085,1,0,0:0:0:0:
64,192,23160,1,0,0:0:0:0:
192,192,23160,1,0,0:0:0:0:
448,192,23160,1,0,0:0:0:0:
320,192,23235,1,0,0:0:0:0:
64,192,23310,1,0,0:0:0:0:
448,192,23385,1,0,0:0:0:0:
192,192,23460,1,0,0:0:0:0:
448,192,23535,1,0,0:0:0:0:
64,192,23610,1,0,0:0:0:0:
192,192,23610,1,0,0:0:0:0:
320,192,23685,1,0,0:0:0:0:
64,192,23760,1,0,0:0:0:0:
192,192,23760,1,0,0:0:0:0:
448,192,23760,1,0,0:0:0:0:
320,192,23835,1,0,0:0:0:0:
64,192,23910,1,0,0:0:0:0:
448,192,23985,1,0,0:0:0:0:
192,192,24060,1,0,0:0:0:0:
64,192,24060,1,0,0:0:0:0:
448,192,24135,1,0,0:0:0:0:
192,192,24210,1,0,0:0:0:0:
320,192,24285,1,0,0:0:0:0:
64,192,24360,1,0,0:0:0:0:
192,192,24360,1,0,0:0:0:0:
448,192,24360,1,0,0:0:0:0:
320,192,24435,1,0,0:0:0:0:
64,192,24510,1,0,0:0:0:0:
192,192,24510,1,0,0:0:0:0:
448,192,24510,1,0,0:0:0:0:
320,192,24585,1,0,0:0:0:0:
64,192,24660,1,0,0:0:0:0:
448,192,24735,1,0,0:0:0:0:
192,192,24810,1,0,0:0:0:0:
64,192,24810,1,0,0:0:0:0:
320,192,24885,1,0,0:0:0:0:
192,192,24960,1,0,0:0:0:0:
64,192,24960,1,0,0:0:0:0:
448,192,24960,1,0,0:0:0:0:
320,192,25035,1,0,0:0:0:0:
64,192,25110,1,0,0:0:0:0:
448,192,25110,1,0,0:0:0:0:
192,192,25185,1,0,0:0:0:0:
448,192,25260,1,0,0:0:0:0:
320,192,25260,1,0,0:0:0:0:
192,192,25335,1,0,0:0:0:0:
320,192,25410,1,0,0:0:0:0:
64,192,25485,1,0,0:0:0:0:
192,192,25560,1,0,0:0:0:0:
448,192,25560,1,0,0:0:0:0:
320,192,25560,1,0,0:0:0:0:
64,192,25635,1,0,0:0:0:0:
448,192,25710,1,0,0:0:0:0:
192,192,25785,1,0,0:0:0:0:
320,192,25860,1,0,0:0:0:0:
64,192,25935,1,0,0:0:0:0:
320,192,26010,1,0,0:0:0:0:
448,192,26010,1,0,0:0:0:0:
64,192,26085,1,0,0:0:0:0:
448,192,26160,1,0,0:0:0:0:
320,192,26160,1,0,0:0:0:0:
192,192,26160,1,0,0:0:0:0:
64,192,26235,1,0,0:0:0:0:
448,192,26310,1,0,0:0:0:0:
192,192,26385,1,0,0:0:0:0:
320,192,26460,1,0,0:0:0:0:
448,192,26460,1,0,0:0:0:0:
192,192,26535,1,0,0:0:0:0:
320,192,26610,1,0,0:0:0:0:
64,192,26685,1,0,0:0:0:0:
448,192,26760,1,0,0:0:0:0:
320,192,26760,1,0,0:0:0:0:
192,192,26760,1,0,0:0:0:0:
64,192,26835,1,0,0:0:0:0:
448,192,26910,1,0,0:0:0:0:
192,192,26985,1,0,0:0:0:0:
320,192,27060,1,0,0:0:0:0:
64,192,27135,1,0,0:0:0:0:
320,192,27210,1,0,0:0:0:0:
448,192,27210,1,0,0:0:0:0:
64,192,27285,1,0,0:0:0:0:
192,192,27360,1,0,0:0:0:0:
320,192,27360,1,0,0:0:0:0:
448,192,27360,1,0,0:0:0:0:
64,192,27435,1,0,0:0:0:0:
448,192,27510,1,0,0:0:0:0:
192,192,27585,1,0,0:0:0:0:
320,192,27660,1,0,0:0:0:0:
448,192,27660,1,0,0:0:0:0:
64,192,27735,1,0,0:0:0:0:
320,192,27810,1,0,0:0:0:0:
192,192,27885,1,0,0:0:0:0:
448,192,27960,1,0,0:0:0:0:
320,192,27960,1,0,0:0:0:0:
64,192,27960,1,0,0:0:0:0:
192,192,28035,1,0,0:0:0:0:
448,192,28110,1,0,0:0:0:0:
64,192,28185,1,0,0:0:0:0:
320,192,28260,1,0,0:0:0:0:
64,192,28335,1,0,0:0:0:0:
448,192,28410,1,0,0:0:0:0:
320,192,28410,1,0,0:0:0:0:
192,192,28485,1,0,0:0:0:0:
448,192,28560,1,0,0:0:0:0:
320,192,28560,1,0,0:0:0:0:
64,192,28560,1,0,0:0:0:0:
192,192,28635,1,0,0:0:0:0:
448,192,28710,1,0,0:0:0:0:
64,192,28785,1,0,0:0:0:0:
320,192,28860,1,0,0:0:0:0:
448,192,28860,1,0,0:0:0:0:
64,192,28935,1,0,0:0:0:0:
192,192,29010,1,0,0:0:0:0:
448,192,29010,1,0,0:0:0:0:
320,192,29085,1,0,0:0:0:0:
448,192,29160,1,0,0:0:0:0:
192,192,29160,1,0,0:0:0:0:
64,192,29160,1,0,0:0:0:0:
320,192,29235,1,0,0:0:0:0:
448,192,29310,1,0,0:0:0:0:
192,192,29310,1,0,0:0:0:0:
64,192,29310,1,0,0:0:0:0:
320,192,29385,1,0,0:0:0:0:
64,192,29460,1,0,0:0:0:0:
192,192,29535,1,0,0:0:0:0:
320,192,29610,1,0,0:0:0:0:
448,192,29610,1,0,0:0:0:0:
192,192,29685,1,0,0:0:0:0:
320,192,29760,1,0,0:0:0:0:
448,192,29760,1,0,0:0:0:0:
64,192,29760,1,0,0:0:0:0:
192,192,29835,1,0,0:0:0:0:
448,192,29910,1,0,0:0:0:0:
64,192,29910,1,0,0:0:0:0:
320,192,29985,1,0,0:0:0:0:
64,192,30060,1,0,0:0:0:0:
448,192,30060,1,0,0:0:0:0:
192,192,30060,1,0,0:0:0:0:
320,192,30135,1,0,0:0:0:0:
64,192,30210,1,0,0:0:0:0:
448,192,30285,1,0,0:0:0:0:
64,192,30360,1,0,0:0:0:0:
192,192,30360,1,0,0:0:0:0:
320,192,30360,1,0,0:0:0:0:
448,192,30435,1,0,0:0:0:0:
192,192,30510,1,0,0:0:0:0:
320,192,30585,1,0,0:0:0:0:
64,192,30660,1,0,0:0:0:0:
448,192,30735,1,0,0:0:0:0:
192,192,30810,1,0,0:0:0:0:
64,192,30810,1,0,0:0:0:0:
448,192,30885,1,0,0:0:0:0:
320,192,30960,1,0,0:0:0:0:
64,192,30960,1,0,0:0:0:0:
192,192,30960,1,0,0:0:0:0:
448,192,31035,1,0,0:0:0:0:
192,192,31110,1,0,0:0:0:0:
320,192,31185,1,0,0:0:0:0:
192,192,31260,1,0,0:0:0:0:
64,192,31260,1,0,0:0:0:0:
320,192,31335,1,0,0:0:0:0:
64,192,31410,1,0,0:0:0:0:
448,192,31485,1,0,0:0:0:0:
320,192,31560,1,0,0:0:0:0:
64,192,31560,1,0,0:0:0:0:
192,192,31560,1,0,0:0:0:0:
448,192,31635,1,0,0:0:0:0:
192,192,31710,1,0,0:0:0:0:
320,192,31785,1,0,0:0:0:0:
64,192,31860,1,0,0:0:0:0:
448,192,31935,1,0,0:0:0:0:
192,192,32010,1,0,0:0:0:0:
64,192,32010,1,0,0:0:0:0:
448,192,32085,1,0,0:0:0:0:
192,192,32160,1,0,0:0:0:0:
64,192,32160,1,0,0:0:0:0:
320,192,32160,1,0,0:0:0:0:
448,192,32235,1,0,0:0:0:0:
192,192,32310,1,0,0:0:0:0:
320,192,32385,1,0,0:0:0:0:
192,192,32460,1,0,0:0:0:0:
64,192,32460,1,0,0:0:0:0:
448,192,32535,1,0,0:0:0:0:
64,192,32610,1,0,0:0:0:0:
320,192,32685,1,0,0:0:0:0:
448,192,32760,1,0,0:0:0:0:
64,192,32760,1,0,0:0:0:0:
192,192,32760,1,0,0:0:0:0:
320,192,32835,1,0,0:0:0:0:
192,192,32910,1,0,0:0:0:0:
448,192,32985,1,0,0:0:0:0:
64,192,33060,1,0,0:0:0:0:
448,192,33135,1,0,0:0:0:0:
64,192,33210,1,0,0:0:0:0:
192,192,33210,1,0,0:0:0:0:
320,192,33285,1,0,0:0:0:0:
448,192,33360,1,0,0:0:0:0:
64,192,33360,1,0,0:0:0:0:
192,192,33360,1,0,0:0:0:0:
320,192,33435,1,0,0:0:0:0:
192,192,33510,1,0,0:0:0:0:
448,192,33585,1,0,0:0:0:0:
192,192,33660,1,0,0:0:0:0:
64,192,33660,1,0,0:0:0:0:
448,192,33735,1,0,0:0:0:0:
64,192,33810,1,0,0:0:0:0:
320,192,33885,1,0,0:0:0:0:
448,192,33960,1,0,0:0:0:0:
64,192,33960,1,0,0:0:0:0:
192,192,33960,1,0,0:0:0:0:
320,192,34035,1,0,0:0:0:0:
448,192,34110,1,0,0:0:0:0:
64,192,34110,1,0,0:0:0:0:
192,192,34110,1,0,0:0:0:0:
320,192,34185,1,0,0:0:0:0:
192,192,34260,1,0,0:0:0:0:
448,192,34335,1,0,0:0:0:0:
192,192,34410,1,0,0:0:0:0:
64,192,34410,1,0,0:0:0:0:
320,192,34485,1,0,0:0:0:0:
448,192,34560,1,0,0:0:0:0:
192,192,34560,1,0,0:0:0:0:
64,192,34560,1,0,0:0:0:0:
320,192,34635,1,0,0:0:0:0:
448,192,34710,1,0,0:0:0:0:
64,192,34710,1,0,0:0:0:0:
192,192,34785,1,0,0:0:0:0:
448,192,34860,1,0,0:0:0:0:
320,192,34860,1,0,0:0:0:0:
192,192,34935,1,0,0:0:0:0:
320,192,35010,1,0,0:0:0:0:
64,192,35085,1,0,0:0:0:0:
448,192,35160,1,0,0:0:0:0:
320,192,35160,1,0,0:0:0:0:
192,192,35160,1,0,0:0:0:0:
64,192,35235,1,0,0:0:0:0:
320,192,35310,1,0,0:0:0:0:
192,192,35385,1,0,0:0:0:0:
448,192,35460,1,0,0:0:0:0:
64,192,35535,1,0,0:0:0:0:
320,192,35610,1,0,0:0:0:0:
448,192,35610,1,0,0:0:0:0:
64,192,35685,1,0,0:0:0:0:
192,192,35760,1,0,0:0:0:0:
448,192,35760,1,0,0:0:0:0:
320,192,35760,1,0,0:0:0:0:
64,192,35835,1,0,0:0:0:0:
320,192,35910,1,0,0:0:0:0:
192,192,35985,1,0,0:0:0:0:
320,192,36060,1,0,0:0:0:0:
448,192,36060,1,0,0:0:0:0:
192,192,36135,1,0,0:0:0:0:
448,192,36210,1,0,0:0:0:0:
64,192,36285,1,0,0:0:0:0:
192,192,36360,1,0,0:0:0:0:
448,192,36360,1,0,0:0:0:0:
320,192,36360,1,0,0:0:0:0:
64,192,36435,1,0,0:0:0:0:
320,192,36510,1,0,0:0:0:0:
192,192,36585,1,0,0:0:0:0:
448,192,36660,1,0,0:0:0:0:
64,192,36735,1,0,0:0:0:0:
320,192,36810,1,0,0:0:0:0:
448,192,36810,1,0,0:0:0:0:
64,192,36885,1,0,0:0:0:0:
320,192,36960,1,0,0:0:0:0:
448,192,36960,1,0,0:0:0:0:
192,192,36960,1,0,0:0:0:0:
64,192,37035,1,0,0:0:0:0:
320,192,37110,1,0,0:0:0:0:
192,192,37185,1,0,0:0:0:0:
320,192,37260,1,0,0:0:0:0:
448,192,37260,1,0,0:0:0:0:
64,192,37335,1,0,0:0:0:0:
448,192,37410,1,0,0:0:0:0:
192,192,37485,1,0,0:0:0:0:
64,192,37560,1,0,0:0:0:0:
448,192,37560,1,0,0:0:0:0:
320,192,37560,1,0,0:0:0:0:
192,192,37635,1,0,0:0:0:0:
320,192,37710,1,0,0:0:0:0:
64,192,37710,1,0,0:0:0:0:
448,192,37710,1,0,0:0:0:0:
192,192,37785,1,0,0:0:0:0:
320,192,37860,1,0,0:0:0:0:
64,192,37935,1,0,0:0:0:0:
448,192,38010,1,0,0:0:0:0:
320,192,38010,1,0,0:0:0:0:
192,192,38085,1,0,0:0:0:0:
64,192,38160,1,0,0:0:0:0:
448,192,38160,1,0,0:0:0:0:
320,192,38160,1,0,0:0:0:0:
192,192,38235,1,0,0:0:0:0:
448,192,38310,1,0,0:0:0:0:
64,192,38310,1,0,0:0:0:0:
320,192,38385,1,0,0:0:0:0:
192,192,38460,1,0,0:0:0:0:
64,192,38460,1,0,0:0:0:0:
448,192,39060,1,0,0:0:0:0:
320,192,39135,1,0,0:0:0:0:
192,192,39210,1,0,0:0:0:0:
64,192,39285,1,0,0:0:0:0:
448,192,39360,1,0,0:0:0:0:
320,192,39435,1,0,0:0:0:0:
192,192,39510,1,0,0:0:0:0:
64,192,39585,1,0,0:0:0:0:
320,192,39660,1,0,0:0:0:0:
448,192,39660,1,0,0:0:0:0:
192,192,39660,1,0,0:0:0:0:
64,192,39735,1,0,0:0:0:0:
192,192,39810,1,0,0:0:0:0:
448,192,39810,1,0,0:0:0:0:
320,192,39885,1,0,0:0:0:0:
448,192,39960,1,0,0:0:0:0:
192,192,39960,1,0,0:0:0:0:
64,192,39960,1,0,0:0:0:0:
320,192,40035,1,0,0:0:0:0:
64,192,40110,1,0,0:0:0:0:
448,192,40110,1,0,0:0:0:0:
192,192,40185,1,0,0:0:0:0:
64,192,40260,1,0,0:0:0:0:
320,192,40260,1,0,0:0:0:0:
192,192,40335,1,0,0:0:0:0:
320,192,40410,1,0,0:0:0:0:
448,192,40410,1,0,0:0:0:0:
64,192,40485,1,0,0:0:0:0:
320,192,40560,1,0,0:0:0:0:
448,192,40560,1,0,0:0:0:0:
192,192,40560,1,0,0:0:0:0:
64,192,40635,1,0,0:0:0:0:
320,192,40710,1,0,0:0:0:0:
448,192,40710,1,0,0:0:0:0:
192,192,40785,1,0,0:0:0:0:
64,192,40860,1,0,0:0:0:0:
448,192,40860,1,0,0:0:0:0:
320,192,40935,1,0,0:0:0:0:
192,192,41010,1,0,0:0:0:0:
448,192,41010,1,0,0:0:0:0:
320,192,41085,1,0,0:0:0:0:
64,192,41160,1,0,0:0:0:0:
192,192,41160,1,0,0:0:0:0:
448,192,41160,1,0,0:0:0:0:
320,192,41235,1,0,0:0:0:0:
64,192,41310,1,0,0:0:0:0:
448,192,41310,1,0,0:0:0:0:
192,192,41385,1,0,0:0:0:0:
64,192,41460,1,0,0:0:0:0:
320,192,41460,1,0,0:0:0:0:
192,192,41535,1,0,0:0:0:0:
320,192,41610,1,0,0:0:0:0:
448,192,41610,1,0,0:0:0:0:
192,192,41685,1,0,0:0:0:0:
64,192,41760,1,0,0:0:0:0:
320,192,41760,1,0,0:0:0:0:
448,192,41760,1,0,0:0:0:0:
192,192,41835,1,0,0:0:0:0:
64,192,41910,1,0,0:0:0:0:
448,192,41910,1,0,0:0:0:0:
320,192,41985,1,0,0:0:0:0:
448,192,42060,1,0,0:0:0:0:
192,192,42060,1,0,0:0:0:0:
320,192,42135,1,0,0:0:0:0:
64,192,42135,1,0,0:0:0:0:
192,192,42210,1,0,0:0:0:0:
448,192,42210,1,0,0:0:0:0:
320,192,42285,1,0,0:0:0:0:
64,192,42360,1,0,0:0:0:0:
192,192,42360,1,0,0:0:0:0:
448,192,42360,1,0,0:0:0:0:
320,192,42435,1,0,0:0:0:0:
64,192,42510,1,0,0:0:0:0:
448,192,42510,1,0,0:0:0:0:
192,192,42585,1,0,0:0:0:0:
320,192,42585,1,0,0:0:0:0:
64,192,42660,1,0,0:0:0:0:
448,192,42660,1,0,0:0:0:0:
192,192,42735,1,0,0:0:0:0:
320,192,42810,1,0,0:0:0:0:
448,192,42810,1,0,0:0:0:0:
64,192,42885,1,0,0:0:0:0:
192,192,42960,1,0,0:0:0:0:
320,192,42960,1,0,0:0:0:0:
448,192,42960,1,0,0:0:0:0:
64,192,43035,1,0,0:0:0:0:
192,192,43110,1,0,0:0:0:0:
448,192,43110,1,0,0:0:0:0:
320,192,43185,1,0,0:0:0:0:
64,192,43260,1,0,0:0:0:0:
448,192,43260,1,0,0:0:0:0:
192,192,43335,1,0,0:0:0:0:
64,192,43410,1,0,0:0:0:0:
320,192,43410,1,0,0:0:0:0:
192,192,43485,1,0,0:0:0:0:
64,192,43560,1,0,0:0:0:0:
320,192,43560,1,0,0:0:0:0:
448,192,43560,1,0,0:0:0:0:
192,192,43635,1,0,0:0:0:0:
64,192,43710,1,0,0:0:0:0:
320,192,43710,1,0,0:0:0:0:
448,192,43710,1,0,0:0:0:0:
192,192,43785,1,0,0:0:0:0:
448,192,43860,1,0,0:0:0:0:
64,192,43860,1,0,0:0:0:0:
320,192,43935,1,0,0:0:0:0:
192,192,44010,1,0,0:0:0:0:
448,192,44010,1,0,0:0:0:0:
320,192,44085,1,0,0:0:0:0:
448,192,44160,1,0,0:0:0:0:
64,192,44160,1,0,0:0:0:0:
192,192,44160,1,0,0:0:0:0:
320,192,44235,1,0,0:0:0:0:
64,192,44310,1,0,0:0:0:0:
192,192,44310,1,0,0:0:0:0:
448,192,44385,1,0,0:0:0:0:
192,192,44460,1,0,0:0:0:0:
64,192,44460,1,0,0:0:0:0:
320,192,44460,1,0,0:0:0:0:
448,192,44535,1,0,0:0:0:0:
320,192,44610,1,0,0:0:0:0:
64,192,44610,1,0,0:0:0:0:
192,192,44685,1,0,0:0:0:0:
64,192,44760,1,0,0:0:0:0:
320,192,44760,1,0,0:0:0:0:
448,192,44760,1,0,0:0:0:0:
192,192,44835,1,0,0:0:0:0:
448,192,44910,1,0,0:0:0:0:
64,192,44910,1,0,0:0:0:0:
320,192,44985,1,0,0:0:0:0:
448,192,45060,1,0,0:0:0:0:
192,192,45060,1,0,0:0:0:0:
320,192,45135,1,0,0:0:0:0:
192,192,45210,1,0,0:0:0:0:
64,192,45210,1,0,0:0:0:0:
448,192,45285,1,0,0:0:0:0:
192,192,45360,1,0,0:0:0:0:
64,192,45360,1,0,0:0:0:0:
320,192,45360,1,0,0:0:0:0:
448,192,45435,1,0,0:0:0:0:
192,192,45510,1,0,0:0:0:0:
64,192,45510,1,0,0:0:0:0:
320,192,45585,1,0,0:0:0:0:
448,192,45660,1,0,0:0:0:0:
64,192,45660,1,0,0:0:0:0:
192,192,45735,1,0,0:0:0:0:
320,192,45810,1,0,0:0:0:0:
64,192,45810,1,0,0:0:0:0:
192,192,45885,1,0,0:0:0:0:
448,192,45960,1,0,0:0:0:0:
320,192,45960,1,0,0:0:0:0:
64,192,45960,1,0,0:0:0:0:
192,192,46035,1,0,0:0:0:0:
448,192,46110,1,0,0:0:0:0:
64,192,46110,1,0,0:0:0:0:
320,192,46185,1,0,0:0:0:0:
448,192,46260,1,0,0:0:0:0:
192,192,46260,1,0,0:0:0:0:
320,192,46335,1,0,0:0:0:0:
192,192,46410,1,0,0:0:0:0:
64,192,46410,1,0,0:0:0:0:
320,192,46485,1,0,0:0:0:0:
448,192,46560,1,0,0:0:0:0:
192,192,46560,1,0,0:0:0:0:
64,192,46560,1,0,0:0:0:0:
320,192,46635,1,0,0:0:0:0:
448,192,46710,1,0,0:0:0:0:
64,192,46710,1,0,0:0:0:0:
192,192,46785,1,0,0:0:0:0:
64,192,46860,1,0,0:0:0:0:
320,192,46860,1,0,0:0:0:0:
192,192,46935,1,0,0:0:0:0:
448,192,46935,1,0,0:0:0:0:
320,192,47010,1,0,0:0:0:0:
64,192,47010,1,0,0:0:0:0:
192,192,47085,1,0,0:0:0:0:
448,192,47160,1,0,0:0:0:0:
320,192,47160,1,0,0:0:0:0:
64,192,47160,1,0,0:0:0:0:
192,192,47235,1,0,0:0:0:0:
448,192,47310,1,0,0:0:0:0:
64,192,47310,1,0,0:0:0:0:
320,192,47385,1,0,0:0:0:0:
192,192,47385,1,0,0:0:0:0:
448,192,47460,1,0,0:0:0:0:
64,192,47460,1,0,0:0:0:0:
320,192,47535,1,0,0:0:0:0:
192,192,47610,1,0,0:0:0:0:
64,192,47610,1,0,0:0:0:0:
448,192,47685,1,0,0:0:0:0:
320,192,47760,1,0,0:0:0:0:
192,192,47760,1,0,0:0:0:0:
64,192,47760,1,0,0:0:0:0:
448,192,47835,1,0,0:0:0:0:
320,192,47910,1,0,0:0:0:0:
64,192,47910,1,0,0:0:0:0:
192,192,47985,1,0,0:0:0:0:
448,192,48060,1,0,0:0:0:0:
64,192,48060,1,0,0:0:0:0:
320,192,48135,1,0,0:0:0:0:
448,192,48210,1,0,0:0:0:0:
192,192,48210,1,0,0:0:0:0:
320,192,48285,1,0,0:0:0:0:
448,192,48360,1,0,0:0:0:0:
192,192,48360,1,0,0:0:0:0:
64,192,48360,1,0,0:0:0:0:
320,192,48435,1,0,0:0:0:0:
448,192,48510,1,0,0:0:0:0:
192,192,48510,1,0,0:0:0:0:
64,192,48510,1,0,0:0:0:0:
320,192,48585,1,0,0:0:0:0:
64,192,48660,1,0,0:0:0:0:
448,192,48660,1,0,0:0:0:0:
192,192,48735,1,0,0:0:0:0:
320,192,48810,1,0,0:0:0:0:
64,192,48810,1,0,0:0:0:0:
192,192,48885,1,0,0:0:0:0:
64,192,48960,1,0,0:0:0:0:
448,192,48960,1,0,0:0:0:0:
320,192,48960,1,0,0:0:0:0:
192,192,49035,1,0,0:0:0:0:
448,192,49110,1,0,0:0:0:0:
320,192,49110,1,0,0:0:0:0:
192,192,49185,1,0,0:0:0:0:
320,192,49260,1,0,0:0:0:0:
448,192,49260,1,0,0:0:0:0:
64,192,49260,1,0,0:0:0:0:
192,192,49335,1,0,0:0:0:0:
64,192,49410,1,0,0:0:0:0:
448,192,49410,1,0,0:0:0:0:
320,192,49485,1,0,0:0:0:0:
64,192,49560,1,0,0:0:0:0:
448,192,49560,1,0,0:0:0:0:
192,192,49560,1,0,0:0:0:0:
320,192,49635,1,0,0:0:0:0:
448,192,49710,1,0,0:0:0:0:
64,192,49710,1,0,0:0:0:0:
192,192,49785,1,0,0:0:0:0:
320,192,49860,1,0,0:0:0:0:
64,192,49860,1,0,0:0:0:0:
448,192,49935,1,0,0:0:0:0:
64,192,50010,1,0,0:0:0:0:
192,192,50010,1,0,0:0:0:0:
320,192,50085,1,0,0:0:0:0:
64,192,50160,1,0,0:0:0:0:
448,192,50160,1,0,0:0:0:0:
192,192,50160,1,0,0:0:0:0:
320,192,50235,1,0,0:0:0:0:
192,192,50310,1,0,0:0:0:0:
64,192,50310,1,0,0:0:0:0:
320,192,50385,1,0,0:0:0:0:
448,192,50460,1,0,0:0:0:0:
64,192,50460,1,0,0:0:0:0:
192,192,50535,1,0,0:0:0:0:
320,192,50610,1,0,0:0:0:0:
64,192,50610,1,0,0:0:0:0:
192,192,50685,1,0,0:0:0:0:
448,192,50760,1,0,0:0:0:0:
320,192,50760,1,0,0:0:0:0:
64,192,50760,1,0,0:0:0:0:
192,192,50835,1,0,0:0:0:0:
448,192,50910,1,0,0:0:0:0:
64,192,50910,1,0,0:0:0:0:
320,192,50985,1,0,0:0:0:0:
448,192,51060,1,0,0:0:0:0:
192,192,51060,1,0,0:0:0:0:
64,192,51135,1,0,0:0:0:0:
448,192,51210,1,0,0:0:0:0:
320,192,51210,1,0,0:0:0:0:
192,192,51285,1,0,0:0:0:0:
448,192,51360,1,0,0:0:0:0:
64,192,51360,1,0,0:0:0:0:
320,192,51360,1,0,0:0:0:0:
192,192,51435,1,0,0:0:0:0:
448,192,51510,1,0,0:0:0:0:
64,192,51510,1,0,0:0:0:0:
320,192,51585,1,0,0:0:0:0:
448,192,51660,1,0,0:0:0:0:
64,192,51660,1,0,0:0:0:0:
192,192,51735,1,0,0:0:0:0:
320,192,51735,1,0,0:0:0:0:
448,192,51810,1,0,0:0:0:0:
64,192,51810,1,0,0:0:0:0:
192,192,51885,1,0,0:0:0:0:
448,192,51960,1,0,0:0:0:0:
320,192,51960,1,0,0:0:0:0:
64,192,51960,1,0,0:0:0:0:
192,192,52035,1,0,0:0:0:0:
448,192,52110,1,0,0:0:0:0:
64,192,52110,1,0,0:0:0:0:
192,192,52185,1,0,0:0:0:0:
320,192,52185,1,0,0:0:0:0:
448,192,52260,1,0,0:0:0:0:
64,192,52260,1,0,0:0:0:0:
320,192,52335,1,0,0:0:0:0:
192,192,52410,1,0,0:0:0:0:
64,192,52410,1,0,0:0:0:0:
448,192,52485,1,0,0:0:0:0:
192,192,52560,1,0,0:0:0:0:
320,192,52560,1,0,0:0:0:0:
64,192,52560,1,0,0:0:0:0:
448,192,52635,1,0,0:0:0:0:
320,192,52710,1,0,0:0:0:0:
64,192,52710,1,0,0:0:0:0:
192,192,52785,1,0,0:0:0:0:
448,192,52860,1,0,0:0:0:0:
64,192,52860,1,0,0:0:0:0:
320,192,52935,1,0,0:0:0:0:
192,192,53010,1,0,0:0:0:0:
64,192,53010,1,0,0:0:0:0:
320,192,53085,1,0,0:0:0:0:
448,192,53160,1,0,0:0:0:0:
192,192,53160,1,0,0:0:0:0:
64,192,53160,1,0,0:0:0:0:
320,192,53235,1,0,0:0:0:0:
448,192,53310,1,0,0:0:0:0:
192,192,53310,1,0,0:0:0:0:
64,192,53310,1,0,0:0:0:0:
320,192,53385,1,0,0:0:0:0:
64,192,53460,1,0,0:0:0:0:
448,192,53460,1,0,0:0:0:0:
192,192,53535,1,0,0:0:0:0:
448,192,53610,1,0,0:0:0:0:
320,192,53610,1,0,0:0:0:0:
192,192,53685,1,0,0:0:0:0:
320,192,53760,1,0,0:0:0:0:
64,192,53760,1,0,0:0:0:0:
448,192,53760,1,0,0:0:0:0:
192,192,53835,1,0,0:0:0:0:
64,192,53910,1,0,0:0:0:0:
448,192,53910,1,0,0:0:0:0:
320,192,53985,1,0,0:0:0:0:
192,192,54060,1,0,0:0:0:0:
64,192,54060,1,0,0:0:0:0:
448,192,54060,1,0,0:0:0:0:
320,192,54135,1,0,0:0:0:0:
448,192,54210,1,0,0:0:0:0:
64,192,54210,1,0,0:0:0:0:
192,192,54285,1,0,0:0:0:0:
448,192,54360,1,0,0:0:0:0:
64,192,54360,1,0,0:0:0:0:
320,192,54360,1,0,0:0:0:0:
192,192,54435,1,0,0:0:0:0:
64,192,54510,1,0,0:0:0:0:
448,192,54510,1,0,0:0:0:0:
320,192,54585,1,0,0:0:0:0:
192,192,54660,1,0,0:0:0:0:
448,192,54660,1,0,0:0:0:0:
64,192,54735,1,0,0:0:0:0:
448,192,54810,1,0,0:0:0:0:
320,192,54810,1,0,0:0:0:0:
192,192,54885,1,0,0:0:0:0:
448,192,54960,1,0,0:0:0:0:
64,192,54960,1,0,0:0:0:0:
320,192,54960,1,0,0:0:0:0:
192,192,55035,1,0,0:0:0:0:
320,192,55110,1,0,0:0:0:0:
448,192,55110,1,0,0:0:0:0:
192,192,55185,1,0,0:0:0:0:
64,192,55260,1,0,0:0:0:0:
448,192,55260,1,0,0:0:0:0:
320,192,55335,1,0,0:0:0:0:
192,192,55410,1,0,0:0:0:0:
448,192,55410,1,0,0:0:0:0:
320,192,55485,1,0,0:0:0:0:
64,192,55560,1,0,0:0:0:0:
192,192,55560,1,0,0:0:0:0:
448,192,55560,1,0,0:0:0:0:
320,192,55635,1,0,0:0:0:0:
64,192,55710,1,0,0:0:0:0:
448,192,55710,1,0,0:0:0:0:
192,192,55785,1,0,0:0:0:0:
64,192,55860,1,0,0:0:0:0:
320,192,55860,1,0,0:0:0:0:
448,192,55935,1,0,0:0:0:0:
64,192,56010,1,0,0:0:0:0:
192,192,56010,1,0,0:0:0:0:
320,192,56085,1,0,0:0:0:0:
64,192,56160,1,0,0:0:0:0:
448,192,56160,1,0,0:0:0:0:
192,192,56160,1,0,0:0:0:0:
320,192,56235,1,0,0:0:0:0:
64,192,56310,1,0,0:0:0:0:
448,192,56310,1,0,0:0:0:0:
192,192,56385,1,0,0:0:0:0:
64,192,56460,1,0,0:0:0:0:
448,192,56460,1,0,0:0:0:0:
320,192,56535,1,0,0:0:0:0:
192,192,56535,1,0,0:0:0:0:
64,192,56610,1,0,0:0:0:0:
448,192,56610,1,0,0:0:0:0:
320,192,56685,1,0,0:0:0:0:
64,192,56760,1,0,0:0:0:0:
192,192,56760,1,0,0:0:0:0:
448,192,56760,1,0,0:0:0:0:
320,192,56835,1,0,0:0:0:0:
64,192,56910,1,0,0:0:0:0:
448,192,56910,1,0,0:0:0:0:
320,192,56985,1,0,0:0:0:0:
192,192,56985,1,0,0:0:0:0:
64,192,57060,1,0,0:0:0:0:
448,192,57060,1,0,0:0:0:0:
192,192,57135,1,0,0:0:0:0:
320,192,57210,1,0,0:0:0:0:
448,192,57210,1,0,0:0:0:0:
64,192,57285,1,0,0:0:0:0:
320,192,57360,1,0,0:0:0:0:
192,192,57360,1,0,0:0:0:0:
448,192,57360,1,0,0:0:0:0:
64,192,57435,1,0,0:0:0:0:
192,192,57510,1,0,0:0:0:0:
448,192,57510,1,0,0:0:0:0:
320,192,57585,1,0,0:0:0:0:
64,192,57660,1,0,0:0:0:0:
448,192,57660,1,0,0:0:0:0:
192,192,57735,1,0,0:0:0:0:
320,192,57810,1,0,0:0:0:0:
448,192,57810,1,0,0:0:0:0:
192,192,57885,1,0,0:0:0:0:
64,192,57960,1,0,0:0:0:0:
320,192,57960,1,0,0:0:0:0:
448,192,57960,1,0,0:0:0:0:
192,192,58035,1,0,0:0:0:0:
64,192,58110,1,0,0:0:0:0:
320,192,58110,1,0,0:0:0:0:
448,192,58110,1,0,0:0:0:0:
192,192,58185,1,0,0:0:0:0:
448,192,58260,1,0,0:0:0:0:
64,192,58260,1,0,0:0:0:0:
320,192,58335,1,0,0:0:0:0:
64,192,58410,1,0,0:0:0:0:
192,192,58410,1,0,0:0:0:0:
320,192,58485,1,0,0:0:0:0:
192,192,58560,1,0,0:0:0:0:
448,192,58560,1,0,0:0:0:0:
64,192,58560,1,0,0:0:0:0:
320,192,58635,1,0,0:0:0:0:
448,192,58710,1,0,0:0:0:0:
64,192,58710,1,0,0:0:0:0:
192,192,58785,1,0,0:0:0:0:
320,192,58860,1,0,0:0:0:0:
448,192,58860,1,0,0:0:0:0:
320,192,59010,1,0,0:0:0:0:
192,192,59160,1,0,0:0:0:0:
64,192,59160,1,0,0:0:0:0:
320,192,59310,1,0,0:0:0:0:
448,192,59310,1,0,0:0:0:0:
320,192,59460,1,0,0:0:0:0:
64,192,59610,1,0,0:0:0:0:
448,192,59610,1,0,0:0:0:0:
192,192,59760,1,0,0:0:0:0:
320,192,59760,1,0,0:0:0:0:
64,192,59910,1,0,0:0:0:0:
448,192,59910,1,0,0:0:0:0:
320,192,60060,1,0,0:0:0:0:
448,192,60060,1,0,0:0:0:0:
192,192,60210,1,0,0:0:0:0:
64,192,60210,1,0,0:0:0:0:
320,192,60360,1,0,0:0:0:0:
64,192,60510,1,0,0:0:0:0:
448,192,60510,1,0,0:0:0:0:
192,192,60660,1,0,0:0:0:0:
320,192,60810,1,0,0:0:0:0:
448,192,60810,1,0,0:0:0:0:
192,192,60960,1,0,0:0:0:0:
64,192,60960,1,0,0:0:0:0:
320,192,61110,1,0,0:0:0:0:
448,192,61110,1,0,0:0:0:0:
320,192,61260,1,0,0:0:0:0:
448,192,61260,1,0,0:0:0:0:
320,192,61410,1,0,0:0:0:0:
64,192,61560,1,0,0:0:0:0:
192,192,61560,1,0,0:0:0:0:
320,192,61710,1,0,0:0:0:0:
448,192,61710,1,0,0:0:0:0:
320,192,61860,1,0,0:0:0:0:
64,192,62010,1,0,0:0:0:0:
448,192,62010,1,0,0:0:0:0:
192,192,62160,1,0,0:0:0:0:
320,192,62160,1,0,0:0:0:0:
64,192,62310,1,0,0:0:0:0:
448,192,62310,1,0,0:0:0:0:
320,192,62460,1,0,0:0:0:0:
448,192,62460,1,0,0:0:0:0:
192,192,62610,1,0,0:0:0:0:
64,192,62610,1,0,0:0:0:0:
320,192,62760,1,0,0:0:0:0:
64,192,62910,1,0,0:0:0:0:
448,192,62910,1,0,0:0:0:0:
192,192,63060,1,0,0:0:0:0:
320,192,63210,1,0,0:0:0:0:
448,192,63210,1,0,0:0:0:0:
192,192,63360,1,0,0:0:0:0:
64,192,63360,1,0,0:0:0:0:
320,192,63510,1,0,0:0:0:0:
448,192,63510,1,0,0:0:0:0:
320,192,63660,1,0,0:0:0:0:
448,192,63660,1,0,0:0:0:0:
320,192,63810,1,0,0:0:0:0:
192,192,63960,1,0,0:0:0:0:
64,192,63960,1,0,0:0:0:0:
320,192,64110,1,0,0:0:0:0:
448,192,64110,1,0,0:0:0:0:
320,192,64260,1,0,0:0:0:0:
64,192,64410,1,0,0:0:0:0:
448,192,64410,1,0,0:0:0:0:
192,192,64560,1,0,0:0:0:0:
320,192,64560,1,0,0:0:0:0:
64,192,64710,1,0,0:0:0:0:
448,192,64710,1,0,0:0:0:0:
320,192,64860,1,0,0:0:0:0:
448,192,64860,1,0,0:0:0:0:
192,192,65010,1,0,0:0:0:0:
64,192,65010,1,0,0:0:0:0:
320,192,65160,1,0,0:0:0:0:
64,192,65310,1,0,0:0:0:0:
448,192,65310,1,0,0:0:0:0:
192,192,65460,1,0,0:0:0:0:
320,192,65610,1,0,0:0:0:0:
448,192,65610,1,0,0:0:0:0:
192,192,65760,1,0,0:0:0:0:
64,192,65760,1,0,0:0:0:0:
320,192,65910,1,0,0:0:0:0:
448,192,65910,1,0,0:0:0:0:
320,192,66060,1,0,0:0:0:0:
448,192,66060,1,0,0:0:0:0:
320,192,66210,1,0,0:0:0:0:
192,192,66360,1,0,0:0:0:0:
64,192,66360,1,0,0:0:0:0:
320,192,66510,1,0,0:0:0:0:
448,192,66510,1,0,0:0:0:0:
320,192,66660,1,0,0:0:0:0:
64,192,66810,1,0,0:0:0:0:
448,192,66810,1,0,0:0:0:0:
192,192,66960,1,0,0:0:0:0:
320,192,66960,1,0,0:0:0:0:
64,192,67110,1,0,0:0:0:0:
448,192,67110,1,0,0:0:0:0:
320,192,67260,1,0,0:0:0:0:
448,192,67260,1,0,0:0:0:0:
192,192,67410,1,0,0:0:0:0:
64,192,67410,1,0,0:0:0:0:
320,192,67560,1,0,0:0:0:0:
64,192,67710,1,0,0:0:0:0:
448,192,67710,1,0,0:0:0:0:
192,192,67860,1,0,0:0:0:0:
320,192,68010,1,0,0:0:0:0:
448,192,68010,1,0,0:0:0:0:
192,192,68160,1,0,0:0:0:0:
64,192,68160,1,0,0:0:0:0:
320,192,68310,1,0,0:0:0:0:
448,192,68310,1,0,0:0:0:0:
320,192,68460,1,0,0:0:0:0:
448,192,68460,1,0,0:0:0:0:
64,192,68460,1,0,0:0:0:0:
320,192,68596,1,0,0:0:0:0:
192,192,68732,1,0,0:0:0:0:
64,192,68732,1,0,0:0:0:0:
320,192,68869,1,0,0:0:0:0:
448,192,68869,1,0,0:0:0:0:
320,192,69005,1,0,0:0:0:0:
64,192,69141,1,0,0:0:0:0:
448,192,69141,1,0,0:0:0:0:
192,192,69278,1,0,0:0:0:0:
320,192,69278,1,0,0:0:0:0:
64,192,69414,1,0,0:0:0:0:
448,192,69414,1,0,0:0:0:0:
320,192,69550,1,0,0:0:0:0:
448,192,69550,1,0,0:0:0:0:
192,192,69687,1,0,0:0:0:0:
64,192,69687,1,0,0:0:0:0:
320,192,69823,1,0,0:0:0:0:
64,192,69960,1,0,0:0:0:0:
448,192,69960,1,0,0:0:0:0:
192,192,70096,1,0,0:0:0:0:
320,192,70232,1,0,0:0:0:0:
448,192,70232,1,0,0:0:0:0:
192,192,70369,1,0,0:0:0:0:
64,192,70369,1,0,0:0:0:0:
320,192,70505,1,0,0:0:0:0:
448,192,70505,1,0,0:0:0:0:
320,192,70641,1,0,0:0:0:0:
448,192,70641,1,0,0:0:0:0:
64,192,70641,1,0,0:0:0:0:
320,192,70766,1,0,0:0:0:0:
192,192,70891,1,0,0:0:0:0:
64,192,70891,1,0,0:0:0:0:
320,192,71016,1,0,0:0:0:0:
448,192,71016,1,0,0:0:0:0:
320,192,71141,1,0,0:0:0:0:
64,192,71266,1,0,0:0:0:0:
448,192,71266,1,0,0:0:0:0:
192,192,71391,1,0,0:0:0:0:
320,192,71391,1,0,0:0:0:0:
64,192,71516,1,0,0:0:0:0:
448,192,71516,1,0,0:0:0:0:
320,192,71641,1,0,0:0:0:0:
448,192,71641,1,0,0:0:0:0:
192,192,71766,1,0,0:0:0:0:
64,192,71766,1,0,0:0:0:0:
320,192,71891,1,0,0:0:0:0:
64,192,72016,1,0,0:0:0:0:
448,192,72016,1,0,0:0:0:0:
192,192,72141,1,0,0:0:0:0:
320,192,72266,1,0,0:0:0:0:
448,192,72266,1,0,0:0:0:0:
192,192,72391,1,0,0:0:0:0:
64,192,72391,1,0,0:0:0:0:
320,192,72516,1,0,0:0:0:0:
448,192,72516,1,0,0:0:0:0:
320,192,72641,1,0,0:0:0:0:
448,192,72641,1,0,0:0:0:0:
64,192,72641,1,0,0:0:0:0:
320,192,72756,1,0,0:0:0:0:
192,192,72871,1,0,0:0:0:0:
64,192,72871,1,0,0:0:0:0:
320,192,72987,1,0,0:0:0:0:
448,192,72987,1,0,0:0:0:0:
320,192,73102,1,0,0:0:0:0:
64,192,73217,1,0,0:0:0:0:
448,192,73217,1,0,0:0:0:0:
192,192,73333,1,0,0:0:0:0:
320,192,73333,1,0,0:0:0:0:
64,192,73448,1,0,0:0:0:0:
448,192,73448,1,0,0:0:0:0:
320,192,73564,1,0,0:0:0:0:
448,192,73564,1,0,0:0:0:0:
192,192,73679,1,0,0:0:0:0:
64,192,73679,1,0,0:0:0:0:
320,192,73794,1,0,0:0:0:0:
64,192,73910,1,0,0:0:0:0:
448,192,73910,1,0,0:0:0:0:
192,192,74025,1,0,0:0:0:0:
320,192,74141,1,0,0:0:0:0:
448,192,74141,1,0,0:0:0:0:
192,192,74256,1,0,0:0:0:0:
64,192,74256,1,0,0:0:0:0:
320,192,74371,1,0,0:0:0:0:
448,192,74371,1,0,0:0:0:0:
320,192,74487,1,0,0:0:0:0:
448,192,74487,1,0,0:0:0:0:
64,192,74487,1,0,0:0:0:0:
320,192,74594,1,0,0:0:0:0:
192,192,74701,1,0,0:0:0:0:
64,192,74701,1,0,0:0:0:0:
320,192,74808,1,0,0:0:0:0:
448,192,74808,1,0,0:0:0:0:
320,192,74915,1,0,0:0:0:0:
64,192,75022,1,0,0:0:0:0:
448,192,75022,1,0,0:0:0:0:
192,192,75129,1,0,0:0:0:0:
320,192,75129,1,0,0:0:0:0:
64,192,75237,1,0,0:0:0:0:
448,192,75237,1,0,0:0:0:0:
320,192,75344,1,0,0:0:0:0:
448,192,75344,1,0,0:0:0:0:
192,192,75451,1,0,0:0:0:0:
64,192,75451,1,0,0:0:0:0:
320,192,75558,1,0,0:0:0:0:
64,192,75665,1,0,0:0:0:0:
448,192,75665,1,0,0:0:0:0:
192,192,75772,1,0,0:0:0:0:
320,192,75879,1,0,0:0:0:0:
448,192,75879,1,0,0:0:0:0:
192,192,75987,1,0,0:0:0:0:
64,192,75987,1,0,0:0:0:0:
320,192,76094,1,0,0:0:0:0:
448,192,76094,1,0,0:0:0:0:
64,192,76201,1,0,0:0:0:0:
320,192,76201,1,0,0:0:0:0:
448,192,76201,1,0,0:0:0:0:
320,192,76301,1,0,0:0:0:0:
64,192,76401,1,0,0:0:0:0:
448,192,76401,1,0,0:0:0:0:
192,192,76501,1,0,0:0:0:0:
320,192,76501,1,0,0:0:0:0:
192,192,76601,1,0,0:0:0:0:
320,192,76701,1,0,0:0:0:0:
448,192,76701,1,0,0:0:0:0:
192,192,76801,1,0,0:0:0:0:
64,192,76801,1,0,0:0:0:0:
320,192,76901,1,0,0:0:0:0:
448,192,76901,1,0,0:0:0:0:
64,192,77001,1,0,0:0:0:0:
448,192,77001,1,0,0:0:0:0:
192,192,77001,1,0,0:0:0:0:
192,192,77101,1,0,0:0:0:0:
64,192,77201,1,0,0:0:0:0:
448,192,77201,1,0,0:0:0:0:
320,192,77301,1,0,0:0:0:0:
192,192,77301,1,0,0:0:0:0:
320,192,77401,1,0,0:0:0:0:
64,192,77501,1,0,0:0:0:0:
192,192,77501,1,0,0:0:0:0:
320,192,77601,1,0,0:0:0:0:
448,192,77601,1,0,0:0:0:0:
64,192,77701,1,0,0:0:0:0:
192,192,77701,1,0,0:0:0:0:
320,192,77801,1,0,0:0:0:0:
448,192,77801,1,0,0:0:0:0:
64,192,77801,1,0,0:0:0:0:
320,192,77894,1,0,0:0:0:0:
64,192,77988,1,0,0:0:0:0:
448,192,77988,1,0,0:0:0:0:
192,192,78082,1,0,0:0:0:0:
320,192,78082,1,0,0:0:0:0:
192,192,78176,1,0,0:0:0:0:
448,192,78269,1,0,0:0:0:0:
320,192,78269,1,0,0:0:0:0:
192,192,78363,1,0,0:0:0:0:
64,192,78363,1,0,0:0:0:0:
320,192,78457,1,0,0:0:0:0:
448,192,78457,1,0,0:0:0:0:
64,192,78551,1,0,0:0:0:0:
192,192,78551,1,0,0:0:0:0:
448,192,78551,1,0,0:0:0:0:
192,192,78644,1,0,0:0:0:0:
64,192,78738,1,0,0:0:0:0:
448,192,78738,1,0,0:0:0:0:
192,192,78832,1,0,0:0:0:0:
320,192,78832,1,0,0:0:0:0:
320,192,78926,1,0,0:0:0:0:
64,192,79019,1,0,0:0:0:0:
192,192,79019,1,0,0:0:0:0:
320,192,79113,1,0,0:0:0:0:
448,192,79113,1,0,0:0:0:0:
192,192,79207,1,0,0:0:0:0:
64,192,79207,1,0,0:0:0:0:
64,192,79301,1,0,0:0:0:0:
320,192,79301,1,0,0:0:0:0:
448,192,79301,1,0,0:0:0:0:
320,192,79389,1,0,0:0:0:0:
192,192,79477,1,0,0:0:0:0:
64,192,79477,1,0,0:0:0:0:
448,192,79477,1,0,0:0:0:0:
192,192,79565,1,0,0:0:0:0:
320,192,79653,1,0,0:0:0:0:
64,192,79742,1,0,0:0:0:0:
192,192,79830,1,0,0:0:0:0:
320,192,79830,1,0,0:0:0:0:
448,192,79830,1,0,0:0:0:0:
192,192,79918,1,0,0:0:0:0:
64,192,80006,1,0,0:0:0:0:
320,192,80006,1,0,0:0:0:0:
448,192,80006,1,0,0:0:0:0:
320,192,80095,1,0,0:0:0:0:
192,192,80183,1,0,0:0:0:0:
64,192,80183,1,0,0:0:0:0:
448,192,80183,1,0,0:0:0:0:
192,192,80271,1,0,0:0:0:0:
320,192,80359,1,0,0:0:0:0:
64,192,80448,1,0,0:0:0:0:
192,192,80536,1,0,0:0:0:0:
320,192,80536,1,0,0:0:0:0:
448,192,80536,1,0,0:0:0:0:
192,192,80624,1,0,0:0:0:0:
320,192,80712,1,0,0:0:0:0:
448,192,80712,1,0,0:0:0:0:
64,192,80712,1,0,0:0:0:0:
64,192,80878,1,0,0:0:0:0:
448,192,80878,1,0,0:0:0:0:
320,192,80962,1,0,0:0:0:0:
64,192,81045,1,0,0:0:0:0:
448,192,81045,1,0,0:0:0:0:
192,192,81045,1,0,0:0:0:0:
320,192,81128,1,0,0:0:0:0:
64,192,81212,1,0,0:0:0:0:
192,192,81212,1,0,0:0:0:0:
320,192,81295,1,0,0:0:0:0:
448,192,81295,1,0,0:0:0:0:
64,192,81378,1,0,0:0:0:0:
448,192,81378,1,0,0:0:0:0:
192,192,81378,1,0,0:0:0:0:
448,192,81545,1,0,0:0:0:0:
64,192,81545,1,0,0:0:0:0:
320,192,81628,1,0,0:0:0:0:
64,192,81712,1,0,0:0:0:0:
448,192,81712,1,0,0:0:0:0:
192,192,81712,1,0,0:0:0:0:
320,192,81795,1,0,0:0:0:0:
192,192,81878,1,0,0:0:0:0:
64,192,81878,1,0,0:0:0:0:
320,192,81962,1,0,0:0:0:0:
448,192,81962,1,0,0:0:0:0:
64,192,82045,1,0,0:0:0:0:
192,192,82045,1,0,0:0:0:0:
448,192,82045,1,0,0:0:0:0:
320,192,82202,1,0,0:0:0:0:
448,192,82202,1,0,0:0:0:0:
64,192,82202,1,0,0:0:0:0:
192,192,82281,1,0,0:0:0:0:
320,192,82360,1,0,0:0:0:0:
64,192,82360,1,0,0:0:0:0:
448,192,82360,1,0,0:0:0:0:
64,192,82518,1,0,0:0:0:0:
448,192,82518,1,0,0:0:0:0:
192,192,82518,1,0,0:0:0:0:
320,192,82597,1,0,0:0:0:0:
64,192,82676,1,0,0:0:0:0:
448,192,82676,1,0,0:0:0:0:
192,192,82676,1,0,0:0:0:0:
320,192,82834,1,0,0:0:0:0:
448,192,82834,1,0,0:0:0:0:
64,192,82834,1,0,0:0:0:0:
192,192,82913,1,0,0:0:0:0:
320,192,82992,1,0,0:0:0:0:
64,192,82992,1,0,0:0:0:0:
448,192,82992,1,0,0:0:0:0:
192,192,83150,1,0,0:0:0:0:
448,192,83150,1,0,0:0:0:0:
64,192,83150,1,0,0:0:0:0:
320,192,83229,1,0,0:0:0:0:
64,192,83308,1,0,0:0:0:0:
192,192,83308,1,0,0:0:0:0:
320,192,83383,1,0,0:0:0:0:
448,192,83383,1,0,0:0:0:0:
64,192,83458,1,0,0:0:0:0:
192,192,83458,1,0,0:0:0:0:
320,192,83533,1,0,0:0:0:0:
448,192,83533,1,0,0:0:0:0:
64,192,83608,1,0,0:0:0:0:
192,192,83608,1,0,0:0:0:0:
320,192,83683,1,0,0:0:0:0:
448,192,83683,1,0,0:0:0:0:
64,192,83758,1,0,0:0:0:0:
192,192,83758,1,0,0:0:0:0:
320,192,83833,1,0,0:0:0:0:
448,192,83833,1,0,0:0:0:0:
192,192,83908,1,0,0:0:0:0:
64,192,83908,1,0,0:0:0:0:
320,192,83983,1,0,0:0:0:0:
448,192,83983,1,0,0:0:0:0:
192,192,84058,1,0,0:0:0:0:
64,192,84058,1,0,0:0:0:0:
320,192,84133,1,0,0:0:0:0:
448,192,84133,1,0,0:0:0:0:
192,192,84208,1,0,0:0:0:0:
64,192,84208,1,0,0:0:0:0:
320,192,84283,1,0,0:0:0:0:
448,192,84283,1,0,0:0:0:0:
192,192,84358,1,0,0:0:0:0:
64,192,84358,1,0,0:0:0:0:
320,192,84433,1,0,0:0:0:0:
448,192,84433,1,0,0:0:0:0:
64,192,84508,1,0,0:0:0:0:
192,192,84558,1,0,0:0:0:0:
320,192,84608,1,0,0:0:0:0:
448,192,84658,1,0,0:0:0:0:
192,192,84708,1,0,0:0:0:0:
448,192,84758,1,0,0:0:0:0:
64,192,84808,1,0,0:0:0:0:
192,192,84858,1,0,0:0:0:0:
320,192,84908,1,0,0:0:0:0:
448,192,84958,1,0,0:0:0:0:
192,192,85008,1,0,0:0:0:0:
448,192,85058,1,0,0:0:0:0:
64,192,85108,1,0,0:0:0:0:
192,192,85158,1,0,0:0:0:0:
320,192,85208,1,0,0:0:0:0:
448,192,85258,1,0,0:0:0:0:
192,192,85308,1,0,0:0:0:0:
448,192,85358,1,0,0:0:0:0:
64,192,85408,1,0,0:0:0:0:
192,192,85458,1,0,0:0:0:0:
320,192,85508,1,0,0:0:0:0:
448,192,85558,1,0,0:0:0:0:
192,192,85608,1,0,0:0:0:0:
448,192,85658,1,0,0:0:0:0:
64,192,85708,1,0,0:0:0:0:
320,192,85708,1,0,0:0:0:0:
192,192,85708,1,0,0:0:0:0:
448,192,85783,1,0,0:0:0:0:
320,192,85858,1,0,0:0:0:0:
192,192,85933,1,0,0:0:0:0:
64,192,86008,1,0,0:0:0:0:
448,192,86008,1,0,0:0:0:0:
320,192,86008,1,0,0:0:0:0:
192,192,86083,1,0,0:0:0:0:
64,192,86158,1,0,0:0:0:0:
320,192,86233,1,0,0:0:0:0:
192,192,86308,1,0,0:0:0:0:
448,192,86383,1,0,0:0:0:0:
320,192,86458,1,0,0:0:0:0:
64,192,86458,1,0,0:0:0:0:
192,192,86533,1,0,0:0:0:0:
64,192,86608,1,0,0:0:0:0:
448,192,86608,1,0,0:0:0:0:
320,192,86608,1,0,0:0:0:0:
192,192,86683,1,0,0:0:0:0:
448,192,86758,1,0,0:0:0:0:
64,192,86758,1,0,0:0:0:0:
320,192,86833,1,0,0:0:0:0:
192,192,86908,1,0,0:0:0:0:
64,192,86908,1,0,0:0:0:0:
448,192,86983,1,0,0:0:0:0:
320,192,87058,1,0,0:0:0:0:
192,192,87133,1,0,0:0:0:0:
64,192,87208,1,0,0:0:0:0:
448,192,87208,1,0,0:0:0:0:
320,192,87208,1,0,0:0:0:0:
192,192,87283,1,0,0:0:0:0:
64,192,87358,1,0,0:0:0:0:
448,192,87433,1,0,0:0:0:0:
320,192,87508,1,0,0:0:0:0:
192,192,87583,1,0,0:0:0:0:
448,192,87658,1,0,0:0:0:0:
64,192,87658,1,0,0:0:0:0:
320,192,87733,1,0,0:0:0:0:
64,192,87808,1,0,0:0:0:0:
448,192,87808,1,0,0:0:0:0:
192,192,87808,1,0,0:0:0:0:
320,192,87883,1,0,0:0:0:0:
64,192,87958,1,0,0:0:0:0:
448,192,87958,1,0,0:0:0:0:
192,192,88033,1,0,0:0:0:0:
320,192,88108,1,0,0:0:0:0:
448,192,88108,1,0,0:0:0:0:
192,192,88183,1,0,0:0:0:0:
320,192,88258,1,0,0:0:0:0:
64,192,88258,1,0,0:0:0:0:
192,192,88333,1,0,0:0:0:0:
64,192,88408,1,0,0:0:0:0:
448,192,88408,1,0,0:0:0:0:
320,192,88408,1,0,0:0:0:0:
192,192,88483,1,0,0:0:0:0:
64,192,88558,1,0,0:0:0:0:
448,192,88558,1,0,0:0:0:0:
320,192,88633,1,0,0:0:0:0:
192,192,88708,1,0,0:0:0:0:
64,192,88708,1,0,0:0:0:0:
320,192,88783,1,0,0:0:0:0:
192,192,88858,1,0,0:0:0:0:
448,192,88858,1,0,0:0:0:0:
320,192,88933,1,0,0:0:0:0:
64,192,89008,1,0,0:0:0:0:
192,192,89008,1,0,0:0:0:0:
448,192,89008,1,0,0:0:0:0:
320,192,89083,1,0,0:0:0:0:
64,192,89158,1,0,0:0:0:0:
448,192,89158,1,0,0:0:0:0:
192,192,89233,1,0,0:0:0:0:
320,192,89308,1,0,0:0:0:0:
448,192,89308,1,0,0:0:0:0:
192,192,89383,1,0,0:0:0:0:
64,192,89458,1,0,0:0:0:0:
320,192,89533,1,0,0:0:0:0:
64,192,89608,1,0,0:0:0:0:
448,192,89608,1,0,0:0:0:0:
192,192,89608,1,0,0:0:0:0:
320,192,89683,1,0,0:0:0:0:
64,192,89758,1,0,0:0:0:0:
448,192,89758,1,0,0:0:0:0:
192,192,89758,1,0,0:0:0:0:
320,192,89833,1,0,0:0:0:0:
64,192,89908,1,0,0:0:0:0:
192,192,89983,1,0,0:0:0:0:
320,192,90058,1,0,0:0:0:0:
448,192,90058,1,0,0:0:0:0:
192,192,90133,1,0,0:0:0:0:
64,192,90208,1,0,0:0:0:0:
320,192,90208,1,0,0:0:0:0:
448,192,90208,1,0,0:0:0:0:
192,192,90283,1,0,0:0:0:0:
64,192,90358,1,0,0:0:0:0:
448,192,90358,1,0,0:0:0:0:
320,192,90433,1,0,0:0:0:0:
192,192,90508,1,0,0:0:0:0:
64,192,90508,1,0,0:0:0:0:
320,192,90583,1,0,0:0:0:0:
448,192,90658,1,0,0:0:0:0:
192,192,90733,1,0,0:0:0:0:
64,192,90808,1,0,0:0:0:0:
320,192,90808,1,0,0:0:0:0:
448,192,90808,1,0,0:0:0:0:
192,192,90883,1,0,0:0:0:0:
320,192,90958,1,0,0:0:0:0:
448,192,91033,1,0,0:0:0:0:
64,192,91108,1,0,0:0:0:0:
192,192,91183,1,0,0:0:0:0:
320,192,91258,1,0,0:0:0:0:
64,192,91258,1,0,0:0:0:0:
192,192,91333,1,0,0:0:0:0:
64,192,91408,1,0,0:0:0:0:
320,192,91408,1,0,0:0:0:0:
448,192,91408,1,0,0:0:0:0:
192,192,91483,1,0,0:0:0:0:
320,192,91558,1,0,0:0:0:0:
448,192,91558,1,0,0:0:0:0:
64,192,91633,1,0,0:0:0:0:
192,192,91708,1,0,0:0:0:0:
320,192,91783,1,0,0:0:0:0:
448,192,91858,1,0,0:0:0:0:
192,192,91933,1,0,0:0:0:0:
64,192,92008,1,0,0:0:0:0:
320,192,92008,1,0,0:0:0:0:
448,192,92008,1,0,0:0:0:0:
192,192,92083,1,0,0:0:0:0:
64,192,92158,1,0,0:0:0:0:
320,192,92233,1,0,0:0:0:0:
192,192,92308,1,0,0:0:0:0:
448,192,92383,1,0,0:0:0:0:
320,192,92458,1,0,0:0:0:0:
64,192,92458,1,0,0:0:0:0:
192,192,92533,1,0,0:0:0:0:
64,192,92608,1,0,0:0:0:0:
320,192,92608,1,0,0:0:0:0:
448,192,92608,1,0,0:0:0:0:
192,192,92683,1,0,0:0:0:0:
320,192,92758,1,0,0:0:0:0:
448,192,92758,1,0,0:0:0:0:
64,192,92833,1,0,0:0:0:0:
448,192,92908,1,0,0:0:0:0:
320,192,92908,1,0,0:0:0:0:
192,192,92983,1,0,0:0:0:0:
64,192,93058,1,0,0:0:0:0:
448,192,93058,1,0,0:0:0:0:
320,192,93133,1,0,0:0:0:0:
448,192,93208,1,0,0:0:0:0:
192,192,93208,1,0,0:0:0:0:
64,192,93208,1,0,0:0:0:0:
320,192,93283,1,0,0:0:0:0:
192,192,93358,1,0,0:0:0:0:
64,192,93358,1,0,0:0:0:0:
320,192,93433,1,0,0:0:0:0:
64,192,93508,1,0,0:0:0:0:
448,192,93508,1,0,0:0:0:0:
192,192,93583,1,0,0:0:0:0:
320,192,93658,1,0,0:0:0:0:
448,192,93658,1,0,0:0:0:0:
192,192,93733,1,0,0:0:0:0:
64,192,93808,1,0,0:0:0:0:
320,192,93808,1,0,0:0:0:0:
448,192,93808,1,0,0:0:0:0:
192,192,93883,1,0,0:0:0:0:
64,192,93958,1,0,0:0:0:0:
448,192,93958,1,0,0:0:0:0:
320,192,94033,1,0,0:0:0:0:
192,192,94108,1,0,0:0:0:0:
64,192,94183,1,0,0:0:0:0:
320,192,94258,1,0,0:0:0:0:
192,192,94333,1,0,0:0:0:0:
64,192,94408,1,0,0:0:0:0:
320,192,94408,1,0,0:0:0:0:
448,192,94408,1,0,0:0:0:0:
192,192,94483,1,0,0:0:0:0:
64,192,94558,1,0,0:0:0:0:
320,192,94558,1,0,0:0:0:0:
448,192,94558,1,0,0:0:0:0:
192,192,94633,1,0,0:0:0:0:
320,192,94708,1,0,0:0:0:0:
448,192,94783,1,0,0:0:0:0:
64,192,94858,1,0,0:0:0:0:
192,192,94858,1,0,0:0:0:0:
320,192,94933,1,0,0:0:0:0:
192,192,95008,1,0,0:0:0:0:
64,192,95008,1,0,0:0:0:0:
448,192,95008,1,0,0:0:0:0:
320,192,95083,1,0,0:0:0:0:
64,192,95158,1,0,0:0:0:0:
448,192,95158,1,0,0:0:0:0:
192,192,95233,1,0,0:0:0:0:
320,192,95308,1,0,0:0:0:0:
448,192,95308,1,0,0:0:0:0:
64,192,95308,1,0,0:0:0:0:
192,192,95383,1,0,0:0:0:0:
320,192,95458,1,0,0:0:0:0:
64,192,95533,1,0,0:0:0:0:
192,192,95608,1,0,0:0:0:0:
320,192,95608,1,0,0:0:0:0:
448,192,95608,1,0,0:0:0:0:
64,192,95683,1,0,0:0:0:0:
448,192,95758,1,0,0:0:0:0:
192,192,95758,1,0,0:0:0:0:
320,192,95833,1,0,0:0:0:0:
64,192,95833,1,0,0:0:0:0:
192,192,95908,1,0,0:0:0:0:
448,192,95908,1,0,0:0:0:0:
320,192,95983,1,0,0:0:0:0:
64,192,96058,1,0,0:0:0:0:
192,192,96058,1,0,0:0:0:0:
448,192,96133,1,0,0:0:0:0:
320,192,96208,1,0,0:0:0:0:
192,192,96208,1,0,0:0:0:0:
64,192,96208,1,0,0:0:0:0:
448,192,96283,1,0,0:0:0:0:
320,192,96358,1,0,0:0:0:0:
192,192,96358,1,0,0:0:0:0:
64,192,96433,1,0,0:0:0:0:
448,192,96508,1,0,0:0:0:0:
320,192,96508,1,0,0:0:0:0:
192,192,96583,1,0,0:0:0:0:
320,192,96658,1,0,0:0:0:0:
64,192,96733,1,0,0:0:0:0:
320,192,96808,1,0,0:0:0:0:
448,192,96808,1,0,0:0:0:0:
192,192,96808,1,0,0:0:0:0:
64,192,96883,1,0,0:0:0:0:
448,192,96958,1,0,0:0:0:0:
192,192,96958,1,0,0:0:0:0:
320,192,97033,1,0,0:0:0:0:
64,192,97033,1,0,0:0:0:0:
448,192,97108,1,0,0:0:0:0:
192,192,97108,1,0,0:0:0:0:
320,192,97183,1,0,0:0:0:0:
192,192,97258,1,0,0:0:0:0:
64,192,97258,1,0,0:0:0:0:
448,192,97333,1,0,0:0:0:0:
320,192,97408,1,0,0:0:0:0:
192,192,97408,1,0,0:0:0:0:
64,192,97408,1,0,0:0:0:0:
448,192,97483,1,0,0:0:0:0:
320,192,97558,1,0,0:0:0:0:
192,192,97558,1,0,0:0:0:0:
64,192,97633,1,0,0:0:0:0:
320,192,97708,1,0,0:0:0:0:
448,192,97708,1,0,0:0:0:0:
192,192,97783,1,0,0:0:0:0:
320,192,97858,1,0,0:0:0:0:
448,192,97858,1,0,0:0:0:0:
64,192,97933,1,0,0:0:0:0:
192,192,98008,1,0,0:0:0:0:
320,192,98008,1,0,0:0:0:0:
448,192,98008,1,0,0:0:0:0:
64,192,98083,1,0,0:0:0:0:
192,192,98158,1,0,0:0:0:0:
448,192,98158,1,0,0:0:0:0:
320,192,98233,1,0,0:0:0:0:
64,192,98233,1,0,0:0:0:0:
192,192,98308,1,0,0:0:0:0:
448,192,98308,1,0,0:0:0:0:
320,192,98383,1,0,0:0:0:0:
64,192,98458,1,0,0:0:0:0:
192,192,98458,1,0,0:0:0:0:
448,192,98533,1,0,0:0:0:0:
64,192,98608,1,0,0:0:0:0:
320,192,98608,1,0,0:0:0:0:
192,192,98608,1,0,0:0:0:0:
448,192,98683,1,0,0:0:0:0:
320,192,98758,1,0,0:0:0:0:
192,192,98758,1,0,0:0:0:0:
64,192,98833,1,0,0:0:0:0:
320,192,98908,1,0,0:0:0:0:
448,192,98908,1,0,0:0:0:0:
192,192,98983,1,0,0:0:0:0:
448,192,99058,1,0,0:0:0:0:
64,192,99133,1,0,0:0:0:0:
192,192,99208,1,0,0:0:0:0:
320,192,99208,1,0,0:0:0:0:
448,192,99208,1,0,0:0:0:0:
64,192,99283,1,0,0:0:0:0:
192,192,99358,1,0,0:0:0:0:
320,192,99358,1,0,0:0:0:0:
448,192,99358,1,0,0:0:0:0:
64,192,99433,1,0,0:0:0:0:
448,192,99508,1,0,0:0:0:0:
320,192,99508,1,0,0:0:0:0:
192,192,99583,1,0,0:0:0:0:
64,192,99658,1,0,0:0:0:0:
320,192,99658,1,0,0:0:0:0:
448,192,99733,1,0,0:0:0:0:
192,192,99808,1,0,0:0:0:0:
64,192,99808,1,0,0:0:0:0:
320,192,99808,1,0,0:0:0:0:
448,192,99883,1,0,0:0:0:0:
192,192,99958,1,0,0:0:0:0:
64,192,99958,1,0,0:0:0:0:
320,192,100033,1,0,0:0:0:0:
192,192,100108,1,0,0:0:0:0:
64,192,100108,1,0,0:0:0:0:
448,192,100108,1,0,0:0:0:0:
320,192,100183,1,0,0:0:0:0:
192,192,100258,1,0,0:0:0:0:
448,192,100333,1,0,0:0:0:0:
320,192,100408,1,0,0:0:0:0:
192,192,100408,1,0,0:0:0:0:
64,192,100408,1,0,0:0:0:0:
448,192,100483,1,0,0:0:0:0:
64,192,100558,1,0,0:0:0:0:
320,192,100558,1,0,0:0:0:0:
192,192,100633,1,0,0:0:0:0:
448,192,100633,1,0,0:0:0:0:
320,192,100708,1,0,0:0:0:0:
64,192,100708,1,0,0:0:0:0:
192,192,100783,1,0,0:0:0:0:
448,192,100858,1,0,0:0:0:0:
320,192,100858,1,0,0:0:0:0:
64,192,100933,1,0,0:0:0:0:
192,192,101008,1,0,0:0:0:0:
320,192,101008,1,0,0:0:0:0:
448,192,101008,1,0,0:0:0:0:
64,192,101083,1,0,0:0:0:0:
192,192,101158,1,0,0:0:0:0:
320,192,101158,1,0,0:0:0:0:
448,192,101233,1,0,0:0:0:0:
64,192,101308,1,0,0:0:0:0:
192,192,101308,1,0,0:0:0:0:
320,192,101383,1,0,0:0:0:0:
192,192,101458,1,0,0:0:0:0:
448,192,101533,1,0,0:0:0:0:
192,192,101608,1,0,0:0:0:0:
64,192,101608,1,0,0:0:0:0:
320,192,101608,1,0,0:0:0:0:
448,192,101683,1,0,0:0:0:0:
64,192,101758,1,0,0:0:0:0:
320,192,101758,1,0,0:0:0:0:
192,192,101833,1,0,0:0:0:0:
448,192,101833,1,0,0:0:0:0:
64,192,101908,1,0,0:0:0:0:
320,192,101908,1,0,0:0:0:0:
192,192,101983,1,0,0:0:0:0:
320,192,102058,1,0,0:0:0:0:
448,192,102058,1,0,0:0:0:0:
64,192,102133,1,0,0:0:0:0:
192,192,102208,1,0,0:0:0:0:
320,192,102208,1,0,0:0:0:0:
448,192,102208,1,0,0:0:0:0:
64,192,102283,1,0,0:0:0:0:
192,192,102358,1,0,0:0:0:0:
320,192,102358,1,0,0:0:0:0:
448,192,102433,1,0,0:0:0:0:
192,192,102508,1,0,0:0:0:0:
64,192,102508,1,0,0:0:0:0:
320,192,102583,1,0,0:0:0:0:
192,192,102658,1,0,0:0:0:0:
64,192,102658,1,0,0:0:0:0:
448,192,102733,1,0,0:0:0:0:
320,192,102808,1,0,0:0:0:0:
192,192,102808,1,0,0:0:0:0:
64,192,102808,1,0,0:0:0:0:
448,192,102883,1,0,0:0:0:0:
320,192,102958,1,0,0:0:0:0:
64,192,102958,1,0,0:0:0:0:
192,192,103033,1,0,0:0:0:0:
448,192,103033,1,0,0:0:0:0:
320,192,103108,1,0,0:0:0:0:
64,192,103108,1,0,0:0:0:0:
192,192,103183,1,0,0:0:0:0:
448,192,103258,1,0,0:0:0:0:
320,192,103258,1,0,0:0:0:0:
64,192,103333,1,0,0:0:0:0:
448,192,103408,1,0,0:0:0:0:
192,192,103408,1,0,0:0:0:0:
320,192,103408,1,0,0:0:0:0:
64,192,103483,1,0,0:0:0:0:
192,192,103558,1,0,0:0:0:0:
320,192,103558,1,0,0:0:0:0:
448,192,103633,1,0,0:0:0:0:
192,192,103708,1,0,0:0:0:0:
64,192,103708,1,0,0:0:0:0:
320,192,103783,1,0,0:0:0:0:
64,192,103858,1,0,0:0:0:0:
192,192,103858,1,0,0:0:0:0:
448,192,103933,1,0,0:0:0:0:
320,192,104008,1,0,0:0:0:0:
192,192,104008,1,0,0:0:0:0:
64,192,104008,1,0,0:0:0:0:
448,192,104083,1,0,0:0:0:0:
320,192,104158,1,0,0:0:0:0:
192,192,104158,1,0,0:0:0:0:
64,192,104158,1,0,0:0:0:0:
448,192,104233,1,0,0:0:0:0:
64,192,104308,1,0,0:0:0:0:
192,192,104308,1,0,0:0:0:0:
320,192,104383,1,0,0:0:0:0:
448,192,104458,1,0,0:0:0:0:
192,192,104458,1,0,0:0:0:0:
64,192,104533,1,0,0:0:0:0:
320,192,104608,1,0,0:0:0:0:
448,192,104608,1,0,0:0:0:0:
192,192,104608,1,0,0:0:0:0:
64,192,104683,1,0,0:0:0:0:
320,192,104758,1,0,0:0:0:0:
448,192,104758,1,0,0:0:0:0:
192,192,104833,1,0,0:0:0:0:
448,192,104908,1,0,0:0:0:0:
64,192,104908,1,0,0:0:0:0:
320,192,104908,1,0,0:0:0:0:
192,192,104983,1,0,0:0:0:0:
64,192,105058,1,0,0:0:0:0:
448,192,105058,1,0,0:0:0:0:
320,192,105133,1,0,0:0:0:0:
192,192,105208,1,0,0:0:0:0:
64,192,105208,1,0,0:0:0:0:
448,192,105208,1,0,0:0:0:0:
320,192,105283,1,0,0:0:0:0:
192,192,105358,1,0,0:0:0:0:
64,192,105358,1,0,0:0:0:0:
448,192,105433,1,0,0:0:0:0:
320,192,105508,1,0,0:0:0:0:
192,192,105508,1,0,0:0:0:0:
64,192,105583,1,0,0:0:0:0:
320,192,105658,1,0,0:0:0:0:
448,192,105658,1,0,0:0:0:0:
192,192,105733,1,0,0:0:0:0:
64,192,105808,1,0,0:0:0:0:
320,192,105808,1,0,0:0:0:0:
448,192,105808,1,0,0:0:0:0:
192,192,105883,1,0,0:0:0:0:
64,192,105958,1,0,0:0:0:0:
448,192,105958,1,0,0:0:0:0:
320,192,106033,1,0,0:0:0:0:
64,192,106108,1,0,0:0:0:0:
192,192,106108,1,0,0:0:0:0:
320,192,106183,1,0,0:0:0:0:
448,192,106258,1,0,0:0:0:0:
64,192,106258,1,0,0:0:0:0:
192,192,106333,1,0,0:0:0:0:
320,192,106408,1,0,0:0:0:0:
448,192,106408,1,0,0:0:0:0:
64,192,106408,1,0,0:0:0:0:
192,192,106483,1,0,0:0:0:0:
320,192,106558,1,0,0:0:0:0:
448,192,106558,1,0,0:0:0:0:
64,192,106633,1,0,0:0:0:0:
192,192,106708,1,0,0:0:0:0:
320,192,106708,1,0,0:0:0:0:
448,192,106783,1,0,0:0:0:0:
192,192,106858,1,0,0:0:0:0:
64,192,106858,1,0,0:0:0:0:
320,192,106933,1,0,0:0:0:0:
448,192,107008,1,0,0:0:0:0:
192,192,107008,1,0,0:0:0:0:
64,192,107008,1,0,0:0:0:0:
320,192,107083,1,0,0:0:0:0:
448,192,107158,1,0,0:0:0:0:
64,192,107158,1,0,0:0:0:0:
192,192,107233,1,0,0:0:0:0:
320,192,107308,1,0,0:0:0:0:
448,192,107308,1,0,0:0:0:0:
64,192,107383,1,0,0:0:0:0:
192,192,107458,1,0,0:0:0:0:
448,192,107458,1,0,0:0:0:0:
320,192,107533,1,0,0:0:0:0:
192,192,107608,1,0,0:0:0:0:
64,192,107608,1,0,0:0:0:0:
448,192,107608,1,0,0:0:0:0:
320,192,107683,1,0,0:0:0:0:
448,192,107758,1,0,0:0:0:0:
64,192,107758,1,0,0:0:0:0:
192,192,107833,1,0,0:0:0:0:
320,192,107908,1,0,0:0:0:0:
64,192,107908,1,0,0:0:0:0:
448,192,107983,1,0,0:0:0:0:
192,192,108058,1,0,0:0:0:0:
64,192,108058,1,0,0:0:0:0:
320,192,108133,1,0,0:0:0:0:
192,192,108208,1,0,0:0:0:0:
64,192,108208,1,0,0:0:0:0:
448,192,108208,1,0,0:0:0:0:
320,192,108283,1,0,0:0:0:0:
448,192,108358,1,0,0:0:0:0:
64,192,108358,1,0,0:0:0:0:
192,192,108433,1,0,0:0:0:0:
320,192,108508,1,0,0:0:0:0:
448,192,108508,1,0,0:0:0:0:
64,192,108583,1,0,0:0:0:0:
192,192,108658,1,0,0:0:0:0:
448,192,108658,1,0,0:0:0:0:
320,192,108733,1,0,0:0:0:0:
64,192,108808,1,0,0:0:0:0:
192,192,108808,1,0,0:0:0:0:
448,192,108808,1,0,0:0:0:0:
320,192,108883,1,0,0:0:0:0:
64,192,108958,1,0,0:0:0:0:
448,192,108958,1,0,0:0:0:0:
192,192,108958,1,0,0:0:0:0:
320,192,109033,1,0,0:0:0:0:
64,192,109108,1,0,0:0:0:0:
448,192,109108,1,0,0:0:0:0:
192,192,109183,1,0,0:0:0:0:
320,192,109183,1,0,0:0:0:0:
64,192,109258,1,0,0:0:0:0:
448,192,109258,1,0,0:0:0:0:
192,192,109333,1,0,0:0:0:0:
64,192,109408,1,0,0:0:0:0:
320,192,109408,1,0,0:0:0:0:
448,192,109408,1,0,0:0:0:0:
192,192,109483,1,0,0:0:0:0:
320,192,109558,1,0,0:0:0:0:
448,192,109558,1,0,0:0:0:0:
192,192,109633,1,0,0:0:0:0:
64,192,109708,1,0,0:0:0:0:
448,192,109708,1,0,0:0:0:0:
320,192,109783,1,0,0:0:0:0:
192,192,109858,1,0,0:0:0:0:
64,192,109858,1,0,0:0:0:0:
448,192,109933,1,0,0:0:0:0:
320,192,110008,1,0,0:0:0:0:
192,192,110008,1,0,0:0:0:0:
64,192,110008,1,0,0:0:0:0:
448,192,110083,1,0,0:0:0:0:
320,192,110158,1,0,0:0:0:0:
64,192,110158,1,0,0:0:0:0:
192,192,110233,1,0,0:0:0:0:
64,192,110308,1,0,0:0:0:0:
448,192,110308,1,0,0:0:0:0:
320,192,110383,1,0,0:0:0:0:
192,192,110458,1,0,0:0:0:0:
64,192,110458,1,0,0:0:0:0:
448,192,110533,1,0,0:0:0:0:
320,192,110608,1,0,0:0:0:0:
192,192,110608,1,0,0:0:0:0:
64,192,110608,1,0,0:0:0:0:
448,192,110683,1,0,0:0:0:0:
320,192,110758,1,0,0:0:0:0:
64,192,110758,1,0,0:0:0:0:
192,192,110833,1,0,0:0:0:0:
448,192,110908,1,0,0:0:0:0:
64,192,110908,1,0,0:0:0:0:
192,192,110983,1,0,0:0:0:0:
320,192,111058,1,0,0:0:0:0:
448,192,111058,1,0,0:0:0:0:
64,192,111133,1,0,0:0:0:0:
192,192,111208,1,0,0:0:0:0:
320,192,111208,1,0,0:0:0:0:
448,192,111208,1,0,0:0:0:0:
64,192,111283,1,0,0:0:0:0:
192,192,111358,1,0,0:0:0:0:
448,192,111358,1,0,0:0:0:0:
320,192,111433,1,0,0:0:0:0:
448,192,111508,1,0,0:0:0:0:
64,192,111508,1,0,0:0:0:0:
192,192,111583,1,0,0:0:0:0:
320,192,111658,1,0,0:0:0:0:
448,192,111658,1,0,0:0:0:0:
64,192,111733,1,0,0:0:0:0:
192,192,111808,1,0,0:0:0:0:
320,192,111808,1,0,0:0:0:0:
448,192,111808,1,0,0:0:0:0:
64,192,111883,1,0,0:0:0:0:
192,192,111958,1,0,0:0:0:0:
448,192,111958,1,0,0:0:0:0:
320,192,112033,1,0,0:0:0:0:
448,192,112108,1,0,0:0:0:0:
64,192,112108,1,0,0:0:0:0:
192,192,112183,1,0,0:0:0:0:
320,192,112258,1,0,0:0:0:0:
64,192,112258,1,0,0:0:0:0:
192,192,112333,1,0,0:0:0:0:
64,192,112408,1,0,0:0:0:0:
320,192,112408,1,0,0:0:0:0:
448,192,112408,1,0,0:0:0:0:
192,192,112483,1,0,0:0:0:0:
64,192,112558,1,0,0:0:0:0:
448,192,112558,1,0,0:0:0:0:
320,192,112633,1,0,0:0:0:0:
192,192,112708,1,0,0:0:0:0:
448,192,112708,1,0,0:0:0:0:
320,192,112783,1,0,0:0:0:0:
64,192,112858,1,0,0:0:0:0:
448,192,112858,1,0,0:0:0:0:
192,192,112933,1,0,0:0:0:0:
320,192,113008,1,0,0:0:0:0:
64,192,113008,1,0,0:0:0:0:
448,192,113008,1,0,0:0:0:0:
192,192,113083,1,0,0:0:0:0:
320,192,113158,1,0,0:0:0:0:
448,192,113158,1,0,0:0:0:0:
64,192,113233,1,0,0:0:0:0:
192,192,113308,1,0,0:0:0:0:
448,192,113308,1,0,0:0:0:0:
320,192,113383,1,0,0:0:0:0:
64,192,113458,1,0,0:0:0:0:
448,192,113458,1,0,0:0:0:0:
192,192,113533,1,0,0:0:0:0:
64,192,113608,1,0,0:0:0:0:
320,192,113608,1,0,0:0:0:0:
448,192,113608,1,0,0:0:0:0:
192,192,113683,1,0,0:0:0:0:
64,192,113758,1,0,0:0:0:0:
320,192,113758,1,0,0:0:0:0:
448,192,113758,1,0,0:0:0:0:
192,192,113833,1,0,0:0:0:0:
64,192,113908,1,0,0:0:0:0:
448,192,113908,1,0,0:0:0:0:
320,192,113983,1,0,0:0:0:0:
192,192,113983,1,0,0:0:0:0:
64,192,114058,1,0,0:0:0:0:
448,192,114058,1,0,0:0:0:0:
320,192,114133,1,0,0:0:0:0:
192,192,114208,1,0,0:0:0:0:
448,192,114208,1,0,0:0:0:0:
64,192,114283,1,0,0:0:0:0:
320,192,114283,1,0,0:0:0:0:
192,192,114358,1,0,0:0:0:0:
448,192,114358,1,0,0:0:0:0:
320,192,114433,1,0,0:0:0:0:
64,192,114508,1,0,0:0:0:0:
192,192,114508,1,0,0:0:0:0:
448,192,114508,1,0,0:0:0:0:
64,192,114808,1,0,0:0:0:0:
192,192,114958,1,0,0:0:0:0:
64,192,115258,1,0,0:0:0:0:
192,192,115408,1,0,0:0:0:0:
320,192,115558,1,0,0:0:0:0:
448,192,115708,1,0,0:0:0:0:
192,192,115708,1,0,0:0:0:0:
64,192,116008,1,0,0:0:0:0:
192,192,116158,1,0,0:0:0:0:
64,192,116458,1,0,0:0:0:0:
192,192,116608,1,0,0:0:0:0:
448,192,116758,1,0,0:0:0:0:
320,192,116908,1,0,0:0:0:0:
64,192,116908,1,0,0:0:0:0:
320,192,117208,1,0,0:0:0:0:
192,192,117508,1,0,0:0:0:0:
64,192,117808,1,0,0:0:0:0:
448,192,118108,1,0,0:0:0:0:
64,192,118108,1,0,0:0:0:0:
320,192,118408,1,0,0:0:0:0:
192,192,118708,1,0,0:0:0:0:
64,192,118858,1,0,0:0:0:0:
192,192,119158,1,0,0:0:0:0:
64,192,119308,1,0,0:0:0:0:
320,192,119308,1,0,0:0:0:0:
64,192,119608,1,0,0:0:0:0:
192,192,119758,1,0,0:0:0:0:
64,192,120058,1,0,0:0:0:0:
192,192,120208,1,0,0:0:0:0:
320,192,120358,1,0,0:0:0:0:
192,192,120508,1,0,0:0:0:0:
448,192,120508,1,0,0:0:0:0:
64,192,120808,1,0,0:0:0:0:
192,192,120958,1,0,0:0:0:0:
64,192,121258,1,0,0:0:0:0:
192,192,121408,1,0,0:0:0:0:
448,192,121558,1,0,0:0:0:0:
320,192,121708,1,0,0:0:0:0:
64,192,121708,1,0,0:0:0:0:
64,192,122608,1,0,0:0:0:0:
448,192,122908,1,0,0:0:0:0:
192,192,122908,1,0,0:0:0:0:
320,192,123058,1,0,0:0:0:0:
64,192,123133,1,0,0:0:0:0:
448,192,123208,1,0,0:0:0:0:
64,192,123808,1,0,0:0:0:0:
192,192,123883,1,0,0:0:0:0:
320,192,123958,1,0,0:0:0:0:
448,192,124033,1,0,0:0:0:0:
64,192,124108,1,0,0:0:0:0:
192,192,124108,1,0,0:0:0:0:
64,192,124408,1,0,0:0:0:0:
192,192,124558,1,0,0:0:0:0:
64,192,124858,1,0,0:0:0:0:
192,192,125008,1,0,0:0:0:0:
64,192,125083,1,0,0:0:0:0:
320,192,125158,1,0,0:0:0:0:
192,192,125233,1,0,0:0:0:0:
448,192,125308,1,0,0:0:0:0:
64,192,125308,1,0,0:0:0:0:
64,192,125608,1,0,0:0:0:0:
192,192,125758,1,0,0:0:0:0:
64,192,126058,1,0,0:0:0:0:
192,192,126208,1,0,0:0:0:0:
64,192,126283,1,0,0:0:0:0:
448,192,126358,1,0,0:0:0:0:
320,192,126433,1,0,0:0:0:0:
192,192,126508,1,0,0:0:0:0:
448,192,126508,1,0,0:0:0:0:
320,192,126808,1,0,0:0:0:0:
192,192,127108,1,0,0:0:0:0:
64,192,127408,1,0,0:0:0:0:
448,192,127708,1,0,0:0:0:0:
64,192,127708,1,0,0:0:0:0:
320,192,128008,1,0,0:0:0:0:
192,192,128308,1,0,0:0:0:0:
64,192,128458,1,0,0:0:0:0:
192,192,128758,1,0,0:0:0:0:
64,192,128908,1,0,0:0:0:0:
320,192,128908,1,0,0:0:0:0:
64,192,129232,1,0,0:0:0:0:
192,192,129394,1,0,0:0:0:0:
64,192,129735,1,0,0:0:0:0:
192,192,129914,1,0,0:0:0:0:
320,192,130093,1,0,0:0:0:0:
64,192,130280,1,0,0:0:0:0:
448,192,130280,1,0,0:0:0:0:
64,192,130667,1,0,0:0:0:0:
192,192,130860,1,0,0:0:0:0:
64,192,131284,1,0,0:0:0:0:
192,192,131515,1,0,0:0:0:0:
448,192,131746,1,0,0:0:0:0:
64,192,131977,1,0,0:0:0:0:
320,192,131977,1,0,0:0:0:0:
64,192,133580,1,0,0:0:0:0:
64,192,134595,1,0,0:0:0:0:
320,192,134935,1,0,0:0:0:0:
